<?xml version="1.0" standalone="no"?>
<!DOCTYPE svg PUBLIC "-//W3C//DTD SVG 1.1//EN" "http://www.w3.org/Graphics/SVG/1.1/DTD/svg11.dtd">
<svg xmlns="http://www.w3.org/2000/svg">
<defs >
<font id="Cormorant" horiz-adv-x="506" ><font-face
    font-family="Cormorant SemiBold"
    units-per-em="1000"
    panose-1="0 0 7 0 0 0 0 0 0 0"
    ascent="924"
    descent="-287"
    alphabetic="0" />
<glyph unicode=" " glyph-name="space" horiz-adv-x="234" />
<glyph unicode="!" glyph-name="exclam" horiz-adv-x="219" d="M112 186T107 186T102 192Q124 460 128 621Q128 625 147 629T186 633Q207 633 225 629T242 621Q183 467 113 191Q112 186 107 186ZM62 -9T48 5T34 43Q34 66 48 79T87 93Q111 93 124 80T137 43Q137
19 124 5T87 -9Q62 -9 48 5Z" />
<glyph unicode="&quot;" glyph-name="quotedbl" horiz-adv-x="331" d="M114 609Q115 620 149 630T206 640Q217 640 215 637L100 299Q99 296 92 296T85 298L114 609ZM271 609Q272 620 306 630T363 640Q374 640 372 637L257 299Q256 296 249 296T242 298L271 609Z" />
<glyph unicode="#" glyph-name="numbersign" horiz-adv-x="441" d="M422 317T422 300Q422 272 418 272H342L290 118H353Q356 118 356 101Q356 92 355 83T352 74H276L223 -83Q222 -87 204 -81T186 -71L234 74H125L72 -83Q71 -87 53 -81T35 -71L83 74H24Q23 74 22
81T20 96Q20 104 21 111T24 118H98L150 272H91Q89 272 88 279T87 295Q87 303 88 310T91 317H165L221 486Q222 490 240 483T258 472L206 317H316L372 486Q373 490 391 483T409 472L357 317H420Q422 317 422 300ZM249 118L301 272H191L139 118H249Z" />
<glyph unicode="$" glyph-name="dollar" horiz-adv-x="394" d="M365 451T368 447T370 436L356 342Q355 338 351 339T346 344Q346 359 337 384T308 430T261 458L230 279Q235 275 239 273T247 268Q293 239 317 213T341 146Q341 107 320 73T261 16T179 -11L163 -103Q162
-108 153 -108Q147 -108 143 -106T139 -100L155 -12Q119 -11 88 0T39 27Q31 33 34 47L47 156Q47 160 51 160T57 156Q66 105 92 62T158 11L194 210L175 222Q132 250 110 275T87 339Q87 346 89 360Q98 412 141 443T241 479L256 564Q257 569 266 569Q272 569 276 567T279
560L265 480Q289 479 314 472T358 455Q365 451 368 447ZM158 379T158 370Q158 346 171 328T208 293L238 460Q206 458 186 437T159 384Q158 379 158 370ZM265 106T265 111Q265 137 252 156T215 194L183 9Q212 12 234 32T263 92Q265 106 265 111Z" />
<glyph unicode="%" glyph-name="percent" horiz-adv-x="526" d="M118 302T94 330T70 403Q70 443 88 479T138 537T204 559Q244 559 267 531T290 459Q290 444 287 429Q277 375 241 339T158 302Q118 302 94 330ZM66 -9Q62 -9 52 -2T43 8L472 552Q472 553 474 553Q479
553 489 545T496 534L67 -9H66ZM191 320T202 346T221 422Q225 450 225 476Q225 508 218 525T196 542Q172 542 159 514T138 435Q134 401 134 386Q134 355 142 338T167 320Q191 320 202 346ZM313 -6T289 22T265 95Q265 135 283 171T332 230T398 252Q438 252 461 224T485
151Q485 109 467 73T418 16T353 -6Q313 -6 289 22ZM386 12T397 38T416 115Q420 142 420 169Q420 235 391 235Q366 235 353 207T333 128Q329 103 329 77Q329 12 362 12Q386 12 397 38Z" />
<glyph unicode="&amp;" glyph-name="ampersand" horiz-adv-x="760" d="M769 393T769 356Q769 329 753 302T711 257T655 239Q627 239 586 258Q566 127 493 58T313 -12Q242 -12 187 20T101 107T70 224Q70 251 76 278Q87 332 120 374T202 441T302 465Q351 465 386
444Q438 506 438 547Q438 566 432 575T411 595Q399 603 393 611T386 636Q386 656 398 668T430 681Q457 681 471 659T486 601Q486 541 447 483T353 377T204 256L155 218Q168 137 222 89T349 40Q403 40 448 67T525 145T566 267Q550 275 542 280Q501 301 477 311T430
321Q414 321 406 315T398 300Q398 291 409 273Q420 258 420 246Q420 235 413 226T390 217Q376 217 367 226T357 254Q357 282 376 309T425 353T487 371Q513 371 541 360T606 329Q641 311 663 303T703 294Q717 294 725 299T733 313Q733 320 728 326T721 334Q713 343
709 350T705 366Q705 378 713 385T737 393Q769 393 769 356ZM152 287T152 262Q152 247 153 240Q182 263 184 265Q278 339 319 377Q297 436 249 436Q214 436 190 401T156 310Q152 287 152 262Z" />
<glyph unicode="&apos;" glyph-name="quotesingle" horiz-adv-x="136" d="M99 609Q100 620 134 630T191 640Q202 640 200 637L85 299Q84 296 77 296T70 298L99 609Z" />
<glyph unicode="(" glyph-name="parenleft" horiz-adv-x="287" d="M132 -75T98 2T63 183Q63 238 74 304Q99 445 172 558T349 725H350Q353 725 355 722T355 717Q284 645 239 544T170 304Q155 217 155 141Q155 1 208 -109V-110Q208 -113 206 -115T201 -117Q132 -75 98 2Z" />
<glyph unicode=")" glyph-name="parenright" horiz-adv-x="287" d="M195 683T229 606T264 425Q264 370 253 304Q228 163 155 50T-22 -117H-23Q-26 -117 -28 -114T-28 -109Q43 -37 88 64T157 304Q172 391 172 467Q172 607 119 717V718Q119 721 121 723T126 725Q195
683 229 606Z" />
<glyph unicode="*" glyph-name="asterisk" horiz-adv-x="448" d="M241 660Q238 671 273 681T333 692Q344 692 343 688L276 529Q275 526 271 526T265 529L241 660ZM113 528Q103 529 103 561Q103 585 108 611T118 634L247 521Q248 520 248 518Q248 515 247 513T243
511L113 528ZM291 503Q289 503 288 507T289 513L403 576Q411 581 427 560T455 513T461 488L291 503ZM197 362T188 362Q176 362 153 371T112 390T98 404L245 491L247 492Q249 492 252 490T254 485L198 366Q197 362 188 362ZM273 481V482Q273 484 276 486T281 487L377
398Q384 392 368 370T332 328T310 315L273 481Z" />
<glyph unicode="+" glyph-name="plus" horiz-adv-x="398" d="M366 212T367 205T369 190Q369 181 368 174T364 167H221V25Q221 23 213 22T195 20Q176 20 176 23V167H34Q32 167 31 174T29 191Q29 199 30 205T33 212H176V354Q176 356 183 357T199 359Q207 359 214
358T221 354V212H364Q366 212 367 205Z" />
<glyph unicode="," glyph-name="comma" horiz-adv-x="231" d="M108 93T124 75T140 24Q140 7 136 -9Q128 -48 98 -88T23 -160Q22 -161 20 -161Q17 -161 15 -157T16 -151Q85 -93 96 -27Q98 -15 98 -12Q98 -8 96 0Q86 -8 71 -8Q48 -8 35 6T22 41Q22 63 37 78T79 93Q108
93 124 75Z" />
<glyph unicode="-" glyph-name="hyphen" horiz-adv-x="305" d="M30 164T29 176T27 199Q27 214 29 214L279 261Q281 262 282 252T284 230Q284 212 281 212L33 165Q30 164 29 176Z" />
<glyph unicode="." glyph-name="period" horiz-adv-x="204" d="M50 -9T36 5T22 43Q22 66 36 79T75 93Q99 93 112 80T125 43Q125 19 112 5T75 -9Q50 -9 36 5Z" />
<glyph unicode="/" glyph-name="slash" horiz-adv-x="305" d="M-10 -172T-20 -170T-40 -162T-48 -155L336 734Q338 738 348 736T367 728T374 718L-9 -169Q-10 -172 -20 -170Z" />
<glyph unicode="0" glyph-name="zero" horiz-adv-x="445" d="M115 -13T71 32T27 150Q27 175 31 196Q41 255 74 301T157 373T261 399Q333 399 376 356T419 240Q419 220 414 193Q403 133 370 86T288 13T186 -13Q115 -13 71 32ZM249 5T280 53T324 181Q329 211 329
247Q329 311 307 346T247 381Q202 381 167 333T120 204Q115 169 115 144Q115 82 137 44T202 5Q249 5 280 53Z" />
<glyph unicode="1" glyph-name="one" horiz-adv-x="291" d="M4 0T4 6T8 12Q43 12 61 17T87 36T102 81L136 272Q141 295 141 306Q141 324 126 324Q110 324 56 300L54 299Q51 299 50 304T52 313L226 398Q228 400 231 398T233 393L176 81Q173 63 173 51Q173 27 188
20T248 12Q252 12 252 6T248 0Q217 0 198 1L129 2L59 1Q40 0 8 0Q4 0 4 6Z" />
<glyph unicode="2" glyph-name="two" horiz-adv-x="370" d="M94 94T140 137T211 215T241 284Q243 298 243 305Q243 334 229 352T187 371Q154 371 127 341T72 252Q71 251 69 251Q66 251 63 252T61 257L119 410Q121 412 124 412Q132 412 131 405Q127 394 127 387Q127
378 136 378Q144 378 165 385Q185 392 200 395T235 399Q277 399 300 378T324 321Q324 286 307 257T262 204T187 143Q135 106 98 72Q94 70 98 70Q179 70 219 73T284 89T320 129Q321 132 326 131T330 126L292 8Q290 0 284 0H9Q5 0 3 5T2 15Q94 94 140 137Z" />
<glyph unicode="3" glyph-name="three" horiz-adv-x="350" d="M313 252T279 204T187 131Q238 122 263 91T288 15Q288 1 285 -16Q277 -62 239 -111T132 -203T-32 -276Q-35 -277 -37 -271T-37 -264Q72 -223 129 -155T198 -18Q201 0 201 16Q201 57 180 81T120 106Q102
106 80 98Q75 97 73 104T76 113Q145 131 181 169T229 273Q233 293 233 313Q233 373 187 373Q148 373 114 344T50 258Q49 256 46 256Q43 256 40 258T38 263L97 405Q99 407 100 407Q103 407 105 405T107 400Q104 391 104 387Q104 377 116 377Q122 377 148 385Q164
390 182 394T219 399Q265 399 289 373T313 306Q313 252 279 204Z" />
<glyph unicode="4" glyph-name="four" horiz-adv-x="430" d="M367 61T367 53Q367 40 364 22T357 4L293 7L264 -158Q262 -169 255 -172L192 -188Q186 -190 186 -190Q183 -190 184 -182L218 9Q157 11 -8 11Q-12 11 -13 14T-11 22L349 403Q350 404 353 404Q363 404
361 398L302 59Q321 59 365 61Q367 61 367 53ZM128 55T226 57L266 286L54 62Q51 59 52 57T58 55Q128 55 226 57Z" />
<glyph unicode="5" glyph-name="five" horiz-adv-x="374" d="M356 425T357 425Q360 425 362 423T364 419L330 331Q324 319 319 316T301 313L125 309Q114 309 108 294L77 196Q189 195 243 155T297 47Q297 35 293 9Q278 -74 204 -139T-23 -275H-24Q-28 -275 -30
-271T-28 -264Q86 -203 139 -141T203 -8Q207 20 207 32Q207 95 168 131T54 167Q50 167 48 170T48 179L108 357Q110 364 112 365T122 368Q240 383 280 389T334 401T354 423Q356 425 357 425Z" />
<glyph unicode="6" glyph-name="six" horiz-adv-x="423" d="M118 -13T76 28T33 146Q33 175 39 208Q56 300 112 390T254 552T446 661Q450 662 451 657T450 649Q362 606 293 537T182 387T126 226Q120 192 120 160Q120 92 147 51T224 9Q256 9 277 36T307 116Q310
137 310 156Q310 199 294 224T243 250Q227 250 212 244T176 223L174 222Q172 222 170 225T168 230Q217 282 286 282Q343 282 370 251T397 174Q397 157 394 142Q386 99 357 64T286 8T195 -13Q118 -13 76 28Z" />
<glyph unicode="7" glyph-name="seven" horiz-adv-x="390" d="M-11 -276T-13 -273T-14 -268L334 312Q338 319 331 319Q201 319 149 315T78 297T44 250Q44 248 40 248Q37 248 34 250T32 254L94 415Q94 417 97 417Q100 417 103 415T106 412Q103 403 103 398Q103
391 111 389T143 386H382Q386 386 388 382T388 373L92 -220Q83 -237 69 -244L-9 -275Q-11 -276 -13 -273Z" />
<glyph unicode="8" glyph-name="eight" horiz-adv-x="440" d="M339 321T361 302T398 256T414 193Q414 178 411 161Q401 109 368 70T289 9T193 -13Q140 -13 102 5T43 55T23 125Q23 189 76 247T198 337Q165 360 148 382T130 436Q130 442 132 456Q142 512 189 543T291
574Q330 574 356 559T396 520T410 473Q410 407 301 347Q339 321 361 302ZM206 434T226 409T288 355Q312 379 324 406T336 466Q336 503 319 529T274 555Q246 555 226 531T206 470Q206 434 226 409ZM331 149T331 164Q331 204 314 233T275 281T211 328Q172 303 147
264T114 175Q111 159 111 143Q111 87 140 48T221 9Q260 9 290 42T328 132Q331 149 331 164Z" />
<glyph unicode="9" glyph-name="nine" horiz-adv-x="424" d="M-26 -276T-27 -271T-26 -263Q62 -221 131 -150T242 3T298 160Q304 190 304 220Q304 287 277 331T201 376Q133 376 118 282Q115 264 115 248Q115 200 135 168T190 136Q204 136 217 142T250 164Q251
165 253 165Q256 165 258 163T259 158Q213 104 148 104Q90 104 59 142T28 231Q28 276 56 315T132 376T232 399Q305 399 347 356T389 234Q389 203 384 178Q369 87 314 -3T171 -165T-22 -275Q-26 -276 -27 -271Z" />
<glyph unicode=":" glyph-name="colon" horiz-adv-x="204" d="M50 -9T36 5T22 43Q22 66 36 79T75 93Q99 93 112 80T125 43Q125 19 112 5T75 -9Q50 -9 36 5ZM87 272T73 286T59 324Q59 347 73 360T112 374Q136 374 149 361T162 324Q162 300 149 286T112 272Q87 272 73 286Z" />
<glyph unicode=";" glyph-name="semicolon" horiz-adv-x="222" d="M108 93T124 75T140 24Q140 7 136 -9Q128 -48 98 -88T23 -160Q22 -161 20 -161Q17 -161 15 -157T16 -151Q85 -93 96 -27Q98 -15 98 -12Q98 -8 96 0Q86 -8 71 -8Q48 -8 35 6T22 41Q22 63 37 78T79
93Q108 93 124 75ZM87 272T73 286T59 324Q59 347 73 360T112 374Q136 374 149 361T162 324Q162 300 149 286T112 272Q87 272 73 286Z" />
<glyph unicode="&lt;" glyph-name="less" horiz-adv-x="407" d="M376 68T376 45Q376 22 369 25L35 173Q30 176 30 190Q30 205 35 207L369 354Q376 358 376 335Q376 313 369 309L91 190L369 71Q376 68 376 45Z" />
<glyph unicode="=" glyph-name="equal" horiz-adv-x="468" d="M32 237T31 244T29 261Q29 269 30 275T33 282H434Q436 282 437 275T439 260Q439 251 438 244T434 237H34Q32 237 31 244ZM32 97T31 104T29 121Q29 129 30 135T33 142H434Q436 142 437 135T439 120Q439
111 438 104T434 97H34Q32 97 31 104Z" />
<glyph unicode="&gt;" glyph-name="greater" horiz-adv-x="407" d="M376 204T376 189Q376 175 371 172L37 25Q34 24 32 29T30 44Q30 53 32 61T37 70L315 189L37 308Q34 309 32 317T30 334Q30 343 32 349T37 354L371 206Q376 204 376 189Z" />
<glyph unicode="?" glyph-name="question" horiz-adv-x="295" d="M124 209T116 237T108 290Q108 301 109 306Q114 337 130 357T179 406Q213 435 231 457T255 517Q257 533 257 541Q257 570 246 588T212 607Q179 607 173 565Q170 542 160 526T124 510Q105 510 95
521T84 548Q84 583 125 604T220 625Q275 625 308 600T341 529Q341 514 339 505Q333 475 318 452T288 415T239 372Q194 337 175 311T151 249Q149 233 149 222Q149 214 151 192Q152 188 146 186T138 187Q124 209 116 237ZM94 -9T80 5T66 43Q66 66 80 79T119 93Q143
93 156 80T169 43Q169 19 156 5T119 -9Q94 -9 80 5Z" />
<glyph unicode="@" glyph-name="at" horiz-adv-x="726" d="M403 54T403 112Q403 128 407 144L411 164Q377 113 337 83T263 52Q238 52 222 67T206 116Q206 122 208 138Q216 192 250 243T330 326T416 358Q449 358 466 335Q489 348 493 365Q495 367 501 367Q513 367
511 364L470 140Q467 127 467 115Q467 78 505 78Q530 78 555 96T598 151T616 236Q616 302 584 357T495 444T368 477Q292 477 236 440T151 339T122 200Q122 119 156 58T252 -36T397 -69Q444 -69 482 -59T564 -20H565Q567 -20 569 -23T570 -28Q518 -71 467 -87T362
-103Q279 -103 212 -70T105 26T66 175Q66 269 112 343T236 458T402 500Q480 500 540 468T632 383T665 267Q665 210 638 161T565 83T465 54Q403 54 403 112ZM326 108T352 133T401 196T431 273Q433 287 433 292Q433 311 425 323T403 335Q366 335 332 290T285 183Q281
166 281 146Q281 108 305 108Q326 108 352 133Z" />
<glyph unicode="A" glyph-name="A" horiz-adv-x="603" d="M574 12T574 6T570 0Q555 0 521 2Q485 4 462 4Q440 4 406 2Q374 0 359 0Q355 0 355 6T359 12Q391 12 405 21T419 53Q419 60 415 84L373 307H227L130 130Q102 81 102 54Q102 31 120 22T175 12Q179 12 179
6T174 0Q161 0 125 2Q81 4 58 4Q37 4 9 2Q-19 0 -34 0Q-38 0 -38 6T-34 12Q-6 12 30 42T101 132L382 634Q384 637 390 637Q393 637 396 636T400 633L502 84Q508 52 513 39T530 19T570 12Q574 12 574 6ZM241 332H369L336 505L241 332Z" />
<glyph unicode="B" glyph-name="B" horiz-adv-x="548" d="M429 342T468 304T507 210Q507 194 504 177Q494 127 459 86T370 20T256 -4Q228 -4 195 -1Q182 0 165 1T126 2L60 1Q43 0 13 0Q11 0 11 6T13 12Q56 12 73 26T97 83L179 546Q182 564 182 575Q182 598 170
605T123 613Q120 613 120 619T123 625L170 624Q210 622 233 622Q251 622 265 623T289 625Q318 628 344 628Q424 628 466 600T509 520Q509 507 506 493Q495 446 458 409T360 351Q429 342 468 304ZM230 352L267 351Q328 351 368 391T422 495Q426 519 426 528Q426
568 401 589T327 610Q298 610 284 595T263 539L230 352ZM416 190T416 209Q416 264 383 295T281 326Q247 326 225 324L182 78Q179 63 179 52Q179 32 192 24T241 16Q382 16 411 163Q416 190 416 209Z" />
<glyph unicode="C" glyph-name="C" horiz-adv-x="587" d="M182 -12T119 60T55 242Q55 273 62 315Q79 412 136 485T272 597T435 636Q476 636 518 627T583 605Q589 601 590 597T591 582L577 455Q576 452 572 452T566 455Q552 531 508 571T395 611Q305 611 242 540T160
346Q154 304 154 264Q154 191 174 132T234 40T325 6Q432 6 536 157Q537 159 540 159Q543 159 545 158T547 154L519 41Q516 29 513 25T501 18Q411 -12 319 -12Q182 -12 119 60Z" />
<glyph unicode="D" glyph-name="D" horiz-adv-x="628" d="M221 -4T191 -1Q179 0 161 1T120 2L56 1Q40 0 12 0Q9 0 9 6T12 12Q41 12 55 17T77 36T91 81L173 544Q177 570 177 576Q177 598 165 605T119 613Q117 613 117 619T119 625L165 624Q205 622 229 622Q258
622 288 625Q328 627 344 627Q427 627 488 597T583 511T617 383Q617 355 611 323Q594 227 539 153T405 37T246 -4Q221 -4 191 -1ZM306 14T362 47T457 146T512 301Q519 339 519 383Q519 482 475 545T339 609Q298 609 281 595T257 542L178 92Q175 76 175 63Q175 38
190 26T241 14Q306 14 362 47Z" />
<glyph unicode="E" glyph-name="E" horiz-adv-x="525" d="M523 625T521 616L500 485Q500 482 496 482Q493 482 491 483T488 486Q488 541 458 573T377 606H338Q308 606 294 602T274 584T263 543L227 338H349Q392 338 415 355T446 412Q447 417 453 417T458 411L449
360Q446 346 442 325Q438 305 435 279Q433 269 431 256T426 225Q425 221 419 221T414 226Q416 235 416 250Q416 312 342 312H222L182 85Q179 67 179 55Q179 34 191 27T234 20H288Q339 20 388 57T469 156Q469 158 473 158Q476 158 478 157T480 154Q462 96 447 15Q445
7 442 4T431 0H19Q16 0 16 6T19 12Q48 12 62 17T83 36T96 81L178 544Q182 570 182 576Q182 598 170 605T125 613Q123 613 123 619T125 625H515Q523 625 521 616Z" />
<glyph unicode="F" glyph-name="F" horiz-adv-x="484" d="M520 625T518 616Q502 513 498 485Q497 482 491 482T486 486Q484 541 454 573T374 606H335Q305 606 291 602T271 585T259 543L221 326H325Q369 326 391 343T422 401Q422 404 428 404Q430 404 432 403T434
399Q430 369 422 335L418 313L403 214Q402 210 396 210T391 215Q393 231 393 238Q393 300 318 300H216L178 85Q175 69 175 57Q175 30 194 21T266 12Q268 12 268 6T266 0Q242 0 225 1L120 2L59 1Q43 0 14 0Q12 0 12 6T14 12Q44 12 58 17T80 36T93 81L175 544Q179
570 179 576Q179 598 167 605T122 613Q119 613 119 619T122 625H512Q520 625 518 616Z" />
<glyph unicode="G" glyph-name="G" horiz-adv-x="632" d="M243 -12T182 21T89 112T57 246Q57 280 63 316Q80 409 137 482T277 595T453 636Q495 636 535 628T600 605Q606 601 607 597T607 582L593 455Q592 452 587 452T582 455Q568 530 525 571T411 612Q314 612
249 543T163 353Q156 310 156 265Q156 146 211 77T361 8Q397 8 418 18T452 53T471 126Q477 162 477 183Q477 205 469 215T443 229T387 233Q385 233 384 235T382 241Q382 244 383 246T387 249Q459 244 505 244Q550 244 599 247Q602 247 602 240T599 233Q583 234
576 227T565 199T551 116Q544 75 544 55T541 28Q540 22 538 20T530 16Q415 -12 330 -12Q243 -12 182 21Z" />
<glyph unicode="H" glyph-name="H" horiz-adv-x="674" d="M703 625T703 619T701 613Q673 613 659 608T637 588T624 544L542 81Q539 62 539 49Q539 27 551 20T595 12Q598 12 598 6T595 0Q570 0 555 1L489 2L426 1Q409 0 380 0Q378 0 378 6T380 12Q410 12 424 17T445
36T457 81L498 312H216L175 81Q171 53 171 48Q171 26 183 19T228 12Q231 12 231 6T228 0Q200 0 184 1L118 2L56 1Q40 0 12 0Q9 0 9 6T12 12Q41 12 55 17T77 36T91 81L173 544Q177 570 177 576Q177 597 165 605T119 613Q117 613 117 619T119 625L164 624Q202 622
225 622Q249 622 289 624L335 625Q337 625 337 619T335 613Q306 613 292 607T270 587T257 542L221 338H502L538 542Q542 570 542 576Q542 597 530 605T487 613Q484 613 484 619T487 625L531 624Q569 622 593 622Q618 622 656 624L701 625Q703 625 703 619Z" />
<glyph unicode="I" glyph-name="I" horiz-adv-x="327" d="M20 0T20 6T23 12Q52 12 66 17T87 36T100 81L182 544Q186 570 186 576Q186 598 174 605T128 613Q125 613 125 619T128 625L174 624Q212 622 235 622Q265 622 303 624L345 625Q348 625 348 619T345 613Q316
613 302 607T281 587T268 542L186 81Q182 62 182 47Q182 26 194 19T240 12Q242 12 242 6T240 0Q213 0 197 1L131 2L69 1Q53 0 23 0Q20 0 20 6Z" />
<glyph unicode="J" glyph-name="J" horiz-adv-x="305" d="M-25 -194T-28 -189T-29 -182Q16 -155 42 -101T85 40L174 544Q177 564 177 576Q177 598 165 605T120 613Q117 613 117 619T120 625L164 624Q202 622 227 622Q255 622 295 624L336 625Q339 625 339 619T336
613Q308 613 294 607T272 587T259 542L175 67Q161 -11 138 -59T76 -138T-23 -193Q-25 -194 -28 -189Z" />
<glyph unicode="K" glyph-name="K" horiz-adv-x="615" d="M648 625T648 619T645 613Q606 613 557 590T462 525L322 397L417 211Q468 115 492 76T533 24T576 12Q579 12 579 6T576 0H485Q437 0 426 5T392 63T348 156L255 336L214 299L175 81Q174 74 172 61T169 40Q169
23 180 18T225 12Q228 12 228 6T225 0Q197 0 182 1L118 2L56 1Q40 0 12 0Q9 0 9 6T12 12Q41 12 55 17T77 36T91 81L173 544Q177 570 177 576Q177 598 165 605T119 613Q117 613 117 619T119 625L164 624Q202 622 225 622Q249 622 289 624L335 625Q337 625 337 619T335
613Q306 613 292 607T270 587T257 542L219 328L438 531Q472 562 472 586Q472 613 429 613Q427 613 427 619T429 625L475 624Q521 622 550 622Q580 622 612 624L645 625Q648 625 648 619Z" />
<glyph unicode="L" glyph-name="L" horiz-adv-x="502" d="M11 0T11 6T13 12Q42 12 56 17T78 36T91 81L173 544Q177 570 177 576Q177 598 165 605T119 613Q117 613 117 619T119 625L164 624Q202 622 225 622Q249 622 289 624L335 625Q337 625 337 619T335 613Q306
613 292 608T270 588T257 543L176 85Q173 66 173 54Q173 34 183 27T219 20H270Q337 20 387 56T475 165Q475 166 479 166Q487 166 486 162Q463 79 452 15Q450 7 447 4T436 0H13Q11 0 11 6Z" />
<glyph unicode="M" glyph-name="M" horiz-adv-x="739" d="M770 625T770 619T768 613Q733 613 716 600T693 546L624 81Q621 63 621 50Q621 27 633 20T678 12Q681 12 681 6T678 0Q651 0 635 1L570 2L507 1Q491 0 463 0Q460 0 460 6T463 12Q493 12 507 17T528 36T540
81L611 559L333 7Q331 3 326 3Q321 3 319 8L207 536L132 123Q128 93 128 83Q128 48 142 30T183 12Q186 12 186 6T183 0Q161 0 149 1L98 2L53 1Q40 0 15 0Q12 0 12 6T15 12Q49 12 73 40T107 121L192 578Q171 613 123 613Q121 613 121 619T123 625Q140 625 149 624L184
623L234 624Q243 625 255 625Q266 625 272 615T286 573L378 137L609 600Q622 625 645 625Q657 625 666 624L702 623L741 624Q750 625 768 625Q770 625 770 619Z" />
<glyph unicode="N" glyph-name="N" horiz-adv-x="654" d="M704 625T704 619T702 613Q665 613 640 587T605 512L513 -8Q513 -11 509 -12T499 -14Q491 -14 488 -10L198 529L124 113Q121 97 121 82Q121 12 185 12Q187 12 187 6T185 0Q161 0 148 1L94 2L45 1Q30 0
3 0Q0 0 0 6T3 12Q40 12 65 38T99 113L180 562Q162 590 145 601T108 613Q105 613 105 619T108 625L150 624Q164 623 188 623Q209 623 224 624T245 625Q251 625 254 622T261 607Q266 594 277 573L512 136L580 512Q583 530 583 544Q583 578 567 595T520 613Q517 613
517 619T520 625L555 624Q587 622 610 622Q627 622 661 624L702 625Q704 625 704 619Z" />
<glyph unicode="O" glyph-name="O" horiz-adv-x="654" d="M212 -12T161 20T83 110T56 240Q56 278 63 313Q79 405 129 479T253 594T410 636Q482 636 534 604T613 516T641 387Q641 348 634 313Q617 216 564 143T436 29T282 -12Q212 -12 161 20ZM401 14T458 79T536
260Q545 310 545 357Q545 430 525 488T465 579T371 612Q294 612 237 546T160 366Q151 318 151 271Q151 199 171 141T231 48T325 14Q401 14 458 79Z" />
<glyph unicode="P" glyph-name="P" horiz-adv-x="522" d="M12 0T12 6T14 12Q44 12 58 17T80 36T93 81L175 544Q179 570 179 577Q179 598 167 605T122 613Q119 613 119 619T122 625L164 624Q204 622 228 622Q239 622 275 624Q323 628 349 628Q431 628 481 593T531
489Q531 473 528 453Q516 390 476 347T383 283T281 262Q256 262 240 267Q239 267 239 270Q239 275 241 280T245 285Q258 281 275 281Q331 281 375 319T431 433Q435 453 435 476Q435 537 405 573T329 609Q303 609 291 604T271 586T258 542L177 81Q173 55 173 48Q173
27 185 20T230 12Q233 12 233 6T230 0Q202 0 186 1L120 2L58 1Q42 0 14 0Q12 0 12 6Z" />
<glyph unicode="Q" glyph-name="Q" horiz-adv-x="654" d="M695 -173T696 -178T696 -185Q647 -199 618 -199Q550 -199 483 -147T366 0Q324 -12 282 -12Q212 -12 161 20T83 110T56 240Q56 278 63 313Q79 405 129 479T253 594T410 636Q482 636 534 604T613 516T641
387Q641 348 634 313Q618 221 569 149T449 36Q472 -24 510 -73T588 -150T659 -178Q672 -178 692 -174Q695 -173 696 -178ZM151 318T151 271Q151 199 171 141T231 48T325 14Q401 14 458 79T536 260Q545 310 545 357Q545 430 525 488T465 579T371 612Q294 612 237
546T160 366Q151 318 151 271Z" />
<glyph unicode="R" glyph-name="R" horiz-adv-x="628" d="M607 12T607 6T603 0H467Q444 0 402 82T308 324Q275 317 249 317Q240 317 230 319L188 81Q184 62 184 46Q184 26 196 19T243 12Q247 12 247 6T244 0Q213 0 196 1L131 2L65 1Q48 0 18 0Q14 0 14 6T18 12Q49
12 65 17T89 37T103 81L185 544Q189 570 189 577Q189 598 176 605T129 613Q125 613 125 619T129 625L175 624Q215 622 240 622Q256 622 270 623T296 625Q324 628 347 628Q423 628 462 603T501 530Q501 478 466 430T376 351Q427 223 464 150T535 45T603 12Q607 12
607 6ZM250 342T268 342Q330 342 362 371T404 469Q408 492 408 514Q408 563 388 586T334 609Q309 609 299 606T282 589T270 542L235 345Q250 342 268 342Z" />
<glyph unicode="S" glyph-name="S" horiz-adv-x="467" d="M151 -12T116 -5T44 22Q34 29 38 41L64 179Q64 184 69 184T75 179Q104 9 215 9Q261 9 292 37T332 117Q334 135 334 142Q334 191 306 225T226 298Q188 327 167 346T130 391T115 452Q115 466 118 481Q133
556 194 596T334 636Q391 636 449 612Q463 605 460 595L446 471Q445 468 440 468T434 471Q422 537 391 577T311 617Q274 617 250 598T215 551T203 497Q203 467 217 443T251 401T309 354Q367 311 397 275T428 186Q428 168 426 159Q413 84 351 36T189 -12Q151 -12
116 -5Z" />
<glyph unicode="T" glyph-name="T" horiz-adv-x="553" d="M120 0T120 6T123 12Q159 12 177 17T203 36T218 81L299 544Q302 562 302 574Q302 592 293 598T261 604H245Q193 604 149 562T85 452Q84 449 79 450T74 454Q82 480 97 545T120 647Q121 650 127 650T132
646Q129 625 171 625Q245 622 354 622Q405 622 467 624L530 625Q560 625 575 630T596 650Q598 653 603 653T607 648Q598 617 583 548T565 454Q564 450 558 450T553 455Q557 483 557 494Q557 545 531 574T456 604H440Q410 604 400 592T384 542L303 81Q299 57 299
50Q299 27 315 20T375 12Q377 12 377 6T375 0Q342 0 323 1L248 2L176 1Q156 0 123 0Q120 0 120 6Z" />
<glyph unicode="U" glyph-name="U" horiz-adv-x="619" d="M563 525T563 540Q563 575 546 594T498 613Q495 613 495 619T498 625L540 624Q574 622 593 622Q611 622 643 624L681 625Q685 625 685 619T681 613Q645 613 620 583T586 501L534 203Q516 102 446 44T276
-14Q187 -14 136 32T85 160Q85 185 89 208L149 546Q153 572 153 578Q153 600 141 606T94 613Q91 613 91 619T93 625L141 624Q181 622 204 622Q231 622 273 624L316 625Q319 625 319 619T316 613Q286 613 271 607T247 585T234 539L180 237Q174 200 174 168Q174 94
209 58T308 21Q387 21 440 71T507 208L560 507Q563 525 563 540Z" />
<glyph unicode="V" glyph-name="V" horiz-adv-x="597" d="M674 625T674 619T670 613Q637 613 611 594T554 516L286 1Q283 -4 274 -4Q263 -4 261 1L134 542Q125 581 112 597T73 613Q70 613 70 619T73 625L117 624Q147 622 162 622Q194 622 236 624L278 625Q281
625 281 619T278 613Q250 613 235 604T220 573Q220 564 223 552L322 122L526 520Q540 548 540 567Q540 589 523 601T475 613Q472 613 472 619T475 625L518 624Q554 622 585 622Q603 622 629 624L670 625Q674 625 674 619Z" />
<glyph unicode="W" glyph-name="W" horiz-adv-x="830" d="M906 625T906 619T902 613Q869 613 843 594T787 516L518 1Q517 -3 506 -3Q494 -3 493 1L429 277L286 1Q283 -3 273 -3Q262 -3 261 1L134 542Q125 581 112 597T73 613Q70 613 70 619T73 625L117 624Q147
622 162 622Q191 622 225 624L261 625Q265 625 265 619T261 613Q241 613 229 604T217 574Q217 564 220 552L321 118L420 313L367 542Q357 583 347 598T314 613Q311 613 311 619T314 625L354 624Q382 622 395 622Q417 622 441 624L468 625Q473 625 473 619T468 613Q455
613 450 610T445 595Q445 587 452 552L485 411L541 520Q564 564 564 587Q564 613 531 613Q529 613 529 619T531 625L558 624Q582 622 600 622Q615 622 637 624L673 625Q676 625 676 619T673 613Q645 613 622 594T568 516L494 373L554 117L759 520Q774 549 774 570Q774
590 761 601T722 613Q719 613 719 619T722 625L760 624Q792 622 818 622Q835 622 861 624L902 625Q906 625 906 619Z" />
<glyph unicode="X" glyph-name="X" horiz-adv-x="580" d="M629 625T629 619T624 613Q593 613 554 587T473 508L347 348L449 83Q464 44 483 28T535 12Q539 12 539 6T535 0Q510 0 496 1L444 2L369 1Q350 0 319 0Q315 0 315 6T319 12Q340 12 354 19T368 39Q368 47
366 51L280 275L144 100Q116 65 116 43Q116 12 169 12Q173 12 173 6T169 0Q139 0 121 1L49 2L11 1Q-1 0 -26 0Q-30 0 -30 6T-26 12Q6 12 44 37T124 115L270 300L178 542Q164 580 147 596T102 613Q99 613 99 619T102 625Q114 625 138 623L173 622Q202 622 250 624L298
625Q301 625 301 619T298 613Q280 613 269 607T258 587Q258 581 261 573L338 373L453 523Q482 561 482 582Q482 613 429 613Q425 613 425 619T429 625L477 624Q521 622 550 622Q564 622 588 624L624 625Q629 625 629 619Z" />
<glyph unicode="Y" glyph-name="Y" horiz-adv-x="533" d="M607 625T607 619T603 613Q539 613 469 509L334 311L293 81Q289 55 289 49Q289 27 303 20T355 12Q358 12 358 6T355 0Q325 0 308 1L239 2L169 1Q152 0 122 0Q118 0 118 6T122 12Q155 12 171 17T195 36T209
81L246 301L144 542Q128 580 111 596T72 613Q68 613 68 619T72 625L114 624Q144 622 159 622Q184 622 228 624L274 625Q277 625 277 620Q277 613 273 613Q247 613 236 608T224 592Q224 585 229 573L326 338L450 525Q470 556 470 577Q470 594 458 603T425 613Q421
613 421 619T425 625L471 624Q511 622 536 622Q551 622 571 624L603 625Q607 625 607 619Z" />
<glyph unicode="Z" glyph-name="Z" horiz-adv-x="554" d="M330 0T11 0Q7 0 6 4T7 13L474 600Q479 605 479 606T472 608Q346 608 285 599T188 563T114 475Q112 471 107 472T104 478L174 655Q174 656 177 656Q180 656 183 655T185 651Q183 646 183 639Q183 630 192
628T230 625H577Q581 625 583 620T582 612L120 27Q116 22 116 21T122 19H261Q353 19 407 47T504 148Q506 152 511 151T516 146L478 8Q478 5 475 2T469 -2Q330 0 11 0Z" />
<glyph unicode="[" glyph-name="bracketleft" horiz-adv-x="251" d="M15 -117T14 -115T14 -106L159 715Q160 722 162 723T169 725H315Q319 725 319 719T315 713Q281 713 264 707T238 687T224 642L105 -34Q102 -52 102 -65Q102 -88 116 -96T169 -105Q174 -105 174
-111T169 -117H20Q15 -117 14 -115Z" />
<glyph unicode="\" glyph-name="backslash" horiz-adv-x="305" d="M111 723Q110 727 119 730T139 733Q152 733 152 728L225 -158Q226 -162 216 -164T196 -167Q184 -167 183 -163L111 723Z" />
<glyph unicode="]" glyph-name="bracketright" horiz-adv-x="250" d="M275 725T276 723T276 714L131 -107Q130 -114 128 -115T121 -117H-25Q-29 -117 -29 -111T-25 -105Q9 -105 26 -99T52 -79T66 -34L185 642Q188 660 188 673Q188 696 174 704T121 713Q117 713
117 719T121 725H270Q275 725 276 723Z" />
<glyph unicode="^" glyph-name="asciicircum" horiz-adv-x="353" d="M95 374T93 374Q90 374 87 376T85 380L243 629Q246 634 254 634Q263 634 263 629L333 380Q333 378 329 376T323 377L231 506L96 375Q95 374 93 374Z" />
<glyph unicode="_" glyph-name="underscore" horiz-adv-x="363" d="M-9 -79T-10 -72T-12 -55Q-12 -47 -11 -41T-8 -34H311Q313 -34 314 -41T316 -57Q316 -65 315 -72T311 -79H-7Q-9 -79 -10 -72Z" />
<glyph unicode="`" glyph-name="grave" horiz-adv-x="166" d="M117 727Q116 733 135 733Q154 733 176 728T199 716L181 476Q181 474 177 473T172 475L117 727Z" />
<glyph unicode="a" glyph-name="a" horiz-adv-x="441" d="M414 78T416 78Q419 78 421 75T421 69Q388 30 361 11T309 -9Q286 -9 275 4T264 47Q264 68 268 89L282 169Q242 85 188 36T82 -13Q51 -13 34 5T17 62Q17 131 60 210T168 344T291 399Q310 399 328 393T360
373Q380 390 389 407Q391 409 393 409Q396 409 399 408T401 405L343 89Q340 74 340 64Q340 52 344 45T355 38Q374 38 413 77Q414 78 416 78ZM173 52T211 93T276 191T302 289Q302 320 287 337T244 355Q212 355 182 330T131 260T100 160Q96 136 96 114Q96 52 137
52Q173 52 211 93Z" />
<glyph unicode="b" glyph-name="b" horiz-adv-x="445" d="M385 399T407 370T430 292Q430 279 426 251Q411 170 365 110T260 19T152 -13Q102 -13 73 8T44 66Q44 72 46 84L141 599Q144 616 144 628Q144 656 124 656Q110 656 80 642H78Q74 642 73 647T76 653L222
725H224Q228 725 231 722T234 717L146 227Q180 303 234 351T346 399Q385 399 407 370ZM344 247T344 269Q344 301 332 320T295 339Q237 339 190 272T122 96Q121 91 121 81Q121 51 140 33T190 14Q221 14 251 38T304 110T338 220Q344 247 344 269Z" />
<glyph unicode="c" glyph-name="c" horiz-adv-x="346" d="M91 -13T59 32T26 146Q26 170 31 202Q42 260 77 305T159 374T252 399Q288 399 315 384T343 340Q343 319 332 307T298 294Q260 294 253 335Q248 352 239 362T211 373Q175 373 150 336T114 236Q108 203 108
172Q108 108 134 70T214 31Q237 31 263 41T308 67H309Q312 67 315 64T316 58Q278 22 238 5T159 -13Q91 -13 59 32Z" />
<glyph unicode="d" glyph-name="d" horiz-adv-x="448" d="M355 89Q352 73 352 63Q352 38 368 38Q378 38 392 47T426 77Q428 79 429 79Q432 79 434 76T434 69Q399 29 373 10T320 -9Q276 -9 276 45Q276 61 281 89L295 167Q253 82 205 35T107 -13Q70 -13 46 11T21
87Q21 105 24 126Q37 197 80 260T181 361T294 399Q316 399 337 391L376 599Q379 616 379 627Q379 642 374 649T358 656Q344 656 314 642H312Q308 642 307 647T310 653L457 725H459Q463 725 466 722T468 717L355 89ZM187 50T221 85T280 171T313 261L314 267Q316
281 316 286Q316 319 296 337T244 355Q189 354 153 308T101 175Q97 151 97 128Q97 89 111 70T151 50Q187 50 221 85Z" />
<glyph unicode="e" glyph-name="e" horiz-adv-x="352" d="M303 399T323 387T343 351Q343 305 276 266T113 210Q109 178 109 163Q109 102 135 66T210 29Q233 29 258 36T304 60H305Q308 60 310 57T311 52Q242 -12 158 -12Q92 -12 58 29T24 134Q24 157 29 185Q39
238 72 287T157 368T267 399Q303 399 323 387ZM255 334T255 337Q255 354 244 363T217 372Q180 372 154 331T115 225Q241 253 253 324Q255 334 255 337Z" />
<glyph unicode="f" glyph-name="f" horiz-adv-x="266" d="M363 726T386 710T406 671Q403 653 391 643T361 633Q338 633 330 644T316 676Q312 692 308 699T291 707Q257 707 233 642T188 439L179 378L221 381Q271 385 276 385Q280 385 282 382T283 374Q280 364 270
352T251 340Q248 340 226 344T175 350L120 -21Q106 -118 87 -173T38 -251T-37 -275Q-77 -275 -99 -260T-117 -223Q-115 -206 -103 -196T-74 -186Q-53 -186 -45 -197T-33 -228Q-30 -242 -26 -249T-12 -256Q-1 -256 6 -241T21 -183T43 -47L94 306Q96 328 96 332Q96
351 86 355T43 360Q40 360 40 366Q40 374 43 374Q77 374 91 383T110 418Q130 541 155 606T220 699T322 726Q363 726 386 710Z" />
<glyph unicode="g" glyph-name="g" horiz-adv-x="385" d="M396 395T396 381Q396 366 392 349T383 335Q352 355 308 355Q330 327 330 283Q330 263 326 246Q317 202 291 169T228 117T153 98Q146 98 132 100Q123 85 123 70Q123 47 144 31T209 -7Q247 -25 270 -39T310
-76T327 -129Q327 -172 297 -207T217 -261T109 -281Q37 -281 -4 -253T-46 -180Q-46 -170 -45 -165Q-37 -129 -3 -98T92 -34Q56 -8 56 18Q56 40 71 59T116 103Q82 114 65 142T47 210Q47 222 51 246Q63 309 112 350T224 392Q266 392 293 371Q346 395 391 395Q396
395 396 381ZM252 253T252 265Q252 309 239 340T199 372Q174 372 153 340T127 259Q124 240 124 222Q124 177 139 148T179 119Q204 119 224 149T250 231Q252 253 252 265ZM257 -137T229 -114T148 -65Q113 -47 104 -42Q72 -65 53 -91T33 -152Q33 -195 69 -223T159
-251Q208 -251 232 -229T257 -173Q257 -137 229 -114Z" />
<glyph unicode="h" glyph-name="h" horiz-adv-x="452" d="M426 79T428 79Q431 79 433 76T432 69Q398 29 372 10T318 -9Q296 -9 286 4T275 43Q275 59 280 89L309 248Q314 272 314 296Q314 348 279 348Q250 348 219 311T159 203T113 33L109 10Q104 -8 61 -8Q31 -8
31 -1L35 21Q45 68 46 74L143 599Q146 616 146 627Q146 642 141 649T125 656Q111 656 81 642H79Q76 642 75 647T77 653L223 725H225Q229 725 232 722T235 717L144 208Q179 299 225 349T324 399Q391 399 391 318Q391 299 386 267L353 89Q350 74 350 64Q350 38 367
38Q385 38 424 77Q426 79 428 79Z" />
<glyph unicode="i" glyph-name="i" horiz-adv-x="247" d="M63 -9T63 43Q63 62 69 89L110 297Q113 311 113 321Q113 349 94 349Q70 349 33 307Q32 306 30 306Q26 306 24 309T24 316Q60 357 88 376T144 395Q188 395 188 346Q188 331 183 306L142 89Q139 74 139 64Q139
38 156 38Q173 38 214 76Q216 78 218 78Q221 78 223 75T222 68Q188 28 161 10T107 -9Q63 -9 63 43ZM148 504T134 518T120 557Q120 579 134 592T173 606Q197 606 210 593T223 557Q223 532 210 518T173 504Q148 504 134 518Z" />
<glyph unicode="j" glyph-name="j" horiz-adv-x="246" d="M-61 -275T-83 -260T-101 -223Q-99 -205 -87 -196T-60 -186Q-39 -186 -32 -197T-20 -228Q-17 -243 -13 -250T0 -257Q12 -257 19 -240T35 -184T60 -52L121 297Q123 306 123 320Q123 349 105 349Q83 349
44 307Q43 306 41 306Q38 306 36 309T36 316Q71 357 99 376T156 395Q178 395 188 383T199 344Q199 336 195 306L137 -27Q121 -122 101 -175T52 -251T-22 -275Q-61 -275 -83 -260ZM162 504T148 518T134 557Q134 579 148 592T187 606Q211 606 224 593T237 557Q237
532 224 518T187 504Q162 504 148 518Z" />
<glyph unicode="k" glyph-name="k" horiz-adv-x="414" d="M412 76T414 76Q418 76 420 73T419 67Q353 -9 314 -9Q288 -9 270 5T228 58L170 156Q161 170 155 175T139 180L109 10Q104 -8 61 -8Q31 -8 31 -1L35 21Q45 68 46 74L143 599Q146 616 146 627Q146 642 141
649T125 656Q111 656 81 642H79Q76 642 75 647T77 653L223 725H225Q229 725 232 722T235 717L165 323Q201 358 244 378T329 399Q364 399 378 384T393 348Q393 309 348 271T225 205L290 99Q310 66 323 55T353 44Q376 44 411 75Q412 76 414 76ZM228 360T193 318T144
206L142 197Q221 216 258 243T300 314Q305 360 272 360Q228 360 193 318Z" />
<glyph unicode="l" glyph-name="l" horiz-adv-x="244" d="M70 -9T60 4T49 44Q49 59 54 89L148 599Q151 616 151 628Q151 656 131 656Q117 656 87 642H85Q81 642 80 647T83 653L229 725H231Q235 725 238 722T241 717L128 89Q125 74 125 63Q125 38 141 38Q159 38
198 77Q200 79 202 79Q205 79 207 76T206 69Q172 29 146 10T93 -9Q70 -9 60 4Z" />
<glyph unicode="m" glyph-name="m" horiz-adv-x="682" d="M656 79T658 79Q661 79 663 76T662 69Q628 29 602 10T549 -9Q526 -9 516 4T506 45Q506 66 510 89L540 248Q545 280 545 296Q545 348 513 348Q487 348 458 313T401 208T356 43L350 10Q347 -8 302 -8Q272
-8 272 -1Q273 5 278 29T287 74L320 249Q325 279 325 295Q325 348 291 348Q265 348 235 311T179 205T135 41L129 10Q124 -8 81 -8Q51 -8 51 -1L56 23L66 72L107 297Q109 306 109 320Q109 349 91 349Q69 349 30 307Q29 306 27 306Q24 306 22 309T22 316Q57 357 85
376T142 395Q164 395 174 383T185 344Q185 336 181 306L165 214Q199 303 243 351T338 399Q401 399 401 320Q401 293 396 268L386 215Q421 303 465 351T558 399Q622 399 622 321Q622 297 616 267L584 89Q581 74 581 64Q581 38 598 38Q615 38 654 77Q656 79 658 79Z"
/>
<glyph unicode="n" glyph-name="n" horiz-adv-x="472" d="M446 79T447 79Q450 79 452 76T452 69Q418 29 392 10T338 -9Q316 -9 306 4T295 43Q295 59 300 89L329 248Q334 272 334 296Q334 348 299 348Q269 348 238 310T178 200T132 26L129 10Q124 -8 81 -8Q51 -8
51 -1L55 21Q65 68 66 74L107 297Q109 306 109 320Q109 349 91 349Q69 349 30 307Q29 306 27 306Q24 306 22 309T22 316Q57 357 85 376T142 395Q164 395 174 383T185 344Q185 336 181 306L163 206Q198 298 245 348T344 399Q411 399 411 318Q411 299 406 267L373
89Q370 74 370 64Q370 38 387 38Q405 38 444 77Q446 79 447 79Z" />
<glyph unicode="o" glyph-name="o" horiz-adv-x="405" d="M93 -14T59 28T24 137Q24 165 30 193Q41 252 72 299T150 372T247 399Q312 399 347 358T382 250Q382 223 376 193Q364 129 330 82T250 11T157 -14Q93 -14 59 28ZM226 11T253 48T292 149Q299 183 299 221Q299
287 277 331T215 375Q181 375 154 339T114 236Q107 194 107 165Q107 98 129 55T191 11Q226 11 253 48Z" />
<glyph unicode="p" glyph-name="p" horiz-adv-x="406" d="M335 393T361 366T388 288Q388 271 385 253Q375 186 339 128T251 34T145 -1Q125 -1 99 1L67 -178Q64 -196 64 -207Q64 -223 71 -230T96 -237Q100 -237 118 -235Q122 -234 123 -239T120 -246L-64 -275Q-67
-276 -68 -270T-66 -263Q-45 -259 -35 -253T-20 -232T-9 -185L76 293Q41 269 27 259Q26 258 24 258Q21 258 19 262T20 268Q40 285 80 315L93 386Q93 388 113 401T149 429T169 462Q170 466 175 465T180 460L163 363Q228 393 285 393Q335 393 361 366ZM308 240T308
250Q308 348 225 348Q191 348 158 335L106 43Q139 28 179 28Q232 28 263 80T306 220Q308 240 308 250Z" />
<glyph unicode="q" glyph-name="q" horiz-adv-x="419" d="M297 -178Q294 -193 294 -204Q294 -223 303 -232T335 -241Q341 -241 357 -239H358Q361 -239 362 -244T359 -250L161 -275Q157 -275 156 -270T159 -263Q183 -259 193 -253T210 -233T222 -185L278 133Q242
64 193 26T97 -13Q61 -13 40 10T19 77Q19 85 21 103Q31 180 71 248T170 357T293 399Q311 399 329 393T362 373Q382 390 391 407Q393 409 395 409Q398 409 401 408T403 405L297 -178ZM201 52T242 107T297 239Q301 260 301 282Q301 355 238 355Q187 355 151 309T101
167Q99 145 99 132Q99 52 149 52Q201 52 242 107Z" />
<glyph unicode="r" glyph-name="r" horiz-adv-x="351" d="M318 395T340 377T358 336Q356 322 345 311T318 299Q300 299 282 317Q276 322 270 326T257 330Q238 330 211 276T160 145T126 10Q124 2 112 -3T78 -8Q48 -8 48 -1L53 20Q55 28 58 41T64 74L102 284Q106
310 106 317Q106 349 86 349Q64 349 27 310Q26 309 24 309Q21 309 19 312T19 319Q54 359 81 377T137 395Q160 395 170 382T181 340Q181 323 176 293L156 179Q185 275 220 335T294 395Q318 395 340 377Z" />
<glyph unicode="s" glyph-name="s" horiz-adv-x="311" d="M65 -11T36 7T6 51Q6 72 18 83T47 94Q61 94 70 85T89 60Q102 39 114 29T148 19Q169 19 179 30T194 66Q195 70 195 78Q195 108 178 129T126 177Q91 206 74 227T57 278Q57 308 76 335T129 379T202 396Q246
396 272 380T295 339Q292 322 280 313T254 303Q236 303 227 311T209 336Q200 353 191 361T162 370Q144 370 133 361T120 336Q119 332 119 324Q119 298 136 277T186 229Q222 198 240 176T258 122Q258 94 238 63T184 10T106 -11Q65 -11 36 7Z" />
<glyph unicode="t" glyph-name="t" horiz-adv-x="299" d="M306 385T306 376Q306 368 295 354T274 339Q270 339 239 344T172 350L129 109Q126 96 126 84Q126 37 177 37Q217 37 265 77H266Q270 77 273 74T273 68Q227 25 193 7T124 -12Q48 -12 48 57Q48 71 51 87L91
306Q94 324 94 335Q94 350 87 355T57 360Q54 360 54 366Q54 374 57 374Q98 374 127 397T173 459Q174 461 180 461Q184 461 188 460T191 457L177 377Q203 378 224 379T261 382Q286 385 299 385Q306 385 306 376Z" />
<glyph unicode="u" glyph-name="u" horiz-adv-x="472" d="M444 80T446 80Q449 80 451 77T451 70Q415 29 387 10T330 -9Q308 -9 298 3T288 41Q288 60 292 80L309 181Q274 89 228 38T129 -13Q61 -13 61 67Q61 94 66 119L102 297Q105 312 105 322Q105 348 88 348Q78
348 64 338T31 309Q29 307 27 307Q24 307 22 310T23 317Q58 358 83 376T136 395Q180 395 180 341Q180 325 175 297L143 138Q137 110 137 90Q137 38 173 38Q203 38 235 77T295 191T342 369L343 376Q348 394 391 394Q421 394 421 387L417 365Q407 318 406 312L365
89Q363 80 363 66Q363 37 381 37Q403 37 443 79Q444 80 446 80Z" />
<glyph unicode="v" glyph-name="v" horiz-adv-x="443" d="M141 -13T113 24T88 112Q91 139 102 166T136 238Q158 282 162 291Q169 307 169 311Q169 319 157 319H108Q72 319 57 309T33 272Q32 269 27 269Q24 269 22 271T21 276Q37 323 48 345T77 377T124 387H216Q227
387 227 383Q227 380 224 375Q201 323 183 269T160 178Q157 162 157 147Q157 105 177 80T230 55Q274 55 313 95T364 198Q368 215 368 232Q368 257 360 272T335 305Q322 319 316 329T309 352Q309 374 323 385T359 396Q410 396 410 309Q410 289 407 262Q399 187 364
124T282 24T188 -13Q141 -13 113 24Z" />
<glyph unicode="w" glyph-name="w" horiz-adv-x="625" d="M592 396T592 309Q592 289 589 262Q581 187 549 124T474 24T388 -13Q332 -13 305 51Q246 -13 188 -13Q144 -13 120 16T95 96Q95 112 98 130Q109 193 162 291Q169 304 169 311Q169 319 157 319H108Q72 319
57 309T33 272Q32 269 27 269Q24 269 22 271T21 276Q37 323 48 345T77 377T124 387H216Q227 387 227 383Q227 380 224 375Q202 325 184 271T161 178Q158 162 158 147Q158 104 177 79T230 54Q261 54 294 84Q285 119 285 162Q285 199 293 249Q305 319 326 355T376
392Q416 392 416 331Q416 321 412 291Q397 187 344 103Q378 54 430 54Q458 54 485 76T529 138T547 228Q547 254 539 270T514 307Q503 319 497 329T491 352Q491 374 505 385T541 396Q592 396 592 309ZM312 234T312 220Q312 172 331 128Q349 155 362 187T379 251Q381
267 381 272Q381 292 374 302T353 312Q325 312 316 262Q312 234 312 220Z" />
<glyph unicode="x" glyph-name="x" horiz-adv-x="427" d="M390 395T409 377T426 335Q424 321 413 312T386 302Q375 302 368 306T352 317Q347 322 341 325T328 329Q314 329 297 305L245 228L288 90Q297 60 308 51T335 42Q349 42 362 50T391 74Q392 75 394 75Q398
75 400 72T399 66Q362 27 334 9T281 -10Q257 -10 243 4T215 58L187 147L133 62Q105 17 90 4T52 -10Q28 -10 9 8T-6 50Q-4 63 7 72T33 82Q45 82 52 79T68 68Q79 57 90 57Q105 57 122 80L181 167L141 292Q132 322 120 332T93 343Q68 343 36 311Q35 310 33 310Q30
310 28 313T28 319Q65 358 93 376T146 395Q171 395 186 380T214 325L238 248L286 323Q314 368 329 381T366 395Q390 395 409 377Z" />
<glyph unicode="y" glyph-name="y" horiz-adv-x="450" d="M391 396T403 379T416 331Q416 254 336 105T153 -163T-16 -281Q-69 -281 -69 -238Q-69 -231 -68 -227Q-64 -208 -51 -198T-16 -188Q0 -188 23 -195Q47 -201 59 -201Q79 -201 100 -187Q128 -168 170 -111V-65Q170
129 142 236T65 343Q52 343 40 334T18 310Q17 307 12 307Q5 307 6 313Q24 350 55 372T115 395Q154 395 183 350T227 225T242 48Q242 10 241 -10Q281 53 311 111T348 198Q353 217 353 239Q353 260 348 275T332 307Q324 320 321 330T317 351Q317 371 331 383T368
396Q391 396 403 379Z" />
<glyph unicode="z" glyph-name="z" horiz-adv-x="344" d="M348 397Q351 397 355 392T357 386L94 89Q97 90 104 90Q128 90 162 84T201 77Q259 67 274 67Q290 67 300 76T319 108Q319 109 322 109Q325 109 328 108T330 104Q316 55 306 33T284 3T254 -5Q230 -5 197
1T154 8Q92 21 56 22Q40 22 28 16T1 -7H0Q-2 -7 -6 -2T-10 5L254 300Q251 299 244 299Q223 299 162 312Q116 323 98 323Q80 323 69 314T49 282Q48 279 44 279Q41 279 39 281T38 287Q55 339 65 360T88 388T125 394Q146 393 202 381Q261 369 291 367Q307 367 319
373T346 396L348 397Z" />
<glyph unicode="{" glyph-name="braceleft" horiz-adv-x="262" d="M131 -117T107 -110T71 -86T60 -33Q60 2 73 80Q89 170 89 211Q89 249 77 269T34 298Q32 298 32 304T34 311Q68 316 89 338T124 405T152 529Q167 615 185 656T234 711T323 725Q326 725 326 719T323
713Q265 713 246 607Q224 491 208 439T164 358T79 305Q129 285 148 261T167 195Q167 175 163 144T155 91T149 60L139 1Q136 -20 136 -37Q136 -69 147 -87T177 -105Q180 -105 180 -111T177 -117Q131 -117 107 -110Z" />
<glyph unicode="|" glyph-name="bar" horiz-adv-x="152" d="M35 -160T20 -160Q11 -160 3 -158T-4 -151L151 731Q152 736 167 736Q177 736 185 734T192 727L36 -154Q35 -160 20 -160Z" />
<glyph unicode="}" glyph-name="braceright" horiz-adv-x="263" d="M171 725T195 718T231 694T242 641Q242 606 229 528Q213 438 213 397Q213 359 225 339T268 310Q270 310 270 304T268 297Q234 292 213 270T178 203T150 79Q135 -7 117 -48T68 -103T-21 -117Q-24
-117 -24 -111T-21 -105Q37 -105 56 1Q78 117 94 169T138 250T223 303Q173 323 154 347T135 413Q135 433 139 464T147 517T153 548L163 607Q166 628 166 645Q166 677 155 695T125 713Q122 713 122 719T125 725Q171 725 195 718Z" />
<glyph unicode="~" glyph-name="asciitilde" horiz-adv-x="443" d="M46 145T44 145Q42 145 40 148T39 153Q75 199 100 218T155 237Q182 237 237 220Q259 214 281 209T318 204Q345 204 363 214T398 241L400 242Q402 242 404 239T405 234Q367 186 343 168T287 150Q264
150 208 166Q203 167 174 175T121 183Q95 183 82 175T46 146Q46 145 44 145Z" />
<glyph unicode="&#xa0;" glyph-name="uni00A0" horiz-adv-x="234" />
<glyph unicode="&#xa1;" glyph-name="exclamdown" horiz-adv-x="219" d="M162 363T176 349T190 311Q190 288 176 275T137 261Q113 261 100 274T87 311Q87 335 100 349T137 363Q162 363 176 349ZM112 168T117 168T122 162Q100 -106 96 -267Q96 -271 77 -275T38
-279Q17 -279 -1 -275T-18 -267Q41 -113 111 163Q112 168 117 168Z" />
<glyph unicode="&#xa2;" glyph-name="cent" horiz-adv-x="495" d="M473 445T474 442T475 431L462 328Q462 324 458 324T453 328Q445 386 413 420T334 459L254 7H259Q309 7 347 38T424 139Q425 143 430 143Q433 143 435 141T437 137L410 31Q409 28 408 24T404 17T396
13Q321 -12 250 -12L234 -104Q234 -110 224 -110Q219 -110 215 -108T212 -102L228 -11Q131 -5 87 53T42 191Q42 220 46 241Q57 305 95 357T191 442T314 479L329 564Q329 570 339 570Q344 570 348 568T352 561L338 480Q372 479 408 471T466 449Q473 445 474 442ZM132
213T132 179Q132 112 156 66T232 10L311 460Q248 455 202 396T138 247Q132 213 132 179Z" />
<glyph unicode="&#xa3;" glyph-name="sterling" horiz-adv-x="388" d="M375 458T372 445L361 341Q361 338 355 338Q350 338 349 343Q339 399 321 430T266 462Q227 462 205 432T174 358Q170 338 170 315Q170 291 176 243H262Q266 243 268 239T270 229Q270 224 268
220T263 216H178Q179 207 179 189Q179 164 175 143Q168 108 154 86T117 46H211Q251 46 271 51T303 73T330 128Q331 130 334 130Q342 130 341 123Q320 55 313 10Q312 4 309 2T298 0H-5Q-7 0 -8 2T-10 7Q-10 12 -5 14Q46 26 67 52T94 120Q98 148 98 176Q98 192 96
216H55Q49 216 49 230Q49 235 50 239T55 243H93Q89 277 89 294Q89 315 93 334Q106 409 159 444T281 480Q323 480 358 463Q375 458 372 445Z" />
<glyph unicode="&#xa4;" glyph-name="currency" horiz-adv-x="381" d="M304 288Q321 260 321 223Q321 159 276 114L312 66L274 33L241 87Q200 65 161 65Q124 65 100 84L50 33L28 62L77 110Q60 138 60 179Q60 246 108 292L73 340L109 371L145 317Q181 335 218 335Q255
335 282 314L337 368L359 340L304 288ZM205 87T226 113T255 185Q258 205 258 222Q258 262 243 287T198 313Q171 313 151 289T123 219Q119 193 119 178Q119 139 133 113T178 87Q205 87 226 113Z" />
<glyph unicode="&#xa5;" glyph-name="yen" horiz-adv-x="443" d="M490 468T490 462T486 456Q432 456 367 364L271 228L268 213H354Q360 213 360 200Q360 196 359 193T354 189H96Q90 189 90 202Q90 206 91 209T96 213H188V216L119 387Q104 425 88 440T49 456Q46
456 46 462T49 468Q60 468 86 466L115 465Q143 465 197 467L248 468Q251 468 251 462T248 456Q198 456 198 425Q198 416 203 403L266 252L344 369Q367 404 367 428Q367 456 332 456Q328 456 328 462T332 468L375 467Q409 465 435 465Q448 465 464 467L486 468Q490
468 490 462ZM348 145T348 131Q348 121 343 121H252L245 78Q241 61 241 45Q241 25 254 19T303 12Q307 12 307 6T303 0Q273 0 256 1L192 2L127 1Q109 0 80 0Q76 0 76 6T80 12Q111 12 127 18T151 38T165 83L172 121H84Q78 121 78 133Q78 145 84 145H341Q348 145 348
131Z" />
<glyph unicode="&#xa6;" glyph-name="brokenbar" horiz-adv-x="152" d="M126 351T111 351Q101 351 93 353T86 360L151 731Q151 736 167 736Q177 736 185 734T192 727L126 357Q126 351 111 351ZM35 -163T20 -163Q10 -163 2 -161T-5 -154L59 216Q61 222 76 222Q86
222 94 220T101 213L35 -158Q35 -163 20 -163Z" />
<glyph unicode="&#xa7;" glyph-name="section" horiz-adv-x="402" d="M387 552T386 541L368 426Q368 423 364 423T358 426Q349 469 325 508T259 547Q236 547 221 531T199 482Q197 468 197 463Q197 426 217 400T278 337Q322 298 343 269T365 197Q365 153 342 114T271
33Q300 -1 300 -43Q300 -56 297 -71Q286 -129 239 -158T128 -188Q79 -188 48 -174Q40 -166 41 -157L59 -42Q59 -40 64 -40T70 -42Q79 -86 103 -125T168 -164Q191 -164 206 -148T228 -99Q230 -85 230 -79Q230 -43 210 -16T150 46Q107 84 85 114T63 188Q63 233 87
272T155 351Q127 386 127 427Q127 440 130 455Q141 513 188 542T300 572Q347 572 379 557Q387 552 386 541ZM291 134T291 155Q291 190 279 216T250 261T204 305Q180 324 166 339Q145 307 137 260Q135 249 135 229Q135 179 157 148T223 80Q262 44 261 45Q283 79
289 123Q291 134 291 155Z" />
<glyph unicode="&#xa8;" glyph-name="dieresis" horiz-adv-x="275" d="M93 469T80 482T66 519Q66 541 79 554T116 567Q139 567 151 555T164 519Q164 495 152 482T116 469Q93 469 80 482ZM249 469T236 482T222 519Q222 542 235 554T273 567Q295 567 307 555T320
519Q320 495 308 482T273 469Q249 469 236 482Z" />
<glyph unicode="&#xa9;" glyph-name="copyright" horiz-adv-x="726" d="M295 -105T224 -71T110 30T67 188Q67 278 115 349T241 461T407 501Q484 501 543 469T634 384T666 269Q666 209 633 156T540 71T407 39Q345 39 304 61T245 119T226 195Q226 247 251 285T316
343T400 364Q441 364 472 349T504 307Q504 289 494 279T466 269Q452 269 443 277T424 302Q413 322 402 332T370 342Q334 342 321 314T307 227Q307 157 343 112T454 66Q494 66 529 86T586 146T608 238Q608 304 578 359T493 446T373 478Q298 478 243 443T160 347T132
213Q132 126 169 62T269 -37T410 -71Q464 -71 507 -61T599 -22H601Q603 -22 605 -25T605 -29Q549 -72 494 -88T377 -105Q295 -105 224 -71Z" />
<glyph unicode="&#xaa;" glyph-name="ordfeminine" horiz-adv-x="276" d="M309 427Q312 427 315 424T317 419Q273 364 238 364Q209 364 209 399Q209 411 212 427L218 465Q192 414 159 388T94 361Q53 361 53 415Q53 459 80 510T149 597T227 633Q239 633 251 629T271
617Q281 624 288 638Q290 639 293 639T297 636L258 427Q256 415 256 412Q256 394 267 394Q278 394 308 426L309 427ZM147 401T169 424T209 481T233 545Q235 557 235 563Q235 582 226 593T198 604Q167 604 141 569T106 480Q102 452 102 444Q102 422 109 412T127
401Q147 401 169 424ZM271 313T272 309T274 299Q274 293 273 289T269 284H44Q40 284 40 300Q40 313 43 313H269Q271 313 272 309Z" />
<glyph unicode="&#xab;" glyph-name="guillemotleft" horiz-adv-x="431" d="M250 364Q253 364 256 361T257 356L137 201L203 47V46Q203 43 200 40T195 40L46 189Q43 192 43 198Q43 206 50 212L248 364H250ZM397 364Q400 364 403 361T404 356L284 201L350 47L351
45Q351 42 347 40T342 40L194 189Q191 194 191 199Q191 206 197 212L396 364H397Z" />
<glyph unicode="&#xac;" glyph-name="logicalnot" horiz-adv-x="404" d="M368 81Q368 79 361 78T344 76Q337 76 331 77T324 80V226H38Q36 226 35 233T33 250Q33 257 34 263T37 270H368V81Z" />
<glyph unicode="&#xad;" glyph-name="uni00AD" horiz-adv-x="305" d="M30 164T29 176T27 199Q27 214 29 214L279 261Q281 262 282 252T284 230Q284 212 281 212L33 165Q30 164 29 176Z" />
<glyph unicode="&#xae;" glyph-name="registered" horiz-adv-x="755" d="M524 725T589 689T689 591T725 451Q725 365 683 293T567 180T406 138Q330 138 262 173T151 272T108 422Q108 511 153 580T275 687T438 725Q524 725 589 689ZM550 165T609 235T668 419Q668
504 634 568T540 666T401 701Q322 701 269 668T190 579T164 455Q164 369 202 303T303 201T441 165Q550 165 609 235ZM585 286T584 283T581 279H490Q473 279 425 440Q404 437 381 437L363 335Q360 322 360 313Q360 299 368 295T401 290Q402 290 402 288Q402 285
401 283T399 279L326 280L255 279Q254 279 254 281Q254 284 255 286T257 290Q282 290 289 297T302 335L340 550Q343 565 343 574Q343 586 336 590T310 594Q309 594 309 596Q309 599 310 602T312 606L383 605Q397 605 427 607L466 608Q553 608 553 556Q553 551 551
541Q546 512 528 491T481 456Q506 375 527 339T583 287Q585 286 584 283ZM392 452T407 452Q442 452 459 467T484 519Q487 536 487 548Q487 595 448 595Q431 595 423 593T410 581T401 548L384 453Q392 452 407 452Z" />
<glyph unicode="&#xaf;" glyph-name="overscore" horiz-adv-x="333" d="M99 475T97 480T95 493Q95 500 97 505T103 511H335Q339 511 341 506T344 493Q344 486 342 481T335 475H103Q99 475 97 480Z" />
<glyph unicode="&#xb0;" glyph-name="degree" horiz-adv-x="299" d="M126 373T97 407T68 488Q68 502 71 515Q80 562 123 596T226 630Q283 630 311 597T339 517Q339 477 318 444T262 392T184 373Q126 373 97 407ZM226 391T240 415T261 482Q266 515 266 536Q266
613 217 613Q186 613 170 587T146 518Q141 490 141 468Q141 433 154 412T195 391Q226 391 240 415Z" />
<glyph unicode="&#xb1;" glyph-name="plusminus" horiz-adv-x="398" d="M32 230T31 237T29 254Q29 262 30 268T33 275H176V418Q176 422 199 422Q221 422 221 418V275H364Q366 275 367 268T369 253Q369 244 368 237T364 230H221V88Q221 86 214 85T197 83Q189 83
183 84T176 87V230H34Q32 230 31 237ZM366 42T367 36T369 22Q369 14 368 8T364 1H34Q32 1 31 8T29 23Q29 30 30 36T33 42H364Q366 42 367 36Z" />
<glyph unicode="&#xb2;" glyph-name="uni00B2" horiz-adv-x="232" d="M269 620T247 596T185 538Q152 511 135 494T107 455H108Q163 455 190 459T229 472T247 503Q247 506 251 506Q254 506 256 505T258 500L240 405Q240 403 239 403T237 403H66Q64 403 63 406T64
413Q79 451 99 478T152 543Q182 576 197 599T217 650Q218 654 218 662Q218 681 210 692T184 703Q165 703 146 687T117 647Q116 645 112 645Q109 645 107 647T105 651Q140 729 209 729Q242 729 259 712T276 667Q276 656 275 651Q269 620 247 596Z" />
<glyph unicode="&#xb3;" glyph-name="uni00B3" horiz-adv-x="232" d="M268 624T248 604T203 574Q227 568 242 551T257 508Q257 483 243 457T203 414T141 397Q106 397 89 415T68 462Q67 466 72 467T79 464Q84 445 97 433T132 421Q154 421 172 439T196 496Q198 510
198 514Q198 564 142 564Q138 564 138 570T142 576Q172 576 193 603T214 666Q214 684 205 693T181 702Q161 702 144 687T117 650Q115 648 113 648Q105 648 106 655Q121 688 146 708T207 729Q240 729 257 712T274 667Q274 662 272 650Q268 624 248 604Z" />
<glyph unicode="&#xb4;" glyph-name="acute" horiz-adv-x="212" d="M118 470T113 472T109 476L190 716Q191 722 216 727T262 732Q269 732 274 731T278 727L119 473Q118 470 113 472Z" />
<glyph unicode="&#xb6;" glyph-name="paragraph" horiz-adv-x="594" d="M210 -193T192 -181T173 -148Q173 -127 185 -116T215 -105Q232 -105 238 -113T249 -137Q253 -153 259 -160T281 -168Q298 -168 307 -155T323 -110T346 8L367 125Q331 122 288 122Q199 122
138 170T77 324Q77 359 82 386Q105 505 185 566T386 628Q414 628 445 625Q511 622 519 622Q538 622 572 624L619 625Q624 625 624 619T619 613Q580 613 555 592T522 532L439 55Q416 -73 369 -133T245 -193Q210 -193 192 -181Z" />
<glyph unicode="&#xb7;" glyph-name="middot" horiz-adv-x="206" d="M83 163T69 177T55 215Q55 238 69 251T108 265Q132 265 145 252T158 215Q158 191 145 177T108 163Q83 163 69 177Z" />
<glyph unicode="&#xb8;" glyph-name="cedilla" horiz-adv-x="196" d="M-27 -275T-48 -263T-69 -230Q-69 -213 -58 -204T-31 -194Q-16 -194 -9 -203T5 -228Q10 -241 15 -248T32 -256Q44 -256 52 -249T62 -227Q63 -210 51 -189T15 -138Q5 -125 5 -110Q5 -92 21 -60L50
0H65Q55 -23 55 -40Q55 -57 62 -70T85 -104Q102 -126 110 -142T118 -174Q118 -183 117 -187Q114 -206 100 -226T62 -261T3 -275Q-27 -275 -48 -263Z" />
<glyph unicode="&#xb9;" glyph-name="uni00B9" horiz-adv-x="240" d="M75 403T75 408T79 414Q108 414 120 418T137 435T149 483L170 601Q176 639 176 645Q176 669 159 669Q148 669 118 655L116 654Q112 654 111 658T113 665L242 730Q243 731 245 731Q248 731 250
729T251 724L209 483Q204 453 204 442Q204 424 213 419T251 414Q255 414 255 409T251 403Q229 403 217 404L168 405L117 404Q103 403 79 403Q75 403 75 408Z" />
<glyph unicode="&#xba;" glyph-name="ordmasculine" horiz-adv-x="269" d="M110 358T87 387T63 461Q63 481 67 497Q78 556 118 593T209 630Q252 630 275 602T298 530Q298 513 295 495Q288 454 266 423T214 375T152 358Q110 358 87 387ZM196 377T214 401T240 470Q245
497 245 517Q245 559 230 585T188 612Q165 612 148 590T122 522Q118 499 118 474Q118 430 132 404T172 377Q196 377 214 401ZM47 284T46 289T44 299Q44 304 45 308T48 313H269Q271 313 272 309T274 299Q274 293 273 289T269 284H49Q47 284 46 289Z" />
<glyph unicode="&#xbb;" glyph-name="guillemotright" horiz-adv-x="430" d="M36 37Q33 37 30 40T29 46L148 200L83 354V355Q83 358 86 361T91 361L239 212Q242 208 242 202Q242 195 236 189L37 37H36ZM183 37Q180 37 177 40T176 46L296 200L230 354V355Q230 358
233 361T238 361L386 212Q389 208 389 202Q389 195 383 189L185 37H183Z" />
<glyph unicode="&#xbc;" glyph-name="onequarter" horiz-adv-x="554" d="M57 309T57 314T61 320Q90 320 102 324T119 341T131 389L152 507Q158 545 158 551Q158 575 141 575Q130 575 100 561L98 560Q94 560 93 564T95 571L224 636Q225 637 227 637Q230 637 232
635T233 630L191 389Q186 359 186 348Q186 330 195 325T233 320Q237 320 237 315T233 309Q211 309 199 310L150 311L99 310Q85 309 61 309Q57 309 57 314ZM157 -5Q152 -5 141 0T131 8L469 626Q469 627 472 627Q478 627 488 621T496 612L158 -5H157ZM520 122T520
116Q520 107 518 97T515 87Q491 89 478 89L470 41L468 25Q468 16 474 13T501 10Q506 10 506 4T501 -2Q484 -2 475 -1L439 0L394 -1Q382 -2 362 -2Q358 -2 358 4T362 10Q392 10 401 15T414 41L423 92Q392 93 314 93Q313 93 312 95T313 99L503 328Q503 329 505 329Q509
329 513 327T517 321L483 120L519 122Q520 122 520 116ZM407 116T427 117L448 234L359 119Q355 116 361 116Q407 116 427 117Z" />
<glyph unicode="&#xbd;" glyph-name="onehalf" horiz-adv-x="569" d="M57 309T57 314T61 320Q90 320 102 324T119 341T131 389L152 507Q158 545 158 551Q158 575 141 575Q130 575 100 561L98 560Q94 560 93 564T95 571L224 636Q225 637 227 637Q230 637 232 635T233
630L191 389Q186 359 186 348Q186 330 195 325T233 320Q237 320 237 315T233 309Q211 309 199 310L150 311L99 310Q85 309 61 309Q57 309 57 314ZM157 -5Q152 -5 141 0T131 8L469 626Q469 627 472 627Q478 627 488 621T496 612L158 -5H157ZM536 217T514 193T452
135Q419 108 402 91T374 52H375Q430 52 457 56T496 69T514 100Q514 103 518 103Q521 103 523 102T525 97L507 2Q507 0 506 0T504 0H333Q331 0 330 3T331 10Q346 48 366 75T419 140Q449 173 464 196T484 247Q485 251 485 259Q485 278 477 289T451 300Q432 300 413
284T384 244Q383 242 379 242Q376 242 374 244T372 248Q407 326 476 326Q509 326 526 309T543 264Q543 253 542 248Q536 217 514 193Z" />
<glyph unicode="&#xbe;" glyph-name="threequarters" horiz-adv-x="546" d="M250 530T230 510T185 480Q209 474 224 457T239 414Q239 389 225 363T185 320T123 303Q88 303 71 321T50 368Q49 372 54 373T61 370Q66 351 79 339T114 327Q136 327 154 345T178 402Q180
416 180 420Q180 470 124 470Q120 470 120 476T124 482Q154 482 175 509T196 572Q196 590 187 599T163 608Q143 608 126 593T99 556Q97 554 95 554Q87 554 88 561Q103 594 128 614T189 635Q222 635 239 618T256 573Q256 568 254 556Q250 530 230 510ZM149 -5Q144
-5 133 0T123 8L461 626Q461 627 464 627Q470 627 480 621T488 612L150 -5H149ZM512 122T512 116Q512 107 510 97T507 87Q483 89 470 89L462 41L460 25Q460 16 466 13T493 10Q498 10 498 4T493 -2Q476 -2 467 -1L431 0L386 -1Q374 -2 354 -2Q350 -2 350 4T354 10Q384
10 393 15T406 41L415 92Q384 93 306 93Q305 93 304 95T305 99L495 328Q495 329 497 329Q501 329 505 327T509 321L475 120L511 122Q512 122 512 116ZM399 116T419 117L440 234L351 119Q347 116 353 116Q399 116 419 117Z" />
<glyph unicode="&#xbf;" glyph-name="questiondown" horiz-adv-x="319" d="M230 359T244 345T258 307Q258 284 244 271T205 257Q181 257 168 270T155 307Q155 331 168 345T205 359Q230 359 244 345ZM200 141T208 113T216 60Q216 49 215 44Q210 13 194 -7T145 -56Q111
-85 93 -107T69 -167Q67 -183 67 -191Q67 -220 78 -238T112 -257Q145 -257 151 -215Q154 -192 164 -176T200 -160Q219 -160 229 -171T240 -198Q240 -233 199 -254T104 -275Q49 -275 16 -250T-17 -179Q-17 -164 -15 -155Q-9 -125 6 -102T36 -65T85 -22Q130 13 149
39T173 101Q175 109 175 128Q175 148 173 158Q172 162 178 164T186 163Q200 141 208 113Z" />
<glyph unicode="&#xc0;" glyph-name="Agrave" horiz-adv-x="603" d="M574 12T574 6T570 0Q555 0 521 2Q485 4 462 4Q440 4 406 2Q374 0 359 0Q355 0 355 6T359 12Q391 12 405 21T419 53Q419 60 415 84L373 307H227L130 130Q102 81 102 54Q102 31 120 22T175 12Q179
12 179 6T174 0Q161 0 125 2Q81 4 58 4Q37 4 9 2Q-19 0 -34 0Q-38 0 -38 6T-34 12Q-6 12 30 42T101 132L382 634Q384 637 390 637Q393 637 396 636T400 633L502 84Q508 52 513 39T530 19T570 12Q574 12 574 6ZM241 332H369L336 505L241 332ZM427 710T386 724T288
756Q276 759 299 769T352 786T387 789Q417 758 459 722Q469 714 487 698Q488 697 488 695Q488 692 485 690T478 689Q427 710 386 724Z" />
<glyph unicode="&#xc1;" glyph-name="Aacute" horiz-adv-x="603" d="M574 12T574 6T570 0Q555 0 521 2Q485 4 462 4Q440 4 406 2Q374 0 359 0Q355 0 355 6T359 12Q391 12 405 21T419 53Q419 60 415 84L373 307H227L130 130Q102 81 102 54Q102 31 120 22T175 12Q179
12 179 6T174 0Q161 0 125 2Q81 4 58 4Q37 4 9 2Q-19 0 -34 0Q-38 0 -38 6T-34 12Q-6 12 30 42T101 132L382 634Q384 637 390 637Q393 637 396 636T400 633L502 84Q508 52 513 39T530 19T570 12Q574 12 574 6ZM241 332H369L336 505L241 332ZM335 678Q331 678 330
682T332 689Q364 708 420 752Q466 787 470 790Q475 794 502 786T549 768T559 756Q497 741 446 723T337 679L335 678Z" />
<glyph unicode="&#xc2;" glyph-name="Acircumflex" horiz-adv-x="603" d="M574 12T574 6T570 0Q555 0 521 2Q485 4 462 4Q440 4 406 2Q374 0 359 0Q355 0 355 6T359 12Q391 12 405 21T419 53Q419 60 415 84L373 307H227L130 130Q102 81 102 54Q102 31 120 22T175
12Q179 12 179 6T174 0Q161 0 125 2Q81 4 58 4Q37 4 9 2Q-19 0 -34 0Q-38 0 -38 6T-34 12Q-6 12 30 42T101 132L382 634Q384 637 390 637Q393 637 396 636T400 633L502 84Q508 52 513 39T530 19T570 12Q574 12 574 6ZM241 332H369L336 505L241 332ZM295 660Q292
660 290 662T290 667L403 776Q406 781 412 781Q418 781 421 776L502 667V666Q502 663 500 661T495 660L403 704L296 660H295Z" />
<glyph unicode="&#xc3;" glyph-name="Atilde" horiz-adv-x="603" d="M574 12T574 6T570 0Q555 0 521 2Q485 4 462 4Q440 4 406 2Q374 0 359 0Q355 0 355 6T359 12Q391 12 405 21T419 53Q419 60 415 84L373 307H227L130 130Q102 81 102 54Q102 31 120 22T175 12Q179
12 179 6T174 0Q161 0 125 2Q81 4 58 4Q37 4 9 2Q-19 0 -34 0Q-38 0 -38 6T-34 12Q-6 12 30 42T101 132L382 634Q384 637 390 637Q393 637 396 636T400 633L502 84Q508 52 513 39T530 19T570 12Q574 12 574 6ZM241 332H369L336 505L241 332ZM277 688T275 688Q273
688 271 691T270 696Q293 728 315 749T366 771Q378 771 414 761Q463 746 488 746Q508 746 520 752T548 773H549Q552 773 554 771T555 766Q526 721 507 706T464 691Q447 691 407 703Q403 704 381 710T337 716Q317 716 307 712T289 700T277 689Q277 688 275 688Z"
/>
<glyph unicode="&#xc4;" glyph-name="Adieresis" horiz-adv-x="603" d="M574 12T574 6T570 0Q555 0 521 2Q485 4 462 4Q440 4 406 2Q374 0 359 0Q355 0 355 6T359 12Q391 12 405 21T419 53Q419 60 415 84L373 307H227L130 130Q102 81 102 54Q102 31 120 22T175
12Q179 12 179 6T174 0Q161 0 125 2Q81 4 58 4Q37 4 9 2Q-19 0 -34 0Q-38 0 -38 6T-34 12Q-6 12 30 42T101 132L382 634Q384 637 390 637Q393 637 396 636T400 633L502 84Q508 52 513 39T530 19T570 12Q574 12 574 6ZM241 332H369L336 505L241 332ZM309 708T296
721T282 758Q282 780 295 793T332 806Q355 806 367 794T380 758Q380 734 368 721T332 708Q309 708 296 721ZM465 708T452 721T438 758Q438 781 451 793T489 806Q511 806 523 794T536 758Q536 734 524 721T489 708Q465 708 452 721Z" />
<glyph unicode="&#xc5;" glyph-name="Aring" horiz-adv-x="603" d="M574 12T574 6T570 0Q555 0 521 2Q485 4 462 4Q440 4 406 2Q374 0 359 0Q355 0 355 6T359 12Q391 12 405 21T419 53Q419 60 415 84L373 307H227L130 130Q102 81 102 54Q102 31 120 22T175 12Q179
12 179 6T174 0Q161 0 125 2Q81 4 58 4Q37 4 9 2Q-19 0 -34 0Q-38 0 -38 6T-34 12Q-6 12 30 42T101 132L382 634Q384 637 390 637Q393 637 396 636T400 633L502 84Q508 52 513 39T530 19T570 12Q574 12 574 6ZM241 332H369L336 505L241 332ZM349 664T323 687T296
744Q296 780 329 800T403 821Q443 821 471 798T500 741Q500 706 468 685T394 664Q349 664 323 687ZM437 676T437 724Q437 758 421 783T383 808Q359 808 359 763Q359 730 372 703T409 676Q437 676 437 724Z" />
<glyph unicode="&#xc6;" glyph-name="AE" horiz-adv-x="771" d="M764 625T765 623T766 616L745 485Q744 481 739 482T734 486Q732 544 702 577T618 611H594Q558 611 543 596T522 543L496 338H594Q638 338 661 355T693 413Q693 416 698 416Q700 416 702 415T704
411Q700 381 692 347L688 325Q684 305 681 279Q679 269 677 256T672 225Q672 222 667 222Q665 222 663 223T661 227Q663 243 663 249Q663 312 587 312H493L464 85Q462 61 462 55Q462 33 473 26T517 18H549Q596 18 640 55T714 156Q715 159 720 158T725 154Q707 96
692 15Q690 6 687 3T676 0H303Q299 0 299 6T303 12Q331 12 345 17T367 37T378 81L408 312H267L133 123Q108 88 108 60Q108 37 126 25T179 12Q183 12 183 6T179 0Q163 0 117 2Q65 4 40 4Q17 4 -13 2Q-39 0 -56 0Q-61 0 -61 6T-56 12Q-15 12 22 37T108 134L418 576Q431
593 431 602Q431 610 417 611T361 613Q357 613 357 619T361 625H759Q764 625 765 623ZM286 338H411L439 555L286 338Z" />
<glyph unicode="&#xc7;" glyph-name="Ccedilla" horiz-adv-x="587" d="M589 601T590 597T591 582L577 455Q576 452 572 452T566 455Q552 531 508 571T395 611Q305 611 242 540T160 346Q154 304 154 264Q154 191 174 132T234 40T325 6Q432 6 536 157Q537 159 540
159Q543 159 545 158T547 154L519 41Q516 29 513 25T501 18Q412 -12 321 -12Q316 -25 316 -40Q316 -57 323 -70T346 -104Q363 -126 371 -142T379 -174Q379 -183 378 -187Q375 -206 361 -226T323 -261T264 -275Q234 -275 213 -263T192 -230Q192 -213 203 -204T230
-194Q245 -194 252 -203T266 -228Q271 -241 276 -248T293 -256Q305 -256 313 -249T323 -227Q324 -210 312 -189T276 -138Q266 -125 266 -110Q266 -92 282 -60L305 -12Q175 -8 116 64T56 243Q56 279 62 315Q79 412 136 485T272 597T435 636Q476 636 518 627T583
605Q589 601 590 597Z" />
<glyph unicode="&#xc8;" glyph-name="Egrave" horiz-adv-x="525" d="M523 625T521 616L500 485Q500 482 496 482Q493 482 491 483T488 486Q488 541 458 573T377 606H338Q308 606 294 602T274 584T263 543L227 338H349Q392 338 415 355T446 412Q447 417 453 417T458
411L449 360Q446 346 442 325Q438 305 435 279Q433 269 431 256T426 225Q425 221 419 221T414 226Q416 235 416 250Q416 312 342 312H222L182 85Q179 67 179 55Q179 34 191 27T234 20H288Q339 20 388 57T469 156Q469 158 473 158Q476 158 478 157T480 154Q462 96
447 15Q445 7 442 4T431 0H19Q16 0 16 6T19 12Q48 12 62 17T83 36T96 81L178 544Q182 570 182 576Q182 598 170 605T125 613Q123 613 123 619T125 625H515Q523 625 521 616ZM385 710T344 724T246 756Q234 759 257 769T310 786T345 789Q375 758 417 722Q427 714
445 698Q446 697 446 695Q446 692 443 690T436 689Q385 710 344 724Z" />
<glyph unicode="&#xc9;" glyph-name="Eacute" horiz-adv-x="525" d="M523 625T521 616L500 485Q500 482 496 482Q493 482 491 483T488 486Q488 541 458 573T377 606H338Q308 606 294 602T274 584T263 543L227 338H349Q392 338 415 355T446 412Q447 417 453 417T458
411L449 360Q446 346 442 325Q438 305 435 279Q433 269 431 256T426 225Q425 221 419 221T414 226Q416 235 416 250Q416 312 342 312H222L182 85Q179 67 179 55Q179 34 191 27T234 20H288Q339 20 388 57T469 156Q469 158 473 158Q476 158 478 157T480 154Q462 96
447 15Q445 7 442 4T431 0H19Q16 0 16 6T19 12Q48 12 62 17T83 36T96 81L178 544Q182 570 182 576Q182 598 170 605T125 613Q123 613 123 619T125 625H515Q523 625 521 616ZM293 678Q289 678 288 682T290 689Q322 708 378 752Q424 787 428 790Q433 794 460 786T507
768T517 756Q455 741 404 723T295 679L293 678Z" />
<glyph unicode="&#xca;" glyph-name="Ecircumflex" horiz-adv-x="525" d="M523 625T521 616L500 485Q500 482 496 482Q493 482 491 483T488 486Q488 541 458 573T377 606H338Q308 606 294 602T274 584T263 543L227 338H349Q392 338 415 355T446 412Q447 417 453
417T458 411L449 360Q446 346 442 325Q438 305 435 279Q433 269 431 256T426 225Q425 221 419 221T414 226Q416 235 416 250Q416 312 342 312H222L182 85Q179 67 179 55Q179 34 191 27T234 20H288Q339 20 388 57T469 156Q469 158 473 158Q476 158 478 157T480 154Q462
96 447 15Q445 7 442 4T431 0H19Q16 0 16 6T19 12Q48 12 62 17T83 36T96 81L178 544Q182 570 182 576Q182 598 170 605T125 613Q123 613 123 619T125 625H515Q523 625 521 616ZM253 660Q250 660 248 662T248 667L361 776Q364 781 370 781Q376 781 379 776L460 667V666Q460
663 458 661T453 660L361 704L254 660H253Z" />
<glyph unicode="&#xcb;" glyph-name="Edieresis" horiz-adv-x="525" d="M523 625T521 616L500 485Q500 482 496 482Q493 482 491 483T488 486Q488 541 458 573T377 606H338Q308 606 294 602T274 584T263 543L227 338H349Q392 338 415 355T446 412Q447 417 453
417T458 411L449 360Q446 346 442 325Q438 305 435 279Q433 269 431 256T426 225Q425 221 419 221T414 226Q416 235 416 250Q416 312 342 312H222L182 85Q179 67 179 55Q179 34 191 27T234 20H288Q339 20 388 57T469 156Q469 158 473 158Q476 158 478 157T480 154Q462
96 447 15Q445 7 442 4T431 0H19Q16 0 16 6T19 12Q48 12 62 17T83 36T96 81L178 544Q182 570 182 576Q182 598 170 605T125 613Q123 613 123 619T125 625H515Q523 625 521 616ZM267 708T254 721T240 758Q240 780 253 793T290 806Q313 806 325 794T338 758Q338 734
326 721T290 708Q267 708 254 721ZM423 708T410 721T396 758Q396 781 409 793T447 806Q469 806 481 794T494 758Q494 734 482 721T447 708Q423 708 410 721Z" />
<glyph unicode="&#xcc;" glyph-name="Igrave" horiz-adv-x="327" d="M20 0T20 6T23 12Q52 12 66 17T87 36T100 81L182 544Q186 570 186 576Q186 598 174 605T128 613Q125 613 125 619T128 625L174 624Q212 622 235 622Q265 622 303 624L345 625Q348 625 348 619T345
613Q316 613 302 607T281 587T268 542L186 81Q182 62 182 47Q182 26 194 19T240 12Q242 12 242 6T240 0Q213 0 197 1L131 2L69 1Q53 0 23 0Q20 0 20 6ZM276 710T235 724T137 756Q125 759 148 769T201 786T236 789Q266 758 308 722Q318 714 336 698Q337 697 337
695Q337 692 334 690T327 689Q276 710 235 724Z" />
<glyph unicode="&#xcd;" glyph-name="Iacute" horiz-adv-x="327" d="M20 0T20 6T23 12Q52 12 66 17T87 36T100 81L182 544Q186 570 186 576Q186 598 174 605T128 613Q125 613 125 619T128 625L174 624Q212 622 235 622Q265 622 303 624L345 625Q348 625 348 619T345
613Q316 613 302 607T281 587T268 542L186 81Q182 62 182 47Q182 26 194 19T240 12Q242 12 242 6T240 0Q213 0 197 1L131 2L69 1Q53 0 23 0Q20 0 20 6ZM184 678Q180 678 179 682T181 689Q213 708 269 752Q315 787 319 790Q324 794 351 786T398 768T408 756Q346
741 295 723T186 679L184 678Z" />
<glyph unicode="&#xce;" glyph-name="Icircumflex" horiz-adv-x="327" d="M20 0T20 6T23 12Q52 12 66 17T87 36T100 81L182 544Q186 570 186 576Q186 598 174 605T128 613Q125 613 125 619T128 625L174 624Q212 622 235 622Q265 622 303 624L345 625Q348 625 348
619T345 613Q316 613 302 607T281 587T268 542L186 81Q182 62 182 47Q182 26 194 19T240 12Q242 12 242 6T240 0Q213 0 197 1L131 2L69 1Q53 0 23 0Q20 0 20 6ZM144 660Q141 660 139 662T139 667L252 776Q255 781 261 781Q267 781 270 776L351 667V666Q351 663
349 661T344 660L252 704L145 660H144Z" />
<glyph unicode="&#xcf;" glyph-name="Idieresis" horiz-adv-x="327" d="M20 0T20 6T23 12Q52 12 66 17T87 36T100 81L182 544Q186 570 186 576Q186 598 174 605T128 613Q125 613 125 619T128 625L174 624Q212 622 235 622Q265 622 303 624L345 625Q348 625 348
619T345 613Q316 613 302 607T281 587T268 542L186 81Q182 62 182 47Q182 26 194 19T240 12Q242 12 242 6T240 0Q213 0 197 1L131 2L69 1Q53 0 23 0Q20 0 20 6ZM164 708T151 721T137 758Q137 780 151 793T188 806Q211 806 223 794T236 758Q236 734 224 721T188
708Q164 708 151 721ZM311 708T298 721T285 758Q285 781 298 793T334 806Q357 806 369 794T382 758Q382 734 370 721T334 708Q311 708 298 721Z" />
<glyph unicode="&#xd0;" glyph-name="Eth" horiz-adv-x="628" d="M427 627T488 597T583 511T617 383Q617 355 611 323Q594 227 539 153T405 37T246 -4Q221 -4 191 -1Q179 0 161 1T120 2L56 1Q40 0 12 0Q9 0 9 6T12 12Q41 12 55 17T77 36T91 81L129 298H65Q61 298
61 311Q61 324 65 324H134L173 544Q177 570 177 576Q177 598 165 605T119 613Q117 613 117 619T119 625L165 624Q205 622 229 622Q258 622 288 625Q328 627 344 627Q427 627 488 597ZM519 339T519 383Q519 482 475 545T339 609Q298 609 281 595T257 542L219 324H327Q331
324 331 311Q331 298 327 298H214L178 92Q175 76 175 63Q175 38 190 26T241 14Q306 14 362 47T457 146T512 301Q519 339 519 383Z" />
<glyph unicode="&#xd1;" glyph-name="Ntilde" horiz-adv-x="654" d="M704 625T704 619T702 613Q665 613 640 587T605 512L513 -8Q513 -11 509 -12T499 -14Q491 -14 488 -10L198 529L124 113Q121 97 121 82Q121 12 185 12Q187 12 187 6T185 0Q161 0 148 1L94 2L45
1Q30 0 3 0Q0 0 0 6T3 12Q40 12 65 38T99 113L180 562Q162 590 145 601T108 613Q105 613 105 619T108 625L150 624Q164 623 188 623Q209 623 224 624T245 625Q251 625 254 622T261 607Q266 594 277 573L512 136L580 512Q583 530 583 544Q583 578 567 595T520 613Q517
613 517 619T520 625L555 624Q587 622 610 622Q627 622 661 624L702 625Q704 625 704 619ZM288 688T286 688Q284 688 282 691T281 696Q304 728 326 749T377 771Q389 771 425 761Q474 746 499 746Q519 746 531 752T559 773H560Q563 773 565 771T566 766Q537 721
518 706T475 691Q458 691 418 703Q414 704 392 710T348 716Q328 716 318 712T300 700T288 689Q288 688 286 688Z" />
<glyph unicode="&#xd2;" glyph-name="Ograve" horiz-adv-x="654" d="M212 -12T161 20T83 110T56 240Q56 278 63 313Q79 405 129 479T253 594T410 636Q482 636 534 604T613 516T641 387Q641 348 634 313Q617 216 564 143T436 29T282 -12Q212 -12 161 20ZM401 14T458
79T536 260Q545 310 545 357Q545 430 525 488T465 579T371 612Q294 612 237 546T160 366Q151 318 151 271Q151 199 171 141T231 48T325 14Q401 14 458 79ZM439 710T398 724T300 756Q288 759 311 769T364 786T399 789Q429 758 471 722Q481 714 499 698Q500 697 500
695Q500 692 497 690T490 689Q439 710 398 724Z" />
<glyph unicode="&#xd3;" glyph-name="Oacute" horiz-adv-x="654" d="M212 -12T161 20T83 110T56 240Q56 278 63 313Q79 405 129 479T253 594T410 636Q482 636 534 604T613 516T641 387Q641 348 634 313Q617 216 564 143T436 29T282 -12Q212 -12 161 20ZM401 14T458
79T536 260Q545 310 545 357Q545 430 525 488T465 579T371 612Q294 612 237 546T160 366Q151 318 151 271Q151 199 171 141T231 48T325 14Q401 14 458 79ZM347 678Q343 678 342 682T344 689Q376 708 432 752Q478 787 482 790Q487 794 514 786T561 768T571 756Q509
741 458 723T349 679L347 678Z" />
<glyph unicode="&#xd4;" glyph-name="Ocircumflex" horiz-adv-x="654" d="M212 -12T161 20T83 110T56 240Q56 278 63 313Q79 405 129 479T253 594T410 636Q482 636 534 604T613 516T641 387Q641 348 634 313Q617 216 564 143T436 29T282 -12Q212 -12 161 20ZM401
14T458 79T536 260Q545 310 545 357Q545 430 525 488T465 579T371 612Q294 612 237 546T160 366Q151 318 151 271Q151 199 171 141T231 48T325 14Q401 14 458 79ZM307 660Q304 660 302 662T302 667L415 776Q418 781 424 781Q430 781 433 776L514 667V666Q514 663
512 661T507 660L415 704L308 660H307Z" />
<glyph unicode="&#xd5;" glyph-name="Otilde" horiz-adv-x="654" d="M212 -12T161 20T83 110T56 240Q56 278 63 313Q79 405 129 479T253 594T410 636Q482 636 534 604T613 516T641 387Q641 348 634 313Q617 216 564 143T436 29T282 -12Q212 -12 161 20ZM401 14T458
79T536 260Q545 310 545 357Q545 430 525 488T465 579T371 612Q294 612 237 546T160 366Q151 318 151 271Q151 199 171 141T231 48T325 14Q401 14 458 79ZM289 688T287 688Q285 688 283 691T282 696Q305 728 327 749T378 771Q390 771 426 761Q475 746 500 746Q520
746 532 752T560 773H561Q564 773 566 771T567 766Q538 721 519 706T476 691Q459 691 419 703Q415 704 393 710T349 716Q329 716 319 712T301 700T289 689Q289 688 287 688Z" />
<glyph unicode="&#xd6;" glyph-name="Odieresis" horiz-adv-x="654" d="M212 -12T161 20T83 110T56 240Q56 278 63 313Q79 405 129 479T253 594T410 636Q482 636 534 604T613 516T641 387Q641 348 634 313Q617 216 564 143T436 29T282 -12Q212 -12 161 20ZM401
14T458 79T536 260Q545 310 545 357Q545 430 525 488T465 579T371 612Q294 612 237 546T160 366Q151 318 151 271Q151 199 171 141T231 48T325 14Q401 14 458 79ZM321 708T308 721T294 758Q294 780 307 793T344 806Q367 806 379 794T392 758Q392 734 380 721T344
708Q321 708 308 721ZM477 708T464 721T450 758Q450 781 463 793T501 806Q523 806 535 794T548 758Q548 734 536 721T501 708Q477 708 464 721Z" />
<glyph unicode="&#xd7;" glyph-name="multiply" horiz-adv-x="399" d="M334 85T319 70T299 58L199 159L97 57Q95 53 79 69T65 87L167 190L66 291Q63 294 78 309T96 323L198 221L299 322Q303 324 318 309T330 290L230 190L331 89Q334 85 319 70Z" />
<glyph unicode="&#xd8;" glyph-name="Oslash" horiz-adv-x="654" d="M649 634Q653 634 661 627T666 617L596 546Q641 482 641 387Q641 349 634 313Q617 216 564 143T436 29T282 -12Q178 -12 116 59L47 -12L45 -13Q40 -13 33 -5T29 7L100 79Q57 147 57 240Q57 276
63 313Q79 405 129 479T253 594T410 636Q464 636 507 618T580 565L647 633L649 634ZM151 317T151 270Q151 203 169 149L518 503Q496 554 459 583T371 612Q294 612 237 546T160 366Q151 317 151 270ZM545 310T545 356Q545 421 528 477L179 122Q201 71 238 43T325
14Q401 14 458 79T536 260Q545 310 545 356Z" />
<glyph unicode="&#xd9;" glyph-name="Ugrave" horiz-adv-x="619" d="M563 525T563 540Q563 575 546 594T498 613Q495 613 495 619T498 625L540 624Q574 622 593 622Q611 622 643 624L681 625Q685 625 685 619T681 613Q645 613 620 583T586 501L534 203Q516 102
446 44T276 -14Q187 -14 136 32T85 160Q85 185 89 208L149 546Q153 572 153 578Q153 600 141 606T94 613Q91 613 91 619T93 625L141 624Q181 622 204 622Q231 622 273 624L316 625Q319 625 319 619T316 613Q286 613 271 607T247 585T234 539L180 237Q174 200 174
168Q174 94 209 58T308 21Q387 21 440 71T507 208L560 507Q563 525 563 540ZM397 729T287 756Q277 758 297 768T344 786T376 790Q406 768 421 756Q482 710 514 689Q516 688 516 685Q516 682 514 680T510 679Q397 729 287 756Z" />
<glyph unicode="&#xda;" glyph-name="Uacute" horiz-adv-x="619" d="M563 525T563 540Q563 575 546 594T498 613Q495 613 495 619T498 625L540 624Q574 622 593 622Q611 622 643 624L681 625Q685 625 685 619T681 613Q645 613 620 583T586 501L534 203Q516 102
446 44T276 -14Q187 -14 136 32T85 160Q85 185 89 208L149 546Q153 572 153 578Q153 600 141 606T94 613Q91 613 91 619T93 625L141 624Q181 622 204 622Q231 622 273 624L316 625Q319 625 319 619T316 613Q286 613 271 607T247 585T234 539L180 237Q174 200 174
168Q174 94 209 58T308 21Q387 21 440 71T507 208L560 507Q563 525 563 540ZM312 678Q308 678 307 682T308 689Q341 710 402 756Q416 768 446 790Q451 794 478 786T525 768T535 756Q417 726 313 678H312Z" />
<glyph unicode="&#xdb;" glyph-name="Ucircumflex" horiz-adv-x="619" d="M563 525T563 540Q563 575 546 594T498 613Q495 613 495 619T498 625L540 624Q574 622 593 622Q611 622 643 624L681 625Q685 625 685 619T681 613Q645 613 620 583T586 501L534 203Q516
102 446 44T276 -14Q187 -14 136 32T85 160Q85 185 89 208L149 546Q153 572 153 578Q153 600 141 606T94 613Q91 613 91 619T93 625L141 624Q181 622 204 622Q231 622 273 624L316 625Q319 625 319 619T316 613Q286 613 271 607T247 585T234 539L180 237Q174 200
174 168Q174 94 209 58T308 21Q387 21 440 71T507 208L560 507Q563 525 563 540ZM318 660Q315 660 313 662T313 667L426 776Q429 781 435 781Q441 781 444 776L525 667V666Q525 663 523 661T518 660L426 704L319 660H318Z" />
<glyph unicode="&#xdc;" glyph-name="Udieresis" horiz-adv-x="619" d="M563 525T563 540Q563 575 546 594T498 613Q495 613 495 619T498 625L540 624Q574 622 593 622Q611 622 643 624L681 625Q685 625 685 619T681 613Q645 613 620 583T586 501L534 203Q516
102 446 44T276 -14Q187 -14 136 32T85 160Q85 185 89 208L149 546Q153 572 153 578Q153 600 141 606T94 613Q91 613 91 619T93 625L141 624Q181 622 204 622Q231 622 273 624L316 625Q319 625 319 619T316 613Q286 613 271 607T247 585T234 539L180 237Q174 200
174 168Q174 94 209 58T308 21Q387 21 440 71T507 208L560 507Q563 525 563 540ZM324 708T311 721T297 758Q297 781 310 793T348 806Q370 806 383 794T396 758Q396 734 384 721T348 708Q324 708 311 721ZM498 708T485 721T472 758Q472 781 485 793T522 806Q545
806 557 794T570 758Q570 734 558 721T522 708Q498 708 485 721Z" />
<glyph unicode="&#xdd;" glyph-name="Yacute" horiz-adv-x="533" d="M607 625T607 619T603 613Q539 613 469 509L334 311L293 81Q289 55 289 49Q289 27 303 20T355 12Q358 12 358 6T355 0Q325 0 308 1L239 2L169 1Q152 0 122 0Q118 0 118 6T122 12Q155 12 171
17T195 36T209 81L246 301L144 542Q128 580 111 596T72 613Q68 613 68 619T72 625L114 624Q144 622 159 622Q184 622 228 624L274 625Q277 625 277 620Q277 613 273 613Q247 613 236 608T224 592Q224 585 229 573L326 338L450 525Q470 556 470 577Q470 594 458
603T425 613Q421 613 421 619T425 625L471 624Q511 622 536 622Q551 622 571 624L603 625Q607 625 607 619ZM295 678Q291 678 290 682T292 689Q324 708 380 752Q426 787 430 790Q435 794 462 786T509 768T519 756Q457 741 406 723T297 679L295 678Z" />
<glyph unicode="&#xde;" glyph-name="Thorn" horiz-adv-x="542" d="M419 499T477 461T536 352Q536 335 531 312Q518 251 475 210T375 150T266 130Q247 130 225 135Q224 135 224 138Q224 143 226 148T230 152Q243 148 260 148Q319 148 369 183T433 292Q438 319
438 337Q438 400 399 440T291 480Q267 480 247 477L177 81Q173 55 173 49Q173 26 189 19T254 12Q256 12 256 6T254 0Q220 0 201 1L120 2L58 1Q42 0 14 0Q12 0 12 6T14 12Q44 12 58 17T80 36T93 81L175 544Q179 570 179 576Q179 598 167 605T122 613Q119 613 119
619T122 625L164 624Q204 622 228 622Q262 622 310 624L361 625Q364 625 364 619T361 613Q318 613 300 609T273 590T258 542L250 495Q282 499 323 499Q419 499 477 461Z" />
<glyph unicode="&#xdf;" glyph-name="germandbls" horiz-adv-x="466" d="M-81 -275T-102 -260T-121 -223Q-120 -207 -108 -197T-77 -186Q-58 -186 -50 -197T-38 -227Q-34 -242 -30 -249T-16 -256Q-2 -256 9 -213T39 -47L111 426Q132 563 194 644T355 726Q404 726
430 704T457 645Q457 607 439 580T384 515Q352 483 336 460T320 409Q320 385 331 362T367 301Q396 257 410 226T425 157Q425 115 407 77T356 14T278 -11Q240 -11 219 6T197 47Q197 66 207 78T238 90Q258 90 266 81T282 52Q288 35 295 27T318 18Q355 18 365 74Q366
79 366 89Q366 118 354 144T316 212Q289 256 276 284T263 346Q263 359 264 366Q269 394 281 419T316 476Q345 521 360 554T375 633Q375 666 362 685T322 705Q273 705 240 639T186 441L116 -21Q101 -118 82 -173T33 -251T-41 -275Q-81 -275 -102 -260Z" />
<glyph unicode="&#xe0;" glyph-name="agrave" horiz-adv-x="441" d="M414 78T416 78Q419 78 421 75T421 69Q388 30 361 11T309 -9Q286 -9 275 4T264 47Q264 68 268 89L282 169Q242 85 188 36T82 -13Q51 -13 34 5T17 62Q17 131 60 210T168 344T291 399Q310 399
328 393T360 373Q380 390 389 407Q391 409 393 409Q396 409 399 408T401 405L343 89Q340 74 340 64Q340 52 344 45T355 38Q374 38 413 77Q414 78 416 78ZM173 52T211 93T276 191T302 289Q302 320 287 337T244 355Q212 355 182 330T131 260T100 160Q96 136 96 114Q96
52 137 52Q173 52 211 93ZM241 727Q240 733 259 733Q278 733 300 728T323 716L305 476Q305 474 301 473T296 475L241 727Z" />
<glyph unicode="&#xe1;" glyph-name="aacute" horiz-adv-x="441" d="M414 78T416 78Q419 78 421 75T421 69Q388 30 361 11T309 -9Q286 -9 275 4T264 47Q264 68 268 89L282 169Q242 85 188 36T82 -13Q51 -13 34 5T17 62Q17 131 60 210T168 344T291 399Q310 399
328 393T360 373Q380 390 389 407Q391 409 393 409Q396 409 399 408T401 405L343 89Q340 74 340 64Q340 52 344 45T355 38Q374 38 413 77Q414 78 416 78ZM173 52T211 93T276 191T302 289Q302 320 287 337T244 355Q212 355 182 330T131 260T100 160Q96 136 96 114Q96
52 137 52Q173 52 211 93ZM284 470T279 472T275 476L356 716Q357 722 382 727T428 732Q435 732 440 731T444 727L285 473Q284 470 279 472Z" />
<glyph unicode="&#xe2;" glyph-name="acircumflex" horiz-adv-x="441" d="M414 78T416 78Q419 78 421 75T421 69Q388 30 361 11T309 -9Q286 -9 275 4T264 47Q264 68 268 89L282 169Q242 85 188 36T82 -13Q51 -13 34 5T17 62Q17 131 60 210T168 344T291 399Q310
399 328 393T360 373Q380 390 389 407Q391 409 393 409Q396 409 399 408T401 405L343 89Q340 74 340 64Q340 52 344 45T355 38Q374 38 413 77Q414 78 416 78ZM173 52T211 93T276 191T302 289Q302 320 287 337T244 355Q212 355 182 330T131 260T100 160Q96 136 96
114Q96 52 137 52Q173 52 211 93ZM377 477Q377 475 372 475T365 476L319 600L228 474Q226 472 224 472Q221 472 219 473T217 477L332 726Q333 731 342 731Q350 731 350 726L377 477Z" />
<glyph unicode="&#xe3;" glyph-name="atilde" horiz-adv-x="441" d="M414 78T416 78Q419 78 421 75T421 69Q388 30 361 11T309 -9Q286 -9 275 4T264 47Q264 68 268 89L282 169Q242 85 188 36T82 -13Q51 -13 34 5T17 62Q17 131 60 210T168 344T291 399Q310 399
328 393T360 373Q380 390 389 407Q391 409 393 409Q396 409 399 408T401 405L343 89Q340 74 340 64Q340 52 344 45T355 38Q374 38 413 77Q414 78 416 78ZM173 52T211 93T276 191T302 289Q302 320 287 337T244 355Q212 355 182 330T131 260T100 160Q96 136 96 114Q96
52 137 52Q173 52 211 93ZM164 473Q162 473 160 475T158 480Q208 555 253 555Q264 555 302 545Q351 530 376 530Q396 530 408 536T435 557Q435 558 437 558Q439 558 441 555T442 550Q413 506 394 491T351 476Q331 476 294 487Q277 492 259 496T224 500Q202 500
192 495T165 473H164Z" />
<glyph unicode="&#xe4;" glyph-name="adieresis" horiz-adv-x="441" d="M414 78T416 78Q419 78 421 75T421 69Q388 30 361 11T309 -9Q286 -9 275 4T264 47Q264 68 268 89L282 169Q242 85 188 36T82 -13Q51 -13 34 5T17 62Q17 131 60 210T168 344T291 399Q310 399
328 393T360 373Q380 390 389 407Q391 409 393 409Q396 409 399 408T401 405L343 89Q340 74 340 64Q340 52 344 45T355 38Q374 38 413 77Q414 78 416 78ZM173 52T211 93T276 191T302 289Q302 320 287 337T244 355Q212 355 182 330T131 260T100 160Q96 136 96 114Q96
52 137 52Q173 52 211 93ZM200 469T187 482T173 519Q173 541 186 554T223 567Q246 567 258 555T271 519Q271 495 259 482T223 469Q200 469 187 482ZM356 469T343 482T329 519Q329 542 342 554T380 567Q402 567 414 555T427 519Q427 495 415 482T380 469Q356 469
343 482Z" />
<glyph unicode="&#xe5;" glyph-name="aring" horiz-adv-x="441" d="M414 78T416 78Q419 78 421 75T421 69Q388 30 361 11T309 -9Q286 -9 275 4T264 47Q264 68 268 89L282 169Q242 85 188 36T82 -13Q51 -13 34 5T17 62Q17 131 60 210T168 344T291 399Q310 399 328
393T360 373Q380 390 389 407Q391 409 393 409Q396 409 399 408T401 405L343 89Q340 74 340 64Q340 52 344 45T355 38Q374 38 413 77Q414 78 416 78ZM173 52T211 93T276 191T302 289Q302 320 287 337T244 355Q212 355 182 330T131 260T100 160Q96 136 96 114Q96
52 137 52Q173 52 211 93ZM251 468T225 491T198 547Q198 583 231 604T305 625Q345 625 373 602T402 545Q402 510 370 489T295 468Q251 468 225 491ZM339 481T339 527Q339 561 323 586T285 612Q261 612 261 567Q261 534 274 508T311 481Q339 481 339 527Z" />
<glyph unicode="&#xe6;" glyph-name="ae" horiz-adv-x="573" d="M580 399T580 348Q580 311 533 277T357 201Q355 173 355 162Q355 98 377 64T437 30Q478 30 515 61L517 62Q520 62 522 59T523 53Q486 19 453 4T384 -12Q331 -12 304 23T277 122Q277 152 283 186Q242
95 190 41T86 -13Q54 -13 36 7T17 66Q17 73 19 91Q28 158 69 230T168 351T287 399Q316 399 337 387T364 348Q427 399 504 399Q580 399 580 348ZM494 350T486 362T459 375Q424 375 396 331T359 215V214Q420 239 457 266T494 333Q494 350 486 362ZM164 56T196 88T256
169T292 262Q295 279 295 293Q295 326 281 346T242 367Q215 367 187 339T136 264T104 159Q100 138 100 117Q100 84 111 70T140 56Q164 56 196 88Z" />
<glyph unicode="&#xe7;" glyph-name="ccedilla" horiz-adv-x="346" d="M288 399T315 384T343 340Q343 319 332 307T298 294Q260 294 253 335Q248 352 239 362T211 373Q175 373 150 336T114 236Q108 203 108 172Q108 108 134 70T214 31Q237 31 263 41T308 67H309Q312
67 315 64T316 58Q246 -8 168 -13Q163 -26 163 -40Q163 -57 170 -70T193 -104Q210 -126 218 -142T226 -174Q226 -183 225 -187Q222 -206 208 -226T170 -261T111 -275Q81 -275 60 -263T39 -230Q39 -213 50 -204T77 -194Q92 -194 99 -203T113 -228Q118 -241 123 -248T140
-256Q152 -256 160 -249T170 -227Q171 -210 159 -189T123 -138Q113 -125 113 -110Q113 -92 129 -60L152 -13Q88 -10 57 34T26 146Q26 178 31 202Q42 260 77 305T159 374T252 399Q288 399 315 384Z" />
<glyph unicode="&#xe8;" glyph-name="egrave" horiz-adv-x="352" d="M303 399T323 387T343 351Q343 305 276 266T113 210Q109 178 109 163Q109 102 135 66T210 29Q233 29 258 36T304 60H305Q308 60 310 57T311 52Q242 -12 158 -12Q92 -12 58 29T24 134Q24 157
29 185Q39 238 72 287T157 368T267 399Q303 399 323 387ZM255 334T255 337Q255 354 244 363T217 372Q180 372 154 331T115 225Q241 253 253 324Q255 334 255 337ZM195 727Q194 733 213 733Q232 733 254 728T277 716L259 476Q259 474 255 473T250 475L195 727Z"
/>
<glyph unicode="&#xe9;" glyph-name="eacute" horiz-adv-x="352" d="M303 399T323 387T343 351Q343 305 276 266T113 210Q109 178 109 163Q109 102 135 66T210 29Q233 29 258 36T304 60H305Q308 60 310 57T311 52Q242 -12 158 -12Q92 -12 58 29T24 134Q24 157
29 185Q39 238 72 287T157 368T267 399Q303 399 323 387ZM255 334T255 337Q255 354 244 363T217 372Q180 372 154 331T115 225Q241 253 253 324Q255 334 255 337ZM238 470T233 472T229 476L310 716Q311 722 336 727T382 732Q389 732 394 731T398 727L239 473Q238
470 233 472Z" />
<glyph unicode="&#xea;" glyph-name="ecircumflex" horiz-adv-x="352" d="M303 399T323 387T343 351Q343 305 276 266T113 210Q109 178 109 163Q109 102 135 66T210 29Q233 29 258 36T304 60H305Q308 60 310 57T311 52Q242 -12 158 -12Q92 -12 58 29T24 134Q24
157 29 185Q39 238 72 287T157 368T267 399Q303 399 323 387ZM255 334T255 337Q255 354 244 363T217 372Q180 372 154 331T115 225Q241 253 253 324Q255 334 255 337ZM328 478Q328 475 323 475T316 477L270 600L179 474Q178 473 175 473Q172 473 170 474T168 478L282
727Q285 732 293 732Q301 732 301 727L328 478Z" />
<glyph unicode="&#xeb;" glyph-name="edieresis" horiz-adv-x="352" d="M303 399T323 387T343 351Q343 305 276 266T113 210Q109 178 109 163Q109 102 135 66T210 29Q233 29 258 36T304 60H305Q308 60 310 57T311 52Q242 -12 158 -12Q92 -12 58 29T24 134Q24 157
29 185Q39 238 72 287T157 368T267 399Q303 399 323 387ZM255 334T255 337Q255 354 244 363T217 372Q180 372 154 331T115 225Q241 253 253 324Q255 334 255 337ZM154 469T141 482T127 519Q127 541 140 554T177 567Q200 567 212 555T225 519Q225 495 213 482T177
469Q154 469 141 482ZM310 469T297 482T283 519Q283 542 296 554T334 567Q356 567 368 555T381 519Q381 495 369 482T334 469Q310 469 297 482Z" />
<glyph unicode="&#xec;" glyph-name="igrave" horiz-adv-x="247" d="M63 -9T63 43Q63 62 69 89L110 297Q113 311 113 321Q113 349 94 349Q70 349 33 307Q32 306 30 306Q26 306 24 309T24 316Q60 357 88 376T144 395Q188 395 188 346Q188 331 183 306L142 89Q139
74 139 64Q139 38 156 38Q173 38 214 76Q216 78 218 78Q221 78 223 75T222 68Q188 28 161 10T107 -9Q63 -9 63 43ZM359 727Q358 733 377 733Q396 733 418 728T441 716L423 476Q423 474 419 473T414 475L359 727Z" />
<glyph unicode="&#xed;" glyph-name="iacute" horiz-adv-x="247" d="M63 -9T63 43Q63 62 69 89L110 297Q113 311 113 321Q113 349 94 349Q70 349 33 307Q32 306 30 306Q26 306 24 309T24 316Q60 357 88 376T144 395Q188 395 188 346Q188 331 183 306L142 89Q139
74 139 64Q139 38 156 38Q173 38 214 76Q216 78 218 78Q221 78 223 75T222 68Q188 28 161 10T107 -9Q63 -9 63 43ZM146 470T141 472T137 476L218 716Q219 722 244 727T290 732Q297 732 302 731T306 727L147 473Q146 470 141 472Z" />
<glyph unicode="&#xee;" glyph-name="icircumflex" horiz-adv-x="247" d="M63 -9T63 43Q63 62 69 89L110 297Q113 311 113 321Q113 349 94 349Q70 349 33 307Q32 306 30 306Q26 306 24 309T24 316Q60 357 88 376T144 395Q188 395 188 346Q188 331 183 306L142
89Q139 74 139 64Q139 38 156 38Q173 38 214 76Q216 78 218 78Q221 78 223 75T222 68Q188 28 161 10T107 -9Q63 -9 63 43ZM239 477Q239 475 234 475T227 476L181 600L90 474Q88 472 86 472Q83 472 81 473T79 477L194 726Q195 731 204 731Q212 731 212 726L239 477Z"
/>
<glyph unicode="&#xef;" glyph-name="idieresis" horiz-adv-x="247" d="M63 -9T63 43Q63 62 69 89L110 297Q113 311 113 321Q113 349 94 349Q70 349 33 307Q32 306 30 306Q26 306 24 309T24 316Q60 357 88 376T144 395Q188 395 188 346Q188 331 183 306L142 89Q139
74 139 64Q139 38 156 38Q173 38 214 76Q216 78 218 78Q221 78 223 75T222 68Q188 28 161 10T107 -9Q63 -9 63 43ZM324 469T311 482T297 519Q297 541 311 554T348 567Q371 567 383 555T396 519Q396 495 384 482T348 469Q324 469 311 482ZM471 469T458 482T445 519Q445
542 458 554T494 567Q517 567 529 555T542 519Q542 495 530 482T494 469Q471 469 458 482Z" />
<glyph unicode="&#xf0;" glyph-name="eth" horiz-adv-x="401" d="M408 647T413 637T415 625L321 580Q354 520 372 451T390 309Q390 257 382 216Q369 142 334 91T252 13T154 -13Q89 -13 54 30T18 139Q18 159 23 186Q36 255 72 303T154 375T242 399Q274 399 300
385Q291 471 264 553L141 495Q138 493 133 503T131 515L256 574Q217 671 166 712L165 714Q165 719 174 723T186 725Q257 684 309 600L405 645Q408 647 413 637ZM222 9T252 56T297 204Q302 246 302 272Q302 325 285 352T228 379Q188 379 155 335T110 215Q106 188
106 156Q106 91 126 50T181 9Q222 9 252 56Z" />
<glyph unicode="&#xf1;" glyph-name="ntilde" horiz-adv-x="472" d="M446 79T447 79Q450 79 452 76T452 69Q418 29 392 10T338 -9Q316 -9 306 4T295 43Q295 59 300 89L329 248Q334 272 334 296Q334 348 299 348Q269 348 238 310T178 200T132 26L129 10Q124 -8
81 -8Q51 -8 51 -1L55 21Q65 68 66 74L107 297Q109 306 109 320Q109 349 91 349Q69 349 30 307Q29 306 27 306Q24 306 22 309T22 316Q57 357 85 376T142 395Q164 395 174 383T185 344Q185 336 181 306L163 206Q198 298 245 348T344 399Q411 399 411 318Q411 299
406 267L373 89Q370 74 370 64Q370 38 387 38Q405 38 444 77Q446 79 447 79ZM150 473Q148 473 146 475T144 480Q194 555 239 555Q250 555 288 545Q337 530 362 530Q382 530 394 536T421 557Q421 558 423 558Q425 558 427 555T428 550Q399 506 380 491T337 476Q317
476 280 487Q263 492 245 496T210 500Q188 500 178 495T151 473H150Z" />
<glyph unicode="&#xf2;" glyph-name="ograve" horiz-adv-x="405" d="M93 -14T59 28T24 137Q24 165 30 193Q41 252 72 299T150 372T247 399Q312 399 347 358T382 250Q382 223 376 193Q364 129 330 82T250 11T157 -14Q93 -14 59 28ZM226 11T253 48T292 149Q299 183
299 221Q299 287 277 331T215 375Q181 375 154 339T114 236Q107 194 107 165Q107 98 129 55T191 11Q226 11 253 48ZM196 727Q195 733 214 733Q233 733 255 728T278 716L260 476Q260 474 256 473T251 475L196 727Z" />
<glyph unicode="&#xf3;" glyph-name="oacute" horiz-adv-x="405" d="M93 -14T59 28T24 137Q24 165 30 193Q41 252 72 299T150 372T247 399Q312 399 347 358T382 250Q382 223 376 193Q364 129 330 82T250 11T157 -14Q93 -14 59 28ZM226 11T253 48T292 149Q299 183
299 221Q299 287 277 331T215 375Q181 375 154 339T114 236Q107 194 107 165Q107 98 129 55T191 11Q226 11 253 48ZM239 470T234 472T230 476L311 716Q312 722 337 727T383 732Q390 732 395 731T399 727L240 473Q239 470 234 472Z" />
<glyph unicode="&#xf4;" glyph-name="ocircumflex" horiz-adv-x="405" d="M93 -14T59 28T24 137Q24 165 30 193Q41 252 72 299T150 372T247 399Q312 399 347 358T382 250Q382 223 376 193Q364 129 330 82T250 11T157 -14Q93 -14 59 28ZM226 11T253 48T292 149Q299
183 299 221Q299 287 277 331T215 375Q181 375 154 339T114 236Q107 194 107 165Q107 98 129 55T191 11Q226 11 253 48ZM329 478Q329 475 324 475T317 477L271 600L180 474Q179 473 176 473Q173 473 171 474T169 478L283 727Q286 732 294 732Q302 732 302 727L329
478Z" />
<glyph unicode="&#xf5;" glyph-name="otilde" horiz-adv-x="405" d="M93 -14T59 28T24 137Q24 165 30 193Q41 252 72 299T150 372T247 399Q312 399 347 358T382 250Q382 223 376 193Q364 129 330 82T250 11T157 -14Q93 -14 59 28ZM226 11T253 48T292 149Q299 183
299 221Q299 287 277 331T215 375Q181 375 154 339T114 236Q107 194 107 165Q107 98 129 55T191 11Q226 11 253 48ZM119 473Q117 473 115 475T113 480Q163 555 208 555Q219 555 257 545Q306 530 331 530Q351 530 363 536T390 557Q390 558 392 558Q394 558 396 555T397
550Q368 506 349 491T306 476Q286 476 249 487Q232 492 214 496T179 500Q157 500 147 495T120 473H119Z" />
<glyph unicode="&#xf6;" glyph-name="odieresis" horiz-adv-x="405" d="M93 -14T59 28T24 137Q24 165 30 193Q41 252 72 299T150 372T247 399Q312 399 347 358T382 250Q382 223 376 193Q364 129 330 82T250 11T157 -14Q93 -14 59 28ZM226 11T253 48T292 149Q299
183 299 221Q299 287 277 331T215 375Q181 375 154 339T114 236Q107 194 107 165Q107 98 129 55T191 11Q226 11 253 48ZM155 469T142 482T128 519Q128 541 141 554T178 567Q201 567 213 555T226 519Q226 495 214 482T178 469Q155 469 142 482ZM311 469T298 482T284
519Q284 542 297 554T335 567Q357 567 369 555T382 519Q382 495 370 482T335 469Q311 469 298 482Z" />
<glyph unicode="&#xf7;" glyph-name="divide" horiz-adv-x="391" d="M174 312T160 325T146 364Q146 387 160 400T198 414Q222 414 235 401T249 364Q249 339 236 326T198 312Q174 312 160 325ZM32 176T31 183T29 200Q29 207 30 213T33 220H364Q366 220 367 213T369
198Q369 190 368 183T364 176H34Q32 176 31 183ZM175 -9T161 5T147 43Q147 66 161 79T199 93Q224 93 237 80T250 43Q250 19 237 5T199 -9Q175 -9 161 5Z" />
<glyph unicode="&#xf8;" glyph-name="oslash" horiz-adv-x="408" d="M386 402T388 402Q392 402 398 396T403 387L359 342Q382 304 382 250Q382 223 376 193Q364 129 330 82T250 11T157 -14Q92 -14 57 30L12 -17H11Q6 -17 0 -11T-4 0L44 49Q24 87 24 137Q24 165
30 193Q41 252 72 299T150 372T247 399Q309 399 346 360L386 401Q386 402 388 402ZM107 202T107 166Q107 138 111 118L288 301Q278 336 260 355T215 375Q181 375 154 339T114 236Q107 202 107 166ZM299 191T299 221Q299 247 294 275L116 91Q126 54 145 33T191 11Q226
11 253 48T292 149Q299 191 299 221Z" />
<glyph unicode="&#xf9;" glyph-name="ugrave" horiz-adv-x="472" d="M444 80T446 80Q449 80 451 77T451 70Q415 29 387 10T330 -9Q308 -9 298 3T288 41Q288 60 292 80L309 181Q274 89 228 38T129 -13Q61 -13 61 67Q61 94 66 119L102 297Q105 312 105 322Q105 348
88 348Q78 348 64 338T31 309Q29 307 27 307Q24 307 22 310T23 317Q58 358 83 376T136 395Q180 395 180 341Q180 325 175 297L143 138Q137 110 137 90Q137 38 173 38Q203 38 235 77T295 191T342 369L343 376Q348 394 391 394Q421 394 421 387L417 365Q407 318 406
312L365 89Q363 80 363 66Q363 37 381 37Q403 37 443 79Q444 80 446 80ZM218 727Q217 733 236 733Q255 733 277 728T300 716L282 476Q282 474 278 473T273 475L218 727Z" />
<glyph unicode="&#xfa;" glyph-name="uacute" horiz-adv-x="472" d="M444 80T446 80Q449 80 451 77T451 70Q415 29 387 10T330 -9Q308 -9 298 3T288 41Q288 60 292 80L309 181Q274 89 228 38T129 -13Q61 -13 61 67Q61 94 66 119L102 297Q105 312 105 322Q105 348
88 348Q78 348 64 338T31 309Q29 307 27 307Q24 307 22 310T23 317Q58 358 83 376T136 395Q180 395 180 341Q180 325 175 297L143 138Q137 110 137 90Q137 38 173 38Q203 38 235 77T295 191T342 369L343 376Q348 394 391 394Q421 394 421 387L417 365Q407 318 406
312L365 89Q363 80 363 66Q363 37 381 37Q403 37 443 79Q444 80 446 80ZM261 470T256 472T252 476L333 716Q334 722 359 727T405 732Q412 732 417 731T421 727L262 473Q261 470 256 472Z" />
<glyph unicode="&#xfb;" glyph-name="ucircumflex" horiz-adv-x="472" d="M444 80T446 80Q449 80 451 77T451 70Q415 29 387 10T330 -9Q308 -9 298 3T288 41Q288 60 292 80L309 181Q274 89 228 38T129 -13Q61 -13 61 67Q61 94 66 119L102 297Q105 312 105 322Q105
348 88 348Q78 348 64 338T31 309Q29 307 27 307Q24 307 22 310T23 317Q58 358 83 376T136 395Q180 395 180 341Q180 325 175 297L143 138Q137 110 137 90Q137 38 173 38Q203 38 235 77T295 191T342 369L343 376Q348 394 391 394Q421 394 421 387L417 365Q407 318
406 312L365 89Q363 80 363 66Q363 37 381 37Q403 37 443 79Q444 80 446 80ZM351 478Q351 475 346 475T339 477L293 600L202 474Q201 473 198 473Q195 473 193 474T191 478L305 727Q308 732 316 732Q324 732 324 727L351 478Z" />
<glyph unicode="&#xfc;" glyph-name="udieresis" horiz-adv-x="472" d="M444 80T446 80Q449 80 451 77T451 70Q415 29 387 10T330 -9Q308 -9 298 3T288 41Q288 60 292 80L309 181Q274 89 228 38T129 -13Q61 -13 61 67Q61 94 66 119L102 297Q105 312 105 322Q105
348 88 348Q78 348 64 338T31 309Q29 307 27 307Q24 307 22 310T23 317Q58 358 83 376T136 395Q180 395 180 341Q180 325 175 297L143 138Q137 110 137 90Q137 38 173 38Q203 38 235 77T295 191T342 369L343 376Q348 394 391 394Q421 394 421 387L417 365Q407 318
406 312L365 89Q363 80 363 66Q363 37 381 37Q403 37 443 79Q444 80 446 80ZM177 469T164 482T150 519Q150 541 163 554T200 567Q223 567 235 555T248 519Q248 495 236 482T200 469Q177 469 164 482ZM333 469T320 482T306 519Q306 542 319 554T357 567Q379 567
391 555T404 519Q404 495 392 482T357 469Q333 469 320 482Z" />
<glyph unicode="&#xfd;" glyph-name="yacute" horiz-adv-x="450" d="M391 396T403 379T416 331Q416 254 336 105T153 -163T-16 -281Q-69 -281 -69 -238Q-69 -231 -68 -227Q-64 -208 -51 -198T-16 -188Q0 -188 23 -195Q47 -201 59 -201Q79 -201 100 -187Q128 -168
170 -111V-65Q170 129 142 236T65 343Q52 343 40 334T18 310Q17 307 12 307Q5 307 6 313Q24 350 55 372T115 395Q154 395 183 350T227 225T242 48Q242 10 241 -10Q281 53 311 111T348 198Q353 217 353 239Q353 260 348 275T332 307Q324 320 321 330T317 351Q317
371 331 383T368 396Q391 396 403 379ZM245 470T240 472T236 476L317 716Q318 722 343 727T389 732Q396 732 401 731T405 727L246 473Q245 470 240 472Z" />
<glyph unicode="&#xfe;" glyph-name="thorn" horiz-adv-x="410" d="M338 393T366 365T394 285Q394 270 391 252Q380 182 341 124T249 33T145 -1Q127 -1 99 1L67 -178Q64 -196 64 -207Q64 -223 71 -230T96 -237Q100 -237 118 -235Q122 -234 123 -239T120 -246L-64
-275Q-67 -276 -68 -270T-66 -263Q-45 -259 -36 -253T-21 -232T-9 -185L77 293Q47 274 27 259Q26 258 24 258Q21 258 19 262T20 268Q60 300 81 314L132 599Q136 623 136 630Q136 656 117 656Q103 656 73 642H71Q67 642 66 647T68 653L215 725H217Q221 725 224 722T227
717L164 362Q231 393 288 393Q338 393 366 365ZM312 240T312 248Q312 292 291 320T227 348Q192 348 159 335L107 43Q139 28 179 28Q233 28 265 79T310 220Q312 240 312 248Z" />
<glyph unicode="&#xff;" glyph-name="ydieresis" horiz-adv-x="450" d="M391 396T403 379T416 331Q416 254 336 105T153 -163T-16 -281Q-69 -281 -69 -238Q-69 -231 -68 -227Q-64 -208 -51 -198T-16 -188Q0 -188 23 -195Q47 -201 59 -201Q79 -201 100 -187Q128
-168 170 -111V-65Q170 129 142 236T65 343Q52 343 40 334T18 310Q17 307 12 307Q5 307 6 313Q24 350 55 372T115 395Q154 395 183 350T227 225T242 48Q242 10 241 -10Q281 53 311 111T348 198Q353 217 353 239Q353 260 348 275T332 307Q324 320 321 330T317 351Q317
371 331 383T368 396Q391 396 403 379ZM161 469T148 482T134 519Q134 541 147 554T184 567Q207 567 219 555T232 519Q232 495 220 482T184 469Q161 469 148 482ZM317 469T304 482T290 519Q290 542 303 554T341 567Q363 567 375 555T388 519Q388 495 376 482T341
469Q317 469 304 482Z" />
<glyph unicode="&#x2013;" glyph-name="endash" horiz-adv-x="515" d="M32 167T31 174T29 191Q29 199 30 205T33 212H481Q483 212 484 205T486 190Q486 181 485 174T481 167H34Q32 167 31 174Z" />
<glyph unicode="&#x2014;" glyph-name="emdash" horiz-adv-x="830" d="M32 167T31 174T29 191Q29 199 30 205T33 212H796Q798 212 799 205T801 190Q801 181 800 174T796 167H34Q32 167 31 174Z" />
<glyph unicode="&#x2018;" glyph-name="quoteleft" horiz-adv-x="154" d="M177 643T179 643Q182 643 184 639T183 633Q114 575 103 509Q102 503 102 494Q102 486 103 482Q113 490 128 490Q151 490 164 476T177 441Q177 419 162 404T120 389Q91 389 75 407T59 458Q59
475 63 491Q71 530 101 570T176 642Q177 643 179 643Z" />
<glyph unicode="&#x2019;" glyph-name="quoteright" horiz-adv-x="148" d="M165 635T181 617T197 566Q197 549 193 533Q185 494 155 454T80 382Q79 381 77 381Q74 381 72 385T73 391Q142 449 153 515Q155 527 155 530Q155 536 153 542Q143 534 128 534Q105 534
92 548T79 583Q79 605 94 620T136 635Q165 635 181 617Z" />
<glyph unicode="&#x201a;" glyph-name="quotesinglbase" horiz-adv-x="143" d="M328 93T344 75T360 24Q360 7 356 -9Q348 -48 318 -88T243 -160Q242 -161 240 -161Q237 -161 235 -157T236 -151Q305 -93 316 -27Q318 -15 318 -12Q318 -8 316 0Q306 -8 291 -8Q268
-8 255 6T242 41Q242 63 257 78T299 93Q328 93 344 75Z" />
<glyph unicode="&#x201c;" glyph-name="quotedblleft" horiz-adv-x="305" d="M179 643T181 643Q184 643 186 639T185 633Q116 575 105 509Q104 503 104 494Q104 486 105 482Q115 490 130 490Q153 490 166 476T179 441Q179 419 164 404T122 389Q93 389 77 407T61
458Q61 475 65 491Q73 530 103 570T178 642Q179 643 181 643ZM336 643T338 643Q341 643 343 639T342 633Q273 575 262 509Q261 503 261 494Q261 486 262 482Q272 490 287 490Q310 490 323 476T336 441Q336 419 321 404T279 389Q250 389 234 407T218 458Q218 475
222 491Q230 530 260 570T335 642Q336 643 338 643Z" />
<glyph unicode="&#x201d;" glyph-name="quotedblright" horiz-adv-x="305" d="M323 635T339 617T355 566Q355 549 351 533Q343 494 313 454T238 382Q237 381 235 381Q232 381 230 385T231 391Q300 449 311 515Q313 527 313 530Q313 534 311 542Q301 534 286 534Q263
534 250 548T237 583Q237 605 252 620T294 635Q323 635 339 617ZM166 635T182 617T198 566Q198 549 194 533Q186 494 156 454T81 382Q80 381 78 381Q75 381 73 385T74 391Q143 449 154 515Q156 527 156 530Q156 534 154 542Q144 534 129 534Q106 534 93 548T80
583Q80 605 95 620T137 635Q166 635 182 617Z" />
<glyph unicode="&#x201e;" glyph-name="quotedblbase" horiz-adv-x="305" d="M229 93T245 75T261 24Q261 7 257 -9Q249 -48 219 -88T144 -160Q143 -161 141 -161Q138 -161 136 -157T137 -151Q206 -93 217 -27Q219 -15 219 -12Q219 -8 217 0Q207 -8 192 -8Q169
-8 156 6T143 41Q143 63 158 78T200 93Q229 93 245 75ZM328 93T344 75T360 24Q360 7 356 -9Q348 -48 318 -88T243 -160Q242 -161 240 -161Q237 -161 235 -157T236 -151Q305 -93 316 -27Q318 -15 318 -12Q318 -8 316 0Q306 -8 291 -8Q268 -8 255 6T242 41Q242 63
257 78T299 93Q328 93 344 75Z" />
<glyph unicode="&#x2022;" glyph-name="bullet" horiz-adv-x="316" d="M122 138T90 170T57 248Q57 293 89 325T168 358Q213 358 245 326T278 248Q278 202 246 170T168 138Q122 138 90 170Z" />
<glyph unicode="&#x2039;" glyph-name="guilsinglleft" horiz-adv-x="284" d="M250 364Q253 364 256 361T257 356L137 201L203 47V46Q203 43 200 40T195 40L46 189Q43 192 43 198Q43 206 50 212L248 364H250Z" />
<glyph unicode="&#x203a;" glyph-name="guilsinglright" horiz-adv-x="282" d="M36 37Q33 37 30 40T29 46L148 200L83 354V355Q83 358 86 361T91 361L240 212Q243 209 243 203Q243 195 236 189L37 37H36Z" />
</font>
</defs>
</svg>
