<?xml version="1.0" standalone="no"?>
<!DOCTYPE svg PUBLIC "-//W3C//DTD SVG 1.1//EN" "http://www.w3.org/Graphics/SVG/1.1/DTD/svg11.dtd">
<svg xmlns="http://www.w3.org/2000/svg">
<defs >
<font id="Cormorant" horiz-adv-x="510" ><font-face
    font-family="Cormorant"
    units-per-em="1000"
    panose-1="0 0 8 0 0 0 0 0 0 0"
    ascent="924"
    descent="-287"
    alphabetic="0" />
<glyph unicode=" " glyph-name="space" horiz-adv-x="234" />
<glyph unicode="!" glyph-name="exclam" horiz-adv-x="219" d="M112 186T107 186T102 192Q117 409 120 621Q120 625 142 629T186 633Q210 633 231 629T250 621Q181 451 113 191Q112 186 107 186ZM64 -8T49 7T33 49Q33 74 48 88T90 103Q116 103 130 89T145 49Q145
22 131 7T90 -8Q64 -8 49 7Z" />
<glyph unicode="&quot;" glyph-name="quotedbl" horiz-adv-x="337" d="M106 609Q107 620 146 630T210 640Q222 640 220 637L102 296Q101 293 93 293T85 295L106 609ZM269 609Q270 620 309 630T373 640Q385 640 383 637L265 296Q264 293 256 293T248 295L269 609Z" />
<glyph unicode="#" glyph-name="numbersign" horiz-adv-x="444" d="M427 318T427 300Q427 271 423 271H345L294 119H358Q361 119 361 101Q361 91 360 82T357 73H278L226 -83Q225 -87 205 -81T186 -70L234 73H127L75 -83Q74 -87 54 -81T35 -70L83 73H22Q19 73 19
96Q19 119 22 119H98L149 271H89Q88 271 87 278T85 295Q85 303 86 310T89 318H165L221 487Q222 491 242 483T261 471L210 318H316L372 487Q373 491 393 483T412 471L361 318H425Q427 318 427 300ZM249 119L300 271H194L143 119H249Z" />
<glyph unicode="$" glyph-name="dollar" horiz-adv-x="404" d="M386 447T384 434L367 338Q366 334 362 334T357 339Q357 351 347 376T317 425T268 455L238 285L257 273Q304 244 328 218T353 149Q353 108 331 73T271 15T186 -11L170 -103Q169 -108 159 -108Q153
-108 149 -106T145 -99L160 -12Q123 -11 89 2T39 28Q32 35 34 49L49 163Q50 166 54 166T60 163Q74 110 100 66T165 13L199 205L175 221Q133 249 110 274T87 338Q87 398 134 435T247 479L262 564Q262 569 272 569Q278 569 283 567T287 560L273 480Q300 479 327 471T372
455Q386 447 384 434ZM167 382T167 373Q167 351 179 334T215 300L243 457Q212 455 193 436T168 386Q167 382 167 373ZM267 103T267 109Q267 133 255 152T221 188L190 12Q218 15 238 35T265 91Q267 103 267 109Z" />
<glyph unicode="%" glyph-name="percent" horiz-adv-x="529" d="M120 302T96 330T72 403Q72 443 90 479T140 537T206 559Q246 559 269 531T292 459Q292 444 289 429Q279 375 243 339T160 302Q120 302 96 330ZM68 -13T55 -3T43 9L473 553Q475 557 488 546T499 532L70
-11Q68 -13 55 -3ZM189 322T199 347T216 422Q220 450 220 477Q220 507 214 523T198 539Q176 539 164 512T146 435Q143 410 143 387Q143 357 149 340T168 322Q189 322 199 347ZM314 -6T290 22T266 95Q266 135 284 171T334 229T400 251Q440 251 463 224T486 152Q486
137 483 122Q473 67 437 31T354 -6Q314 -6 290 22ZM384 14T394 40T411 115Q415 155 415 168Q415 199 409 215T392 232Q370 232 358 204T340 127Q337 102 337 79Q337 49 343 32T363 14Q384 14 394 40Z" />
<glyph unicode="&amp;" glyph-name="ampersand" horiz-adv-x="765" d="M777 399T777 360Q777 332 760 303T714 254T655 235Q630 235 587 253Q566 126 493 57T316 -12Q243 -12 187 20T99 107T68 225Q68 251 74 278Q85 332 118 374T200 441T304 465Q353 465 388
448Q437 505 437 544Q437 563 430 572T408 591Q393 600 386 609T379 637Q379 660 392 674T429 688Q458 688 473 665T488 605Q488 543 451 485T358 379T208 256L166 223Q177 141 229 94T353 46Q404 46 449 72T525 147T566 263Q562 265 540 277Q497 299 474 308T429
318Q412 318 404 313T396 297Q396 285 409 270Q422 253 422 242Q422 230 414 221T388 211Q373 211 363 220T352 250Q352 279 372 308T425 355T490 374Q516 374 543 364T612 332Q646 315 668 306T708 297Q721 297 729 302T738 316Q738 323 725 336Q715 346 711 352T706
370Q706 383 715 391T742 399Q777 399 777 360ZM162 277T164 248Q182 263 183 264Q271 333 314 373Q295 435 250 435Q217 435 196 400T167 310Q162 277 164 248Z" />
<glyph unicode="&apos;" glyph-name="quotesingle" horiz-adv-x="139" d="M94 609Q95 620 134 630T198 640Q210 640 208 637L90 296Q89 293 81 293T73 295L94 609Z" />
<glyph unicode="(" glyph-name="parenleft" horiz-adv-x="290" d="M132 -75T96 2T60 184Q60 238 71 304Q96 445 171 558T352 725H353Q356 725 358 722T358 717Q292 645 249 545T182 304Q166 208 166 137Q166 7 211 -109V-110Q211 -113 209 -115T204 -117Q132 -75 96 2Z" />
<glyph unicode=")" glyph-name="parenright" horiz-adv-x="290" d="M198 683T234 606T270 424Q270 370 259 304Q234 163 159 50T-22 -117H-23Q-26 -117 -28 -114T-28 -109Q38 -37 81 63T148 304Q164 400 164 471Q164 602 119 717V718Q119 721 121 723T126 725Q198
683 234 606Z" />
<glyph unicode="*" glyph-name="asterisk" horiz-adv-x="448" d="M228 661Q225 672 264 682T331 693Q344 693 343 689L276 529Q275 526 271 526T265 529L228 661ZM109 516Q100 516 100 546Q100 574 106 606T118 634L247 522Q248 521 248 519Q248 516 247 513T243
511L109 516ZM291 503Q289 503 288 507T289 513L399 588Q407 594 424 570T454 517T461 488L291 503ZM207 355T199 355Q185 355 159 365T114 388T98 404L244 491Q245 492 247 492Q249 492 252 490T254 485L208 359Q207 355 199 355ZM273 481V482Q273 484 276 486T281
487L387 405Q395 399 377 375T335 330T310 315L273 481Z" />
<glyph unicode="+" glyph-name="plus" horiz-adv-x="398" d="M366 213T367 206T369 190Q369 181 368 174T364 166H222V25Q222 23 214 22T195 20Q175 20 175 23V166H34Q32 166 31 174T29 191Q29 199 30 206T33 213H175V354Q175 356 182 357T199 359Q207 359 214
358T222 354V213H364Q366 213 367 206Z" />
<glyph unicode="," glyph-name="comma" horiz-adv-x="234" d="M113 104T129 85T146 32Q146 12 142 -5Q134 -44 102 -87T27 -160Q26 -161 24 -161Q21 -161 19 -157T20 -151Q87 -92 98 -25Q100 -15 100 -12Q100 -7 98 -1Q91 -8 74 -8Q49 -8 35 8T21 46Q21 70 36
87T82 104Q113 104 129 85Z" />
<glyph unicode="-" glyph-name="hyphen" horiz-adv-x="305" d="M31 163T29 176T27 202Q27 215 29 215L278 262Q281 263 283 251T285 226Q285 211 282 211L34 164Q31 163 29 176Z" />
<glyph unicode="." glyph-name="period" horiz-adv-x="207" d="M52 -8T37 7T21 49Q21 74 36 88T78 103Q104 103 118 89T133 49Q133 22 119 7T78 -8Q52 -8 37 7Z" />
<glyph unicode="/" glyph-name="slash" horiz-adv-x="305" d="M-11 -173T-22 -171T-42 -163T-51 -154L333 735Q335 739 346 736T366 728T374 718L-9 -170Q-11 -173 -22 -171Z" />
<glyph unicode="0" glyph-name="zero" horiz-adv-x="448" d="M115 -13T70 32T25 151Q25 175 29 196Q40 255 74 301T157 373T263 399Q335 399 379 356T423 239Q423 214 419 193Q407 133 374 86T292 13T188 -13Q115 -13 70 32ZM248 7T277 55T317 181Q322 221 322
247Q322 309 302 344T248 379Q207 379 175 332T130 204Q126 177 126 145Q126 83 146 45T205 7Q248 7 277 55Z" />
<glyph unicode="1" glyph-name="one" horiz-adv-x="291" d="M1 0T1 6T5 12Q39 12 56 17T81 36T96 81L131 273Q135 295 135 300Q135 318 119 318Q100 318 51 295L49 294Q46 294 45 299T46 308L232 399Q234 401 237 399T239 394L182 81Q179 63 179 51Q179 27 194
20T251 12Q255 12 255 6T251 0Q219 0 200 1L129 2L57 1Q38 0 5 0Q1 0 1 6Z" />
<glyph unicode="2" glyph-name="two" horiz-adv-x="373" d="M94 99T137 141T203 215T232 281Q234 297 234 304Q234 332 221 350T182 368Q151 368 126 339T71 250Q70 249 68 249Q65 249 62 250T60 255L119 411L123 413Q127 413 129 411T131 405Q126 390 126 386Q126
377 135 377Q144 377 163 384Q204 399 236 399Q280 399 304 378T328 321Q328 285 311 257T267 207T197 154Q173 137 149 119T106 82Q103 80 106 80Q212 80 260 90T323 136Q323 137 326 137Q329 137 331 136T333 132L291 7Q291 4 290 2T284 0H8Q3 0 1 5T1 16Q94
99 137 141Z" />
<glyph unicode="3" glyph-name="three" horiz-adv-x="354" d="M318 250T282 202T189 131Q241 121 266 89T292 12Q292 -3 289 -18Q281 -64 243 -111T134 -202T-34 -276Q-36 -277 -39 -272T-39 -264Q67 -221 123 -153T191 -19Q194 -1 194 15Q194 57 173 81T113 105Q97
105 76 97H75Q70 97 68 104T71 112Q138 130 174 168T222 274Q227 301 227 317Q227 371 188 371Q150 371 114 342T49 258Q48 256 44 256Q41 256 39 258T37 263L95 404Q97 406 98 406Q101 406 103 404T105 399Q102 392 102 387Q102 377 115 377Q126 377 147 385Q170
392 186 395T221 399Q268 399 293 372T318 303Q318 250 282 202Z" />
<glyph unicode="4" glyph-name="four" horiz-adv-x="433" d="M369 67T369 58Q369 44 366 25T359 5L300 8L271 -158Q269 -169 262 -172L188 -188Q182 -190 182 -190Q179 -190 180 -182L214 11Q154 12 -6 12Q-10 12 -11 15T-9 23L356 405Q357 406 360 406Q370 406
368 400L310 65Q327 65 367 67Q369 67 369 58ZM177 62T223 63L260 276L63 69Q56 62 67 62Q177 62 223 63Z" />
<glyph unicode="5" glyph-name="five" horiz-adv-x="374" d="M358 425T359 425Q362 425 364 423T366 419L330 322Q324 310 319 307T301 304L123 299Q112 299 106 285L78 196Q192 194 246 154T301 46Q301 35 297 9Q282 -73 207 -138T-23 -275H-24Q-28 -275 -30
-271T-28 -264Q82 -203 133 -142T195 -8Q198 13 198 31Q198 94 161 130T54 167Q50 167 48 170T48 179L108 357Q110 364 112 365T122 368Q241 383 282 389T336 401T356 423Q358 425 359 425Z" />
<glyph unicode="6" glyph-name="six" horiz-adv-x="425" d="M117 -13T74 28T31 148Q31 175 37 208Q54 299 110 389T254 552T448 661Q452 662 453 656T451 649Q365 606 298 537T190 387T136 226Q130 192 130 160Q130 92 155 52T226 11Q254 11 273 36T301 116Q304
136 304 155Q304 198 288 223T240 248Q218 248 187 229L185 228Q183 228 181 231T179 236Q224 282 288 282Q346 282 374 251T402 173Q402 157 399 142Q390 98 361 63T288 8T196 -13Q117 -13 74 28Z" />
<glyph unicode="7" glyph-name="seven" horiz-adv-x="392" d="M-16 -276T-18 -273T-19 -268L329 303Q333 310 326 310Q198 310 147 306T76 288T42 241Q42 239 38 239Q35 239 32 240T30 244L96 415Q96 417 99 417Q102 417 105 415T108 412Q104 400 104 398Q104
391 113 389T145 386H384Q388 386 389 382T389 373L97 -220Q88 -237 74 -244L-14 -275Q-16 -276 -18 -273Z" />
<glyph unicode="8" glyph-name="eight" horiz-adv-x="440" d="M342 321T364 303T401 258T417 194Q417 179 414 161Q403 108 370 69T289 8T193 -13Q139 -13 100 5T41 56T20 126Q20 188 72 246T194 336Q162 359 145 381T127 436Q127 442 129 456Q139 512 186 543T290
574Q330 574 358 558T399 519T413 471Q413 436 385 406T304 348Q342 321 364 303ZM213 436T232 411T289 359Q330 409 330 465Q330 501 315 527T275 554Q250 554 232 529T213 471Q213 436 232 411ZM323 149T323 164Q323 203 307 232T269 280T209 325Q173 300 151
262T122 175Q120 164 120 143Q120 87 146 49T221 11Q257 11 285 44T320 132Q323 149 323 164Z" />
<glyph unicode="9" glyph-name="nine" horiz-adv-x="426" d="M-25 -276T-26 -271T-25 -263Q60 -221 128 -149T237 5T291 160Q296 193 296 219Q296 286 272 330T202 374Q141 374 127 282Q125 260 125 250Q125 202 143 171T193 139Q213 139 242 159Q243 160 245
160Q248 160 250 158T251 153Q209 104 147 104Q89 104 57 142T25 230Q25 276 54 315T131 376T233 399Q306 399 349 356T393 234Q393 211 388 178Q373 88 317 -2T173 -165T-21 -275Q-25 -276 -26 -271Z" />
<glyph unicode=":" glyph-name="colon" horiz-adv-x="207" d="M52 -8T37 7T21 49Q21 74 36 88T78 103Q104 103 118 89T133 49Q133 22 119 7T78 -8Q52 -8 37 7ZM89 273T74 288T58 330Q58 355 73 369T115 384Q141 384 155 370T170 330Q170 303 156 288T115 273Q89
273 74 288Z" />
<glyph unicode=";" glyph-name="semicolon" horiz-adv-x="222" d="M113 104T129 85T146 32Q146 12 142 -5Q134 -44 102 -87T27 -160Q26 -161 24 -161Q21 -161 19 -157T20 -151Q87 -92 98 -25Q100 -15 100 -12Q100 -7 98 -1Q91 -8 74 -8Q49 -8 35 8T21 46Q21 70
36 87T82 104Q113 104 129 85ZM89 273T74 288T58 330Q58 355 73 369T115 384Q141 384 155 370T170 330Q170 303 156 288T115 273Q89 273 74 288Z" />
<glyph unicode="&lt;" glyph-name="less" horiz-adv-x="407" d="M376 71T376 46Q376 22 369 25L35 173Q30 176 30 190Q30 205 35 207L369 354Q372 356 374 350T376 334Q376 310 369 306L97 190L369 74Q376 71 376 46Z" />
<glyph unicode="=" glyph-name="equal" horiz-adv-x="468" d="M32 236T31 244T29 261Q29 269 30 276T33 283H434Q436 283 437 276T439 260Q439 251 438 244T434 236H34Q32 236 31 244ZM32 96T31 104T29 121Q29 129 30 136T33 143H434Q436 143 437 136T439 120Q439
111 438 104T434 96H34Q32 96 31 104Z" />
<glyph unicode="&gt;" glyph-name="greater" horiz-adv-x="407" d="M376 204T376 189Q376 175 371 172L37 25Q34 24 32 30T30 45Q30 54 32 63T37 73L309 189L37 305Q34 307 32 315T30 333Q30 343 32 349T37 354L371 206Q376 204 376 189Z" />
<glyph unicode="?" glyph-name="question" horiz-adv-x="295" d="M119 210T109 240T98 295L99 305Q104 336 121 358T170 406Q196 428 211 444T236 483T247 540Q247 568 239 586T211 605Q184 605 180 565Q178 540 167 522T126 504Q104 504 93 516T81 546Q81 584
122 604T219 625Q276 625 310 601T344 529Q344 521 342 505Q336 475 321 452T290 414T242 372Q196 337 176 311T151 249Q150 242 150 227Q150 210 153 192Q154 188 147 185T138 186Q119 210 109 240ZM96 -8T81 7T65 49Q65 74 80 88T122 103Q148 103 162 89T177
49Q177 22 163 7T122 -8Q96 -8 81 7Z" />
<glyph unicode="@" glyph-name="at" horiz-adv-x="729" d="M399 56T399 113Q399 127 404 147L406 155Q372 109 333 82T261 54Q236 54 220 70T203 120Q203 127 205 143Q213 197 247 247T327 328T415 360Q430 360 443 354T465 336Q478 341 487 349T499 367Q501 369
506 369Q510 369 513 368T517 366L476 142Q474 134 474 119Q474 82 511 82Q534 82 559 99T602 152T619 236Q619 303 587 359T497 447T370 480Q294 480 239 443T154 341T124 201Q124 119 158 58T254 -37T399 -71Q446 -71 485 -60T566 -20H567Q570 -20 572 -23T572
-28Q520 -72 469 -89T363 -106Q278 -106 210 -73T102 24T62 175Q62 270 109 345T236 461T405 503Q485 503 546 471T640 385T674 268Q674 210 646 162T570 85T464 56Q399 56 399 113ZM330 118T354 141T400 202T428 275Q430 289 430 295Q430 314 424 325T405 337Q369
337 338 294T294 194Q288 168 288 154Q288 118 311 118Q330 118 354 141Z" />
<glyph unicode="A" glyph-name="A" horiz-adv-x="605" d="M577 12T577 6T573 0Q557 0 523 2Q485 4 462 4Q440 4 404 2Q372 0 356 0Q352 0 352 6T356 12Q386 12 399 21T412 52Q412 68 408 84L365 295H221L130 129Q104 82 104 56Q104 33 123 23T181 12Q185 12 185
6T180 0Q167 0 129 2Q83 4 58 4Q37 4 9 2Q-19 0 -34 0Q-38 0 -38 6T-34 12Q-6 12 32 44T103 136L382 634Q384 637 390 637Q393 637 396 636T400 633L509 84Q515 51 519 38T536 19T573 12Q577 12 577 6ZM237 323H360L327 487L237 323Z" />
<glyph unicode="B" glyph-name="B" horiz-adv-x="561" d="M444 340T483 302T523 207Q523 192 520 175Q510 125 473 84T379 20T260 -4Q233 -4 200 -1Q187 0 170 1T131 2L63 1Q45 0 15 0Q13 0 13 6T15 12Q54 12 70 26T95 84L177 547Q180 565 180 576Q180 599 168
606T125 613Q122 613 122 617Q122 620 123 622T125 625L173 624Q213 622 237 622Q264 622 291 625Q300 626 318 627T350 628Q434 628 479 600T525 520Q525 508 522 494Q512 448 474 411T373 350Q444 340 483 302ZM308 608T295 592T275 538L242 352L277 351Q333
351 372 392T425 496Q429 513 429 530Q429 569 405 588T335 608Q308 608 295 592ZM419 189T419 211Q419 265 386 294T285 324Q257 324 236 322L193 77Q190 62 190 51Q190 33 201 26T244 18Q316 18 357 55T413 163Q419 189 419 211Z" />
<glyph unicode="C" glyph-name="C" horiz-adv-x="588" d="M181 -12T117 60T53 241Q53 273 60 313Q78 412 135 485T271 597T436 636Q476 636 518 628T585 607Q591 603 592 599T593 584L577 450Q577 447 572 447T566 450Q549 525 505 567T395 609Q308 609 249 539T172
346Q166 304 166 264Q166 191 185 133T240 42T326 8Q376 8 428 45T538 160Q539 162 542 162Q545 162 547 161T549 157L522 42Q519 30 516 26T504 19Q414 -12 320 -12Q181 -12 117 60Z" />
<glyph unicode="D" glyph-name="D" horiz-adv-x="636" d="M227 -4T195 -1Q183 0 165 1T124 2L58 1Q42 0 13 0Q10 0 10 6T13 12Q41 12 54 17T75 36T88 81L170 544Q174 570 174 577Q174 598 162 605T120 613Q118 613 118 619T120 625L167 624Q207 622 233 622Q261
622 291 625Q331 627 349 627Q433 627 496 597T592 511T626 382Q626 349 621 323Q604 227 548 153T412 37T251 -4Q227 -4 195 -1ZM343 16T413 91T508 301Q515 340 515 385Q515 482 473 544T340 607Q304 607 289 593T268 542L188 92Q185 76 185 64Q185 39 199 28T247
16Q343 16 413 91Z" />
<glyph unicode="E" glyph-name="E" horiz-adv-x="531" d="M527 625T525 616L504 482Q504 479 500 479Q497 479 495 480T492 483Q488 538 453 571T363 604H345Q316 604 303 600T285 583T274 543L238 339H351Q397 339 421 356T455 415Q456 420 462 420T467 414Q463
386 455 352Q455 348 450 325Q447 307 443 278Q441 267 439 253T434 222Q433 218 427 218T422 223Q424 237 424 243Q424 276 403 293T344 311H233L193 85Q190 67 190 55Q190 35 201 28T241 21H267Q325 21 381 58T474 159Q475 162 481 161T485 157Q469 105 451 15Q449
6 446 3T435 0H20Q17 0 17 6T20 12Q48 12 61 17T81 36T94 81L175 544Q179 563 179 578Q179 599 168 606T126 613Q124 613 124 619T126 625H519Q527 625 525 616Z" />
<glyph unicode="F" glyph-name="F" horiz-adv-x="485" d="M524 625T522 616L514 565L501 482Q500 479 496 479Q494 479 492 480T489 483Q484 539 449 571T359 604H342Q313 604 300 600T282 583T270 543L232 327H324Q369 327 394 345T428 404Q428 407 434 407Q436
407 438 406T440 402Q436 374 428 340Q428 336 423 313L419 287Q415 258 407 211Q406 207 400 207T395 212Q397 226 397 232Q397 265 376 282T317 299H227L189 85Q186 69 186 58Q186 31 204 22T273 12Q275 12 275 6T273 0Q252 0 237 1L124 2L60 1Q44 0 15 0Q13
0 13 6T15 12Q43 12 57 17T78 36T90 81L172 544Q176 570 176 577Q176 598 164 605T123 613Q120 613 120 619T123 625H516Q524 625 522 616Z" />
<glyph unicode="G" glyph-name="G" horiz-adv-x="633" d="M242 -12T180 21T86 112T54 247Q54 284 61 319Q78 411 134 483T272 595T447 636Q490 636 532 628T599 607Q605 603 606 599T607 584L591 450Q590 447 586 447T580 450Q562 526 518 568T405 611Q315 611
254 543T174 356Q167 313 167 267Q167 147 219 78T363 9Q412 9 434 34T464 126Q469 163 469 179Q469 203 461 214T434 229T377 233Q375 233 374 235T372 241Q372 244 373 246T377 249Q452 244 500 244Q547 244 598 247Q601 247 601 240T598 233Q585 234 579 227T568
190T557 116Q551 77 550 56T547 28Q546 22 544 20T536 16Q417 -12 330 -12Q242 -12 180 21Z" />
<glyph unicode="H" glyph-name="H" horiz-adv-x="675" d="M704 625T704 619T702 613Q675 613 662 608T641 588T628 544L546 81Q543 62 543 49Q543 27 554 20T596 12Q599 12 599 6T596 0Q571 0 555 1L487 2L421 1Q404 0 374 0Q372 0 372 6T374 12Q402 12 415 17T435
36T448 81L488 311H227L186 81Q182 62 182 47Q182 26 193 19T235 12Q238 12 238 6T235 0Q206 0 189 1L122 2L58 1Q42 0 13 0Q10 0 10 6T13 12Q41 12 54 17T75 36T88 81L170 544Q174 570 174 576Q174 597 162 605T120 613Q118 613 118 619T120 625L165 624Q205 622
229 622Q253 622 295 624L342 625Q344 625 344 619T342 613Q315 613 301 607T280 587T268 542L232 339H493L529 542Q532 562 532 575Q532 597 521 605T481 613Q478 613 478 619T481 625L526 624Q566 622 591 622Q616 622 656 624L702 625Q704 625 704 619Z" />
<glyph unicode="I" glyph-name="I" horiz-adv-x="336" d="M22 0T22 6T25 12Q52 12 65 17T86 36T98 81L180 544Q184 561 184 577Q184 598 172 605T130 613Q127 613 127 619T130 625L176 624Q216 622 240 622Q270 622 310 624L353 625Q356 625 356 619T353 613Q326
613 312 607T292 587T280 542L198 81Q194 62 194 47Q194 26 206 19T248 12Q250 12 250 6T248 0Q220 0 203 1L136 2L71 1Q54 0 25 0Q22 0 22 6Z" />
<glyph unicode="J" glyph-name="J" horiz-adv-x="317" d="M-27 -194T-30 -189T-30 -182Q15 -155 41 -101T83 40L172 544Q175 564 175 576Q175 598 164 605T122 613Q119 613 119 619T122 625L167 624Q207 622 232 622Q261 622 301 624L345 625Q348 625 348 619T345
613Q318 613 304 607T284 587T271 542L187 67Q173 -11 148 -59T82 -138T-25 -193Q-27 -194 -30 -189Z" />
<glyph unicode="K" glyph-name="K" horiz-adv-x="625" d="M661 625T661 619T658 613Q618 613 566 588T464 518L343 406L437 216Q488 115 510 77T548 25T589 12Q592 12 592 6T589 0H495Q442 0 430 6T396 64T353 160L266 335L224 296L186 81Q180 45 180 39Q180 23
191 18T235 12Q238 12 238 6T235 0Q205 0 190 1L122 2L58 1Q42 0 13 0Q10 0 10 6T13 12Q41 12 54 17T75 36T88 81L170 544Q174 570 174 577Q174 598 162 605T120 613Q118 613 118 619T120 625L165 624Q205 622 229 622Q253 622 295 624L342 625Q344 625 344 619T342
613Q315 613 301 607T280 587T268 542L230 328L439 524Q455 538 463 553T471 581Q471 596 461 604T430 613Q428 613 428 619T430 625L479 624Q531 622 560 622Q590 622 624 624L658 625Q661 625 661 619Z" />
<glyph unicode="L" glyph-name="L" horiz-adv-x="505" d="M12 0T12 6T14 12Q42 12 55 17T75 36T88 81L170 544Q174 570 174 577Q174 598 162 605T120 613Q118 613 118 619T120 625L165 624Q205 622 229 622Q253 622 295 624L342 625Q344 625 344 619T342 613Q314
613 301 608T280 588T268 543L187 85Q184 66 184 53Q184 34 192 28T223 21H249Q323 21 379 57T480 171Q481 172 484 172Q492 172 491 168Q466 75 456 15Q454 7 451 4T440 0H14Q12 0 12 6Z" />
<glyph unicode="M" glyph-name="M" horiz-adv-x="742" d="M772 625T772 619T770 613Q738 613 723 600T702 546L633 81Q630 63 630 50Q630 27 641 20T683 12Q686 12 686 6T683 0Q655 0 638 1L572 2L507 1Q490 0 461 0Q458 0 458 6T461 12Q489 12 503 17T523 36T535
81L606 557L335 7Q333 3 328 3Q322 3 320 8L210 533L137 130Q133 110 133 89Q133 52 147 32T189 12Q192 12 192 6T189 0Q166 0 153 1L99 2L52 1Q39 0 13 0Q10 0 10 6T13 12Q47 12 73 43T109 127L193 578Q171 613 122 613Q119 613 119 619T122 625Q137 625 146 624L186
623L245 624Q256 625 270 625Q281 625 287 615T301 573L388 160L602 600Q607 611 617 618T639 625Q653 625 662 624L704 623L743 624Q752 625 770 625Q772 625 772 619Z" />
<glyph unicode="N" glyph-name="N" horiz-adv-x="655" d="M712 625T712 619T710 613Q672 613 645 585T608 509L516 -7Q516 -10 511 -12T499 -15Q490 -15 487 -9L199 517L127 116Q125 106 125 88Q125 52 143 32T193 12Q195 12 195 6T193 0Q167 0 153 1L96 2L42
1Q27 0 -2 0Q-5 0 -5 6T-2 12Q36 12 63 40T99 116L178 554Q159 587 141 600T102 613Q99 613 99 619T102 625L149 624Q164 623 189 623Q213 623 230 624T254 625Q260 625 263 622T270 607Q272 603 276 594T287 573L516 156L580 509Q583 526 583 539Q583 574 565
593T515 613Q512 613 512 619T515 625L551 624Q587 622 612 622Q630 622 666 624L710 625Q712 625 712 619Z" />
<glyph unicode="O" glyph-name="O" horiz-adv-x="655" d="M210 -12T159 20T80 110T53 239Q53 269 60 313Q76 405 126 478T252 594T411 636Q483 636 535 604T616 516T644 386Q644 348 637 313Q620 215 566 141T437 28T281 -12Q210 -12 159 20ZM395 14T449 80T523
260Q531 304 531 357Q531 468 489 540T372 612Q300 612 246 546T173 366Q165 313 165 270Q165 160 206 87T324 14Q395 14 449 80Z" />
<glyph unicode="P" glyph-name="P" horiz-adv-x="532" d="M13 0T13 6T15 12Q43 12 57 17T78 36T90 81L172 544Q176 570 176 577Q176 599 165 606T123 613Q120 613 120 619T123 625L167 624Q207 622 232 622Q252 622 280 625Q349 628 352 628Q438 628 489 593T541
489Q541 473 538 453Q526 390 486 347T393 283T291 262Q266 262 250 267Q249 267 249 270Q249 275 251 281T256 287Q268 283 285 283Q337 283 377 320T428 433Q432 463 432 476Q432 537 404 572T333 607Q301 607 289 595T269 542L188 81Q184 55 184 48Q184 26 195
19T237 12Q240 12 240 6T237 0Q208 0 191 1L124 2L60 1Q44 0 15 0Q13 0 13 6Z" />
<glyph unicode="Q" glyph-name="Q" horiz-adv-x="655" d="M700 -173T701 -178T701 -185Q658 -200 627 -200Q553 -200 485 -149T364 -1Q322 -12 281 -12Q210 -12 159 20T80 110T53 239Q53 269 60 313Q76 405 126 478T252 594T411 636Q483 636 535 604T616 516T644
386Q644 348 637 313Q621 223 574 153T458 40Q480 -21 518 -71T597 -149T665 -178Q684 -178 697 -174Q700 -173 701 -178ZM165 313T165 270Q165 160 206 87T324 14Q395 14 449 80T523 260Q531 304 531 357Q531 468 489 540T372 612Q300 612 246 546T173 366Q165
313 165 270Z" />
<glyph unicode="R" glyph-name="R" horiz-adv-x="635" d="M614 12T614 6T611 0H460Q438 0 399 80T311 323Q284 316 253 316Q247 316 241 318L199 81Q195 62 195 47Q195 26 207 19T250 12Q254 12 254 6T251 0Q220 0 203 1L136 2L67 1Q50 0 19 0Q15 0 15 6T19 12Q49
12 64 17T87 37T101 81L182 544Q186 563 186 578Q186 599 174 606T130 613Q126 613 126 619T130 625L178 624Q218 622 244 622Q261 622 275 623T301 625Q330 628 351 628Q432 628 473 603T515 530Q515 517 512 503Q502 459 470 420T390 353Q439 224 475 151T544
45T611 12Q614 12 614 6ZM258 343T273 343Q333 343 364 372T405 469Q409 501 409 513Q409 562 391 584T342 607Q318 607 308 604T293 588T281 542L246 346Q258 343 273 343Z" />
<glyph unicode="S" glyph-name="S" horiz-adv-x="470" d="M111 -12T39 22Q29 29 33 41L65 182Q65 187 70 187T77 182Q114 12 219 12Q268 12 298 46T329 138Q329 186 302 221T222 296Q184 325 162 345T125 392T110 452Q110 466 113 481Q129 556 192 596T336 636Q395
636 454 612Q468 605 465 595L450 465Q449 462 445 462T439 465Q423 535 388 575T309 615Q275 615 253 597T221 553T211 503Q211 473 225 449T258 408T315 360Q374 314 405 276T436 186Q436 169 434 160Q420 84 357 36T192 -12Q111 -12 39 22Z" />
<glyph unicode="T" glyph-name="T" horiz-adv-x="553" d="M111 0T111 6T113 12Q150 12 168 17T196 36T211 81L292 544Q296 568 296 574Q296 590 288 596T261 602H249Q218 602 184 581T123 524T84 446Q83 443 78 444T73 448Q81 477 97 544T120 647Q121 650 127
650T132 646Q129 625 171 625Q245 622 354 622Q405 622 467 624L530 625Q560 625 575 630T596 650Q598 653 603 653T607 648Q598 616 583 545T564 448Q563 444 557 444T552 449Q555 466 555 481Q555 533 526 567T451 602H440Q414 602 406 591T391 542L310 81Q306
57 306 50Q306 27 322 20T384 12Q386 12 386 6T384 0Q349 0 329 1L248 2L170 1Q150 0 113 0Q111 0 111 6Z" />
<glyph unicode="U" glyph-name="U" horiz-adv-x="620" d="M562 519T562 535Q562 572 545 592T496 613Q493 613 493 619T496 625L540 624Q574 622 594 622Q614 622 646 624L684 625Q688 625 688 619T684 613Q648 613 623 581T588 494L535 192Q518 97 447 42T277
-14Q186 -14 133 32T80 158Q80 181 84 201L146 547Q150 573 150 580Q150 600 138 606T95 613Q92 613 92 619T94 625L143 624Q183 622 207 622Q235 622 279 624L323 625Q325 625 325 619T323 613Q282 613 267 598T244 538L189 229Q183 192 183 162Q183 91 216 57T313
23Q389 23 440 69T505 198L559 501Q562 519 562 535Z" />
<glyph unicode="V" glyph-name="V" horiz-adv-x="599" d="M679 625T679 619T675 613Q641 613 613 592T551 506L288 1Q285 -4 275 -4Q263 -4 261 1L130 542Q120 582 107 597T69 613Q66 613 66 619T69 625L117 624Q149 622 164 622Q199 622 243 624L288 625Q291
625 291 619T288 613Q260 613 245 604T230 573Q230 564 233 552L332 140L519 509Q534 539 534 560Q534 585 516 599T468 613Q465 613 465 619T468 625L515 624Q553 622 587 622Q606 622 632 624L675 625Q679 625 679 619Z" />
<glyph unicode="W" glyph-name="W" horiz-adv-x="833" d="M912 625T912 619T909 613Q875 613 847 592T785 506L522 1Q519 -4 509 -4Q497 -4 495 1L429 273L288 1Q285 -4 275 -4Q263 -4 261 1L130 542Q120 582 107 597T69 613Q66 613 66 619T69 625L117 624Q149
622 164 622Q194 622 228 624L264 625Q268 625 268 619T264 613Q248 613 237 604T226 574Q226 564 229 552L330 136L420 312L364 542Q354 583 344 598T315 613Q312 613 312 619T315 625L356 624Q384 622 398 622Q421 622 447 624L475 625Q479 625 479 619T475 613Q464
613 460 610T456 596Q456 581 463 552L494 424L537 509Q563 561 563 586Q563 613 532 613Q530 613 530 619T532 625L560 624Q586 622 605 622Q620 622 642 624L677 625Q681 625 681 619T677 613Q658 613 643 606T610 575T568 506L504 382L563 135L753 509Q769 540
769 566Q769 588 757 600T722 613Q719 613 719 619T722 625L761 624Q793 622 821 622Q840 622 866 624L909 625Q912 625 912 619Z" />
<glyph unicode="X" glyph-name="X" horiz-adv-x="580" d="M632 625T632 619T627 613Q595 613 554 586T469 502L352 353L455 83Q470 44 488 28T538 12Q542 12 542 6T538 0Q512 0 498 1L444 2L366 1Q345 0 313 0Q309 0 309 6T313 12Q331 12 346 19T361 41Q361 43
359 51L276 270L146 103Q118 68 118 45Q118 12 175 12Q179 12 179 6T175 0Q144 0 123 1L46 2L6 1Q-7 0 -32 0Q-36 0 -36 6T-32 12Q0 12 41 39T126 123L265 298L172 542Q158 580 141 596T99 613Q96 613 96 619T99 625Q111 625 137 623L173 622Q203 622 251 624L301
625Q304 625 304 619T301 613Q287 613 276 606T265 586Q265 581 268 573L341 382L449 522Q478 560 478 581Q478 597 462 605T420 613Q416 613 416 619T420 625L471 624Q523 622 550 622Q564 622 590 624L627 625Q632 625 632 619Z" />
<glyph unicode="Y" glyph-name="Y" horiz-adv-x="535" d="M608 625T608 619T605 613Q542 613 469 504L343 313L302 81Q298 62 298 47Q298 26 311 19T363 12Q366 12 366 6T363 0Q331 0 313 1L241 2L167 1Q149 0 117 0Q113 0 113 6T117 12Q150 12 166 17T190 36T204
81L241 301L139 542Q123 579 107 596T70 613Q66 613 66 619T70 625L117 624Q151 622 167 622Q190 622 236 624L282 625Q286 625 286 619T282 613Q256 613 245 609T233 592Q233 582 237 573L333 343L450 526Q467 552 467 573Q467 591 455 602T420 613Q416 613 416
619T420 625L469 624Q513 622 538 622Q553 622 573 624L605 625Q608 625 608 619Z" />
<glyph unicode="Z" glyph-name="Z" horiz-adv-x="557" d="M332 0T6 0Q2 0 1 4T2 13L469 600Q474 605 474 606T467 608Q356 608 296 597T195 557T112 465L108 463Q105 463 103 465T102 469L175 655Q176 656 179 656Q182 656 185 655T187 651Q185 646 185 639Q185
630 194 628T232 625H586Q590 625 591 620T591 612L129 27Q125 22 125 21T131 19H233Q335 19 397 48T510 154Q512 158 517 157T522 152L483 8Q483 5 480 2T474 -2Q332 0 6 0Z" />
<glyph unicode="[" glyph-name="bracketleft" horiz-adv-x="253" d="M9 -117T8 -115T8 -106L153 715Q154 722 156 723T163 725H318Q322 725 322 719T318 713Q285 713 269 707T244 687T230 642L111 -34Q108 -52 108 -65Q108 -88 122 -96T172 -105Q177 -105 177
-111T172 -117H14Q9 -117 8 -115Z" />
<glyph unicode="\" glyph-name="backslash" horiz-adv-x="305" d="M110 723Q109 727 119 730T140 733Q153 733 153 729L226 -158Q227 -162 217 -164T196 -167Q183 -167 182 -163L110 723Z" />
<glyph unicode="]" glyph-name="bracketright" horiz-adv-x="251" d="M282 725T283 723T283 714L138 -107Q137 -114 135 -115T128 -117H-27Q-31 -117 -31 -111T-27 -105Q6 -105 22 -99T47 -79T61 -34L180 642Q183 660 183 673Q183 696 169 704T119 713Q115 713
115 719T119 725H277Q282 725 283 723Z" />
<glyph unicode="^" glyph-name="asciicircum" horiz-adv-x="353" d="M95 374T93 374Q90 374 87 376T85 380L243 629Q246 634 254 634Q263 634 263 629L333 380Q333 378 329 376T323 377L228 488L96 375Q95 374 93 374Z" />
<glyph unicode="_" glyph-name="underscore" horiz-adv-x="363" d="M-9 -80T-10 -72T-12 -55Q-12 -47 -11 -40T-8 -33H311Q313 -33 314 -40T316 -57Q316 -65 315 -72T311 -80H-7Q-9 -80 -10 -72Z" />
<glyph unicode="`" glyph-name="grave" horiz-adv-x="166" d="M111 727Q110 734 133 734Q155 734 180 728T205 716L181 476Q181 474 177 473T172 475L111 727Z" />
<glyph unicode="a" glyph-name="a" horiz-adv-x="444" d="M416 78T418 78Q421 78 423 75T423 69Q359 -9 311 -9Q285 -9 273 5T261 51Q261 68 264 89L276 157Q238 77 186 32T83 -13Q52 -13 34 6T16 63Q16 130 60 209T170 344T294 399Q312 399 331 393T365 373Q384
387 396 407Q398 409 400 409Q403 409 406 407T408 404L350 89Q347 76 347 66Q347 42 361 42Q380 42 415 77Q416 78 418 78ZM177 60T208 91T263 168T294 253Q297 270 297 283Q297 315 283 332T242 350Q196 350 161 301T111 172Q106 140 106 124Q106 91 117 76T147
60Q177 60 208 91Z" />
<glyph unicode="b" glyph-name="b" horiz-adv-x="451" d="M391 399T413 370T435 290Q435 272 432 251Q417 170 370 110T264 19T154 -13Q101 -13 72 8T42 68Q42 75 44 87L136 589Q139 609 139 622Q139 651 120 651Q108 651 78 637H77Q73 637 72 642T74 649L229
725H231Q235 725 238 722T241 717L155 233Q190 308 242 353T352 399Q391 399 413 370ZM338 241T338 267Q338 297 328 314T295 332Q240 332 195 267T131 96Q130 91 130 80Q130 52 147 34T191 15Q221 15 250 39T301 110T333 220Q338 241 338 267Z" />
<glyph unicode="c" glyph-name="c" horiz-adv-x="347" d="M90 -13T57 32T24 147Q24 172 29 202Q39 260 74 305T158 374T253 399Q290 399 318 383T347 337Q347 314 334 301T296 287Q272 287 261 299T246 332Q241 351 234 361T209 371Q179 371 156 335T123 237Q117
204 117 174Q117 111 143 74T221 36Q241 36 267 45T309 67H310Q313 67 316 64T317 58Q281 23 240 5T160 -13Q90 -13 57 32Z" />
<glyph unicode="d" glyph-name="d" horiz-adv-x="450" d="M363 89Q360 74 360 65Q360 42 375 42Q385 42 397 51T428 77Q430 79 432 79Q435 79 437 76T436 69Q402 29 376 10T322 -9Q274 -9 274 48Q274 68 278 89L291 158Q250 77 204 32T108 -13Q70 -13 45 11T19
86Q19 106 23 126Q36 196 80 259T182 360T294 399Q317 399 334 392L370 589Q373 609 373 622Q373 651 354 651Q342 651 312 637H311Q306 637 305 642T308 649L463 725H465Q469 725 472 722T475 717L363 89ZM190 57T220 87T273 160T306 243L311 270Q315 308 293
329T237 350Q139 350 111 180Q107 156 107 131Q107 57 158 57Q190 57 220 87Z" />
<glyph unicode="e" glyph-name="e" horiz-adv-x="357" d="M308 399T329 386T350 350Q350 305 284 266T123 208Q120 186 120 165Q120 105 145 69T219 32Q240 32 264 39T309 63H310Q313 63 315 60T316 55Q280 20 240 4T160 -12Q91 -12 57 30T22 136Q22 158 27 185Q37
239 71 288T158 368T270 399Q308 399 329 386ZM250 328T250 336Q250 353 242 362T218 372Q186 372 162 331T125 224Q240 254 249 324Q250 328 250 336Z" />
<glyph unicode="f" glyph-name="f" horiz-adv-x="268" d="M365 726T389 712T413 675Q413 653 399 640T364 627Q336 627 327 640T314 675Q311 690 307 697T292 705Q260 705 238 641T195 439L186 380Q226 382 243 384L281 386Q285 386 287 382T288 374Q285 364 275
352T256 339Q254 339 232 342T182 349L127 -21Q113 -118 93 -173T42 -251T-35 -275Q-76 -275 -100 -261T-124 -224Q-124 -202 -111 -190T-78 -178Q-54 -178 -46 -190T-33 -225Q-30 -241 -27 -248T-13 -255Q-3 -255 3 -240T17 -184T39 -47L90 306Q92 317 92 332Q92
350 82 354T41 359Q38 359 38 366Q38 375 41 375Q74 375 88 384T106 418Q126 541 152 606T219 699T324 726Q365 726 389 712Z" />
<glyph unicode="g" glyph-name="g" horiz-adv-x="388" d="M399 396T399 380Q399 363 395 345T386 330Q354 352 312 354Q335 325 335 282Q335 262 331 246Q317 179 266 139T154 98Q141 98 135 99Q129 87 129 80Q126 55 146 39T213 -1Q252 -20 275 -34T316 -72T333
-127Q333 -173 302 -208T220 -262T110 -281Q37 -281 -5 -253T-47 -181Q-47 -141 -12 -107T88 -37Q52 -13 52 14Q52 35 69 56T118 103Q83 113 64 142T45 211Q45 222 49 246Q61 309 111 350T225 392Q268 392 295 371Q348 396 394 396Q399 396 399 380ZM246 257T246
269Q246 311 235 341T201 371Q179 371 160 337T136 253Q134 229 134 219Q134 175 147 148T180 120Q202 120 220 152T244 237Q246 257 246 269ZM251 -137T223 -114T142 -65Q120 -56 102 -45Q43 -92 43 -151Q43 -194 77 -222T161 -250Q207 -250 229 -228T251 -174Q251
-137 223 -114Z" />
<glyph unicode="h" glyph-name="h" horiz-adv-x="455" d="M428 79T429 79Q432 79 434 76T434 69Q400 29 374 10T319 -9Q271 -9 271 47Q271 62 276 89L305 248Q310 276 310 293Q310 342 278 342Q250 342 221 307T165 202T120 37L116 12Q111 -8 60 -8Q27 -8 27 0L31
21Q41 68 42 74L136 589Q139 609 139 622Q139 651 120 651Q108 651 78 637H77Q73 637 72 642T74 649L229 725H231Q235 725 238 722T241 717L153 220Q187 305 232 352T329 399Q398 399 398 316Q398 297 393 267L360 89Q357 74 357 65Q357 42 373 42Q383 42 395 51T426
77Q428 79 429 79Z" />
<glyph unicode="i" glyph-name="i" horiz-adv-x="247" d="M58 -9T58 47Q58 62 63 89L104 297Q107 311 107 320Q107 333 102 339T89 346Q68 346 32 306Q31 305 29 305Q25 305 23 308T23 315Q59 357 88 376T145 395Q193 395 193 343Q193 326 189 309L147 89Q145
80 145 66Q145 42 160 42Q170 42 182 51T213 77Q215 79 217 79Q220 79 222 76T221 69Q187 29 161 10T106 -9Q58 -9 58 47ZM147 499T132 514T116 557Q116 581 131 596T173 611Q199 611 213 596T228 557Q228 529 214 514T173 499Q147 499 132 514Z" />
<glyph unicode="j" glyph-name="j" horiz-adv-x="249" d="M-62 -275T-86 -261T-110 -224Q-110 -202 -97 -190T-64 -178Q-40 -178 -32 -190T-19 -225Q-16 -241 -13 -248T1 -255Q11 -255 17 -241T31 -184T51 -76L56 -47L117 297Q119 306 119 319Q119 346 102 346Q81
346 44 306Q43 305 41 305Q38 305 36 308T36 315Q72 357 100 376T158 395Q205 395 205 342Q205 327 202 309L145 -21Q128 -117 107 -171T56 -250T-21 -275Q-62 -275 -86 -261ZM163 499T148 514T132 557Q132 581 147 596T189 611Q215 611 229 596T244 557Q244 529
230 514T189 499Q163 499 148 514Z" />
<glyph unicode="k" glyph-name="k" horiz-adv-x="412" d="M415 76T417 76Q421 76 423 73T422 67Q356 -9 317 -9Q291 -9 272 5T228 58L170 154Q163 166 158 171T145 177L116 12Q111 -8 60 -8Q27 -8 27 0L31 21Q41 68 42 74L136 589Q139 609 139 622Q139 651 120
651Q108 651 78 637H77Q73 637 72 642T74 649L229 725H231Q235 725 238 723T241 717L172 329Q208 362 249 380T331 399Q373 399 387 381T398 339Q392 302 350 266T235 203L298 102Q318 70 331 60T360 49Q382 49 414 75Q415 76 417 76ZM227 356T195 315T150 205L149
197Q226 215 260 244T295 319Q295 356 267 356Q227 356 195 315Z" />
<glyph unicode="l" glyph-name="l" horiz-adv-x="247" d="M46 -9T46 48Q46 68 50 89L142 589Q145 609 145 622Q145 651 126 651Q114 651 84 637H83Q78 637 77 642T80 649L235 725H237Q241 725 244 722T247 717L135 89Q132 74 132 64Q132 42 147 42Q157 42 169
51T200 77Q202 79 204 79Q207 79 209 76T208 69Q174 29 148 10T94 -9Q46 -9 46 48Z" />
<glyph unicode="m" glyph-name="m" horiz-adv-x="685" d="M658 79T660 79Q663 79 665 76T664 69Q630 29 604 10T550 -9Q502 -9 502 48Q502 68 506 89L536 248Q541 278 541 294Q541 342 512 342Q488 342 461 310T409 212T366 56L358 12Q356 3 342 -2T302 -8Q269
-8 269 0L273 21Q283 68 284 74L317 250Q322 278 322 293Q322 318 314 330T290 342Q265 342 237 307T184 204T142 45L136 12Q131 -8 80 -8Q47 -8 47 0L51 21Q61 68 62 74L103 297Q105 306 105 319Q105 346 88 346Q67 346 30 306Q29 305 27 305Q24 305 22 308T22
315Q58 357 86 376T144 395Q191 395 191 342Q191 327 188 309L173 225Q206 308 250 353T343 399Q375 399 392 379T409 317Q409 299 404 269L397 228Q430 310 473 354T564 399Q628 399 628 318Q628 291 623 267L591 89Q588 74 588 65Q588 42 604 42Q614 42 625 50T656
77Q658 79 660 79Z" />
<glyph unicode="n" glyph-name="n" horiz-adv-x="475" d="M448 79T449 79Q452 79 454 76T454 69Q420 29 394 10T339 -9Q291 -9 291 47Q291 62 296 89L325 248Q330 276 330 293Q330 342 298 342Q270 342 240 306T184 199T139 31L136 12Q131 -8 80 -8Q47 -8 47 0L51
21Q61 68 62 74L103 297Q105 306 105 319Q105 346 88 346Q67 346 30 306Q29 305 27 305Q24 305 22 308T22 315Q58 357 86 376T144 395Q191 395 191 342Q191 327 188 309L172 218Q207 305 252 352T349 399Q418 399 418 316Q418 297 413 267L380 89Q377 74 377 65Q377
42 393 42Q403 42 415 51T446 77Q448 79 449 79Z" />
<glyph unicode="o" glyph-name="o" horiz-adv-x="408" d="M92 -14T58 28T23 139Q23 169 28 193Q39 253 71 300T150 373T249 399Q316 399 351 359T387 250Q387 223 381 193Q368 127 334 81T253 10T158 -14Q92 -14 58 28ZM224 11T247 48T282 149Q289 188 289 228Q289
293 270 334T216 375Q186 375 163 340T127 236Q120 197 120 157Q120 92 139 52T192 11Q224 11 247 48Z" />
<glyph unicode="p" glyph-name="p" horiz-adv-x="405" d="M337 393T363 366T390 288Q390 271 387 253Q377 186 341 128T252 34T145 -1Q129 -1 105 1L73 -178Q69 -202 69 -207Q69 -222 76 -228T99 -235Q104 -235 120 -233Q124 -233 125 -238T123 -244L-67 -275Q-70
-276 -71 -270T-69 -263Q-49 -258 -40 -252T-26 -231T-15 -185L71 294Q50 282 20 260Q19 259 17 259Q13 259 11 263T13 270Q53 302 74 316L87 386Q87 388 104 398Q132 415 151 430T175 464Q176 468 181 467T186 462L169 367Q229 393 285 393Q337 393 363 366ZM299
238T299 247Q299 290 280 317T216 344Q189 344 164 337L112 43Q145 29 182 29Q230 29 258 80T297 220Q299 238 299 247Z" />
<glyph unicode="q" glyph-name="q" horiz-adv-x="421" d="M304 -178Q301 -193 301 -204Q301 -223 310 -232T342 -241Q348 -241 364 -239H365Q368 -239 369 -244T366 -250L158 -275Q154 -275 153 -270T156 -263Q180 -259 190 -253T207 -233T219 -185L273 124Q238
59 190 23T97 -13Q60 -13 39 8T18 73Q18 92 20 103Q30 180 70 248T170 357T296 399Q315 399 334 393T367 374Q384 385 399 407Q401 409 403 409Q406 409 409 407T411 404L304 -178ZM208 60T244 111T292 232Q296 255 296 277Q296 314 280 332T229 350Q186 350 155
309T112 177Q109 144 109 137Q109 60 159 60Q208 60 244 111Z" />
<glyph unicode="r" glyph-name="r" horiz-adv-x="356" d="M323 395T346 376T366 333Q364 318 352 305T322 292Q304 292 283 309Q276 314 269 318T255 322Q238 322 213 269T166 143T133 13V12Q131 3 117 -2T77 -8Q44 -8 44 0Q45 7 50 30T60 74L101 297Q103 313
103 318Q103 346 85 346Q65 346 28 306Q27 305 25 305Q21 305 19 308T20 315Q56 357 84 376T142 395Q167 395 178 382T189 342Q189 327 186 309L166 199Q225 395 297 395Q323 395 346 376Z" />
<glyph unicode="s" glyph-name="s" horiz-adv-x="316" d="M65 -11T35 8T5 54Q5 77 18 89T50 102Q67 102 77 93T100 64Q113 43 124 33T156 23Q173 23 181 32T193 63Q194 67 194 75Q194 104 177 125T124 174Q88 204 71 225T53 277Q53 283 55 295Q60 320 80 343T133
381T204 396Q252 396 278 380T302 336Q299 317 286 306T257 295Q236 295 226 304T208 332Q199 350 190 359T161 368Q145 368 136 359T125 337Q124 333 124 325Q124 299 141 279T193 231Q231 200 249 178T267 125Q267 120 265 108Q260 81 239 54T184 8T108 -11Q65
-11 35 8Z" />
<glyph unicode="t" glyph-name="t" horiz-adv-x="301" d="M311 386T311 377Q311 369 300 353T278 337Q275 337 246 342T179 349L137 111Q135 95 135 89Q135 65 147 54T186 43Q224 43 270 80H271Q275 80 278 77T278 71Q232 27 197 8T126 -12Q45 -12 45 61Q45 76
48 94L87 306Q90 323 90 334Q90 349 82 354T53 359Q50 359 50 366Q50 375 53 375Q133 375 180 463Q182 466 187 466Q192 466 196 464T199 460L184 378Q212 379 232 380T266 383Q292 386 304 386Q311 386 311 377Z" />
<glyph unicode="u" glyph-name="u" horiz-adv-x="476" d="M447 81T449 81Q452 81 454 78T454 71Q418 29 390 10T332 -9Q285 -9 285 44Q285 59 288 77L304 168Q269 81 224 34T127 -13Q58 -13 58 69Q58 95 63 119L98 297Q101 312 101 321Q101 344 85 344Q75 344
64 336T33 309Q31 307 29 307Q26 307 24 310T25 317Q59 357 84 376T138 395Q187 395 187 338Q187 324 182 297L151 138Q146 116 146 93Q146 44 178 44Q206 44 236 80T292 187T337 355L340 374Q345 394 396 394Q413 394 421 392T429 386L425 365Q415 318 414 312L373
89Q371 80 371 67Q371 40 388 40Q409 40 446 80Q447 81 449 81Z" />
<glyph unicode="v" glyph-name="v" horiz-adv-x="448" d="M145 -13T115 20T85 100Q85 127 96 155T132 229Q153 270 159 282Q167 298 167 303Q167 310 156 310H108Q73 310 57 300T33 267Q31 263 27 263Q24 263 22 265T21 270Q37 317 49 341T79 376T126 387H219Q230
387 230 383Q230 380 227 375Q206 326 189 275T166 189Q164 178 164 159Q164 115 184 90T239 64Q267 64 294 81T340 128T365 199Q366 206 366 219Q366 243 358 259T332 296Q319 310 313 321T306 347Q306 371 321 383T361 396Q388 396 401 378T415 314Q415 287 413
270Q406 196 371 131T287 26T189 -13Q145 -13 115 20Z" />
<glyph unicode="w" glyph-name="w" horiz-adv-x="628" d="M567 396T580 378T594 314Q594 287 592 270Q585 196 554 131T477 26T386 -13Q330 -13 302 48Q246 -13 189 -13Q144 -13 120 15T95 94Q95 111 98 130Q109 198 159 282Q168 296 168 303Q168 310 156 310H108Q73
310 57 300T33 267Q31 263 27 263Q24 263 22 265T21 270Q37 317 49 341T79 376T126 387H219Q230 387 230 383Q230 380 227 375Q206 326 189 275T166 189Q164 178 164 159Q164 115 184 90T239 64Q264 64 290 85Q283 116 283 160Q283 210 291 255Q304 326 325 359T377
392Q418 392 418 334Q418 317 415 294Q408 246 391 198T349 109Q382 64 435 64Q474 64 505 101T544 199Q545 206 545 219Q545 243 537 259T511 296Q498 310 492 321T485 347Q485 371 500 383T540 396Q567 396 580 378ZM312 246T312 227Q312 179 333 135Q354 167
367 203T381 267Q381 303 352 303Q339 303 330 294T315 262Q312 246 312 227Z" />
<glyph unicode="x" glyph-name="x" horiz-adv-x="430" d="M394 395T414 375T432 330Q430 315 418 304T387 292Q374 292 365 296T347 309Q340 316 335 319T323 322Q312 322 298 302L251 231L296 92Q305 64 316 56T343 47Q357 47 369 53T394 74Q395 75 397 75Q401
75 403 72T402 65Q364 26 335 8T280 -11Q253 -11 239 4T211 60L185 141L135 62Q106 16 91 3T54 -11Q28 -11 8 9T-9 55Q-7 70 5 81T35 92Q49 92 57 88T75 75Q80 70 86 67T99 63Q110 63 124 83L178 162L135 292Q126 320 115 329T88 338Q74 338 62 332T36 311Q35 310
33 310Q30 310 28 313T28 319Q65 358 94 376T151 395Q177 395 191 380T220 325L243 253L288 323Q316 368 331 381T368 395Q394 395 414 375Z" />
<glyph unicode="y" glyph-name="y" horiz-adv-x="453" d="M393 396T407 378T421 326Q421 252 340 103T155 -163T-15 -281Q-74 -281 -74 -234Q-74 -206 -59 -191T-15 -175Q0 -175 26 -187Q29 -188 41 -193T65 -198Q82 -198 99 -186Q125 -169 164 -118V-71Q164 124
137 231T63 339Q51 339 39 330T18 308Q17 305 12 305Q5 305 6 311Q23 347 58 371T122 395Q160 395 188 351T231 229T246 55Q246 17 245 -3Q284 59 312 112T347 191Q353 215 353 232Q353 253 347 266T330 296Q320 311 315 320T310 345Q310 368 326 382T368 396Q393
396 407 378Z" />
<glyph unicode="z" glyph-name="z" horiz-adv-x="344" d="M348 396Q351 396 356 392T359 385L103 99H105Q129 99 163 93T202 86Q260 76 275 76Q291 76 301 85T320 115Q321 116 324 116Q327 116 329 115T331 111Q317 60 307 36T284 3T253 -5Q229 -5 196 1T155 8Q93
21 56 22Q40 22 28 16T1 -7Q-1 -8 -7 -2T-12 6L245 290H243Q222 290 161 303Q111 313 97 313Q78 313 67 305T47 276Q46 273 42 273Q39 273 37 275T36 281Q53 336 64 359T87 388T125 394Q146 393 202 381Q261 369 291 367Q307 367 319 373T346 396H348Z" />
<glyph unicode="{" glyph-name="braceleft" horiz-adv-x="263" d="M130 -117T104 -110T67 -85T55 -32Q55 2 68 80Q85 174 85 215Q85 251 73 269T29 298Q27 298 27 304T29 311Q63 317 83 335T117 398T147 529Q162 615 181 656T233 711T325 725Q328 725 328 719T325
713Q271 713 254 607Q233 493 216 440T169 358T81 305Q135 285 156 261T177 195Q177 174 172 140T159 66L147 1Q143 -27 143 -38Q143 -70 153 -87T179 -105Q181 -105 181 -111T179 -117Q130 -117 104 -110Z" />
<glyph unicode="|" glyph-name="bar" horiz-adv-x="152" d="M36 -160T20 -160Q11 -160 3 -158T-5 -151L150 731Q151 736 167 736Q177 736 185 734T193 727L37 -154Q36 -160 20 -160Z" />
<glyph unicode="}" glyph-name="braceright" horiz-adv-x="264" d="M173 725T199 718T236 693T248 640Q248 606 235 528Q218 434 218 393Q218 357 230 339T274 310Q276 310 276 304T274 297Q240 291 220 273T186 210T156 79Q141 -7 122 -48T70 -103T-22 -117Q-25
-117 -25 -111T-22 -105Q32 -105 49 1Q70 115 87 168T134 250T222 303Q168 323 147 347T126 413Q126 434 131 468T144 542L156 607Q160 635 160 646Q160 678 150 695T124 713Q122 713 122 719T124 725Q173 725 199 718Z" />
<glyph unicode="~" glyph-name="asciitilde" horiz-adv-x="443" d="M43 142T41 142Q39 142 37 145T36 150Q77 204 100 222T153 240Q181 240 241 223Q248 221 276 215T320 208Q367 208 401 244L403 245Q405 245 407 242T408 237Q369 186 343 167T285 147Q267 147
240 154T206 162Q147 179 118 179Q92 179 78 171T43 143Q43 142 41 142Z" />
<glyph unicode="&#xa0;" glyph-name="uni00A0" horiz-adv-x="234" />
<glyph unicode="&#xa1;" glyph-name="exclamdown" horiz-adv-x="218" d="M161 362T176 347T192 305Q192 280 177 266T135 251Q109 251 95 265T80 305Q80 332 94 347T135 362Q161 362 176 347ZM113 168T118 168T123 162Q108 -55 105 -267Q105 -271 83 -275T39 -279Q15
-279 -6 -275T-25 -267Q44 -97 112 163Q113 168 118 168Z" />
<glyph unicode="&#xa2;" glyph-name="cent" horiz-adv-x="498" d="M475 445T477 442T478 430L464 327Q463 323 460 323T455 327Q444 381 414 416T342 457L262 9H263Q310 9 345 38T425 139Q427 142 431 142Q434 142 437 141T439 136L413 30Q412 27 411 23T407 16T399
13Q332 -10 258 -12L242 -105Q242 -111 232 -111Q226 -111 222 -109T218 -102L234 -12Q135 -6 90 52T44 192Q44 221 48 242Q59 307 98 360T196 444T321 480L336 565Q336 570 346 570Q351 570 356 568T360 561L346 480Q380 478 414 470T469 449Q475 445 477 442ZM148
210T148 174Q148 110 169 66T238 11L317 458Q257 453 214 395T154 246Q148 210 148 174Z" />
<glyph unicode="&#xa3;" glyph-name="sterling" horiz-adv-x="388" d="M378 459T375 446L364 340Q364 338 359 338Q353 338 352 343Q337 402 319 431T267 460Q232 460 212 431T182 357Q179 338 179 318Q179 294 185 244H264Q268 244 270 240T272 229Q272 224 270
220T265 215H187Q188 206 188 188Q188 164 184 143Q177 108 163 87T128 48H214Q254 48 274 53T306 75T333 130Q334 132 338 132Q346 132 345 125Q337 103 329 70T316 9Q315 3 313 2T301 0H-7Q-11 0 -11 6T-7 14Q45 26 66 55T92 124Q96 151 96 178Q96 191 94 215H55Q48
215 48 230Q48 244 54 244H91Q87 278 87 295Q87 312 90 333Q104 410 158 445T284 480Q325 480 361 464Q378 459 375 446Z" />
<glyph unicode="&#xa4;" glyph-name="currency" horiz-adv-x="384" d="M306 286Q322 257 322 222Q322 190 311 163T280 116L315 68L274 32L240 85Q202 65 163 65Q129 65 103 83L53 32L28 64L77 112Q61 141 61 180Q61 245 107 291L73 338L111 373L148 318Q182 335
219 335Q256 335 282 315L337 370L361 338L306 286ZM204 89T223 115T251 186Q254 206 254 224Q254 262 240 286T199 311Q175 311 156 287T130 218Q126 199 126 175Q126 137 139 113T179 89Q204 89 223 115Z" />
<glyph unicode="&#xa5;" glyph-name="yen" horiz-adv-x="448" d="M496 468T496 462T492 456Q440 456 375 364L281 229L278 213H360Q363 213 365 209T367 198Q367 187 361 187H97Q91 187 91 201Q91 213 97 213H186L117 387Q103 425 87 440T50 456Q47 456 47 462T50
468Q60 468 88 466L119 465Q150 465 208 467L261 468Q264 468 264 462T261 456Q210 456 210 422Q210 409 215 398L275 255L350 370Q373 406 373 427Q373 456 335 456Q331 456 331 462T335 468L380 467Q416 465 443 465Q456 465 472 467L492 468Q496 468 496 462ZM354
142T354 127Q354 116 349 116H261L255 77Q251 60 251 44Q251 24 263 18T310 12Q314 12 314 6T310 0Q279 0 262 1L196 2L129 1Q111 0 81 0Q77 0 77 6T81 12Q123 12 139 26T163 84L169 116H85Q78 116 78 130Q78 142 84 142H347Q354 142 354 127Z" />
<glyph unicode="&#xa6;" glyph-name="brokenbar" horiz-adv-x="152" d="M127 351T111 351Q101 351 93 353T85 360L150 731Q150 736 166 736Q177 736 185 734T193 727L127 357Q127 351 111 351ZM36 -163T20 -163Q10 -163 2 -161T-6 -154L58 216Q60 222 75 222Q85
222 94 220T102 213L36 -158Q36 -163 20 -163Z" />
<glyph unicode="&#xa7;" glyph-name="section" horiz-adv-x="408" d="M221 546T211 485Q209 471 209 466Q209 429 229 401T291 336Q333 297 354 267T376 197Q376 116 279 34Q309 -1 309 -45Q309 -60 306 -76Q294 -132 247 -160T131 -188Q79 -188 50 -175Q42 -169
43 -159L64 -36Q64 -34 69 -34T75 -36Q86 -71 96 -95T125 -141T172 -163Q217 -163 227 -102Q228 -95 228 -83Q228 -46 207 -18T146 48Q103 88 82 117T61 187Q61 268 158 349Q128 386 128 429Q128 444 131 460Q142 516 190 544T306 572Q354 572 387 559Q395 554
394 543L373 420Q373 417 369 417T363 420Q346 473 325 509T265 546Q221 546 211 485ZM292 140T292 155Q292 190 280 216T251 261T205 305Q181 325 171 335Q154 304 147 262Q144 244 144 229Q144 194 156 168T185 123T231 80Q255 60 266 49Q283 81 289 122Q292
140 292 155Z" />
<glyph unicode="&#xa8;" glyph-name="dieresis" horiz-adv-x="275" d="M89 464T75 478T61 519Q61 543 75 556T115 570Q139 570 152 557T166 519Q166 493 153 479T115 464Q89 464 75 478ZM248 464T234 478T220 519Q220 543 234 556T274 570Q298 570 311 557T325
519Q325 493 312 479T274 464Q248 464 234 478Z" />
<glyph unicode="&#xa9;" glyph-name="copyright" horiz-adv-x="727" d="M293 -106T221 -71T106 30T63 187Q63 278 112 350T241 462T411 503Q489 503 549 471T641 384T674 268Q674 209 640 157T546 72T409 39Q316 39 271 85T226 195Q226 247 251 285T317 343T402
364Q445 364 477 349T510 303Q510 261 467 261Q451 261 442 270T423 297Q412 318 401 329T370 340Q339 340 328 314T317 230Q317 159 353 113T463 67Q500 67 533 88T587 147T607 236Q607 303 577 359T494 447T375 480Q301 480 247 444T165 347T137 213Q137 127
171 63T269 -36T416 -71Q468 -71 511 -60T601 -20H602Q605 -20 607 -23T607 -28Q551 -72 496 -89T380 -106Q293 -106 221 -71Z" />
<glyph unicode="&#xaa;" glyph-name="ordfeminine" horiz-adv-x="276" d="M310 428Q312 428 315 425T317 420Q272 364 236 364Q205 364 205 402Q205 417 207 426L211 453Q187 407 156 384T94 361Q75 361 64 374T53 415Q53 422 55 440Q61 482 89 527T155 602T227
633Q255 633 272 617Q284 625 291 637Q293 639 296 638T299 635L260 426Q258 416 258 412Q258 396 268 396Q279 396 309 428H310ZM158 406T184 441T222 517L223 525L224 526L227 540Q229 548 229 561Q229 601 195 601Q166 601 144 570T113 490Q109 469 109 450Q109
427 115 417T133 406Q158 406 184 441ZM271 313T272 309T274 298Q274 293 273 288T269 283H44Q40 283 40 299Q40 313 43 313H269Q271 313 272 309Z" />
<glyph unicode="&#xab;" glyph-name="guillemotleft" horiz-adv-x="434" d="M253 364Q256 364 259 361T260 356L150 201L206 47V46Q206 43 203 40T198 40L43 189Q40 192 40 198Q40 206 47 212L251 364H253ZM400 364Q403 364 406 361T407 356L297 201L353 47L354
45Q354 42 350 40T345 40L191 189Q188 194 188 199Q188 206 194 212L399 364H400Z" />
<glyph unicode="&#xac;" glyph-name="logicalnot" horiz-adv-x="407" d="M370 82Q370 80 362 79T345 77Q337 77 330 78T323 81V225H40Q38 225 37 233T35 250Q35 258 36 264T39 271H370V82Z" />
<glyph unicode="&#xad;" glyph-name="uni00AD" horiz-adv-x="305" d="M31 163T29 176T27 202Q27 215 29 215L278 262Q281 263 283 251T285 226Q285 211 282 211L34 164Q31 163 29 176Z" />
<glyph unicode="&#xae;" glyph-name="registered" horiz-adv-x="751" d="M524 725T589 690T691 592T727 451Q727 365 684 294T567 180T404 138Q327 138 258 173T146 272T104 419Q104 511 150 580T272 687T437 725Q524 725 589 690ZM550 164T605 234T661 418Q661
506 628 570T536 667T399 701Q320 701 268 668T191 579T166 456Q166 372 202 306T302 202T442 164Q550 164 605 234ZM584 287T584 284T581 280H483Q474 280 459 320T422 440Q398 438 384 438L366 336Q363 321 363 313Q363 299 371 295T400 291Q401 291 401 289Q401
286 400 284T398 280L325 281L254 280Q253 280 253 282Q253 285 254 287T256 291Q277 291 284 298T296 336L333 551Q336 568 336 577Q336 587 331 591T310 595Q309 595 309 597Q309 600 310 603T312 607L382 606Q396 606 426 608L465 609Q510 609 532 597T555 557Q555
522 536 497T483 457Q505 383 527 346T582 288Q584 287 584 284ZM432 450T451 464T477 520Q481 537 481 553Q481 596 447 596Q432 596 425 594T413 582T404 549L387 453Q432 450 451 464Z" />
<glyph unicode="&#xaf;" glyph-name="overscore" horiz-adv-x="333" d="M101 473T98 479T95 493Q95 501 98 507T105 513H333Q338 513 341 507T344 493Q344 485 341 479T333 473H105Q101 473 98 479Z" />
<glyph unicode="&#xb0;" glyph-name="degree" horiz-adv-x="299" d="M126 373T98 407T69 490Q69 499 71 515Q80 562 123 596T226 630Q283 630 310 597T338 516Q338 476 317 443T261 392T184 373Q126 373 98 407ZM222 393T234 417T251 482Q255 509 255 537Q255
611 215 611Q170 611 156 518Q152 495 152 469Q152 434 162 414T196 393Q222 393 234 417Z" />
<glyph unicode="&#xb1;" glyph-name="plusminus" horiz-adv-x="398" d="M32 229T31 237T29 254Q29 262 30 269T33 276H175V418Q175 422 199 422Q222 422 222 418V276H364Q366 276 367 269T369 253Q369 244 368 237T364 229H222V88Q222 86 214 85T197 83Q189 83
182 84T175 87V229H34Q32 229 31 237ZM366 44T367 38T369 23Q369 15 368 8T364 1H34Q32 1 31 8T29 24Q29 31 30 37T33 44H364Q366 44 367 38Z" />
<glyph unicode="&#xb2;" glyph-name="uni00B2" horiz-adv-x="234" d="M271 618T250 596T190 544Q158 521 139 504T109 463Q162 463 191 467T233 480T249 507Q249 510 253 510Q256 510 258 509T260 504L241 404Q241 402 240 402T239 403H63Q60 403 59 406T60 414Q79
462 101 492T156 555Q184 585 196 603T212 649Q214 673 207 687T181 701Q163 701 144 686T115 647Q114 644 110 644Q107 644 105 646T103 651Q140 729 209 729Q243 729 261 712T279 666Q279 661 277 649Q271 618 250 596Z" />
<glyph unicode="&#xb3;" glyph-name="uni00B3" horiz-adv-x="234" d="M271 624T252 604T208 574Q232 568 246 551T261 508Q261 483 247 457T205 414T142 397Q106 397 88 415T67 460Q66 464 71 465T78 462Q83 444 97 434T130 424Q151 424 168 442T192 500Q194 514
194 518Q194 564 137 564Q133 564 133 570T137 576Q164 576 182 596T207 649Q209 661 209 666Q209 699 179 699Q159 699 143 685T116 649Q114 647 112 647Q109 647 107 649T105 655Q120 688 146 708T208 729Q242 729 259 712T277 667Q277 661 275 649Q271 624 252
604Z" />
<glyph unicode="&#xb4;" glyph-name="acute" horiz-adv-x="212" d="M118 470T113 472T109 476L184 716Q185 722 213 727T265 732Q288 732 284 727L119 473Q118 470 113 472Z" />
<glyph unicode="&#xb6;" glyph-name="paragraph" horiz-adv-x="594" d="M201 -193T181 -180T161 -144Q161 -122 173 -111T206 -99Q225 -99 232 -107T244 -135Q247 -151 253 -159T275 -167Q289 -167 296 -158T308 -124T325 -34Q328 -22 329 -12T333 8L354 125Q318
122 275 122Q192 122 135 170T77 324Q77 349 82 386Q105 505 185 566T386 628Q414 628 445 625Q511 622 519 622Q538 622 572 624L619 625Q624 625 624 619T619 613Q580 613 555 592T522 532L439 55Q416 -73 367 -133T239 -193Q201 -193 181 -180Z" />
<glyph unicode="&#xb7;" glyph-name="middot" horiz-adv-x="209" d="M85 164T70 179T54 221Q54 246 69 260T111 275Q137 275 151 261T166 221Q166 194 152 179T111 164Q85 164 70 179Z" />
<glyph unicode="&#xb8;" glyph-name="cedilla" horiz-adv-x="196" d="M-30 -275T-53 -262T-76 -228Q-76 -208 -64 -198T-34 -188Q-16 -188 -9 -197T5 -225Q11 -241 16 -248T34 -256Q45 -256 51 -250T60 -232Q61 -215 48 -193T9 -138Q1 -129 1 -114Q1 -103 5 -92T20
-60L49 0H65Q56 -21 56 -36Q56 -52 63 -65T79 -89T91 -104Q125 -147 125 -175Q125 -194 112 -217T71 -258T4 -275Q-30 -275 -53 -262Z" />
<glyph unicode="&#xb9;" glyph-name="uni00B9" horiz-adv-x="242" d="M74 403T74 408T77 414Q105 414 117 418T134 435T146 483L167 601Q171 627 171 635Q171 663 152 663Q137 663 116 652L114 651Q110 651 109 655T111 662L248 731Q249 732 252 732Q255 732 256
730T257 725L215 483Q210 453 210 442Q210 424 219 419T256 414Q260 414 260 409T256 403Q233 403 220 404L170 405L116 404Q102 403 77 403Q74 403 74 408Z" />
<glyph unicode="&#xba;" glyph-name="ordmasculine" horiz-adv-x="269" d="M109 358T86 386T63 459Q63 480 67 497Q77 555 117 592T209 630Q253 630 276 603T300 532Q300 512 296 495Q285 431 243 395T152 358Q109 358 86 386ZM194 377T210 400T234 467Q239 497
239 518Q239 559 226 585T188 612Q168 612 153 591T129 524Q124 492 124 471Q124 429 137 403T173 377Q194 377 210 400ZM47 283T46 288T44 299Q44 304 45 308T48 313H269Q271 313 272 309T274 298Q274 293 273 288T269 283H49Q47 283 46 288Z" />
<glyph unicode="&#xbb;" glyph-name="guillemotright" horiz-adv-x="433" d="M36 37Q33 37 30 40T29 46L139 200L83 354V355Q83 358 86 361T91 361L246 212Q249 209 249 203Q249 195 242 189L37 37H36ZM183 37Q180 37 177 40T177 46L287 200L230 354V355Q230 358
233 361T239 361L393 212Q396 208 396 203Q396 195 389 189L185 37H183Z" />
<glyph unicode="&#xbc;" glyph-name="onequarter" horiz-adv-x="558" d="M56 309T56 314T59 320Q87 320 99 324T116 341T128 389L149 507Q153 533 153 541Q153 569 134 569Q119 569 98 558L96 557Q92 557 91 561T93 568L230 637Q231 638 234 638Q237 638 238 636T239
631L197 389Q192 359 192 348Q192 330 201 325T238 320Q242 320 242 315T238 309Q215 309 202 310L152 311L98 310Q84 309 59 309Q56 309 56 314ZM160 -8T146 -1T133 9L471 627Q473 631 488 623T500 611L162 -6Q160 -8 146 -1ZM527 125T525 106T520 87Q498 89 485
89L477 41L475 25Q475 16 481 13T506 10Q511 10 511 4T506 -2Q488 -2 478 -1L441 0L394 -1Q382 -2 361 -2Q357 -2 357 4T361 10Q390 10 398 15T411 41L420 92Q389 93 313 93Q312 93 311 95T312 99L506 329Q507 330 510 330Q514 330 519 327T523 321L490 123L524
125Q527 125 525 106ZM406 119T425 120L443 224L361 122Q357 119 363 119Q406 119 425 120Z" />
<glyph unicode="&#xbd;" glyph-name="onehalf" horiz-adv-x="573" d="M56 309T56 314T59 320Q87 320 99 324T116 341T128 389L149 507Q153 533 153 541Q153 569 134 569Q119 569 98 558L96 557Q92 557 91 561T93 568L230 637Q231 638 234 638Q237 638 238 636T239
631L197 389Q192 359 192 348Q192 330 201 325T238 320Q242 320 242 315T238 309Q215 309 202 310L152 311L98 310Q84 309 59 309Q56 309 56 314ZM160 -8T146 -1T133 9L471 627Q473 631 488 623T500 611L162 -6Q160 -8 146 -1ZM540 215T519 193T459 141Q427 118
408 101T378 60Q431 60 460 64T502 77T518 104Q518 107 522 107Q525 107 527 106T529 101L510 1Q510 -1 509 -1T508 0H332Q329 0 328 3T329 11Q348 59 370 89T425 152Q453 182 465 200T481 246Q483 270 476 284T450 298Q432 298 413 283T384 244Q383 241 379 241Q376
241 374 243T372 248Q409 326 478 326Q512 326 530 309T548 263Q548 258 546 246Q540 215 519 193Z" />
<glyph unicode="&#xbe;" glyph-name="threequarters" horiz-adv-x="550" d="M253 530T234 510T190 480Q214 474 228 457T243 414Q243 389 229 363T187 320T124 303Q88 303 70 321T49 366Q48 370 53 371T60 368Q65 350 79 340T112 330Q133 330 150 348T174 406Q176
420 176 424Q176 470 119 470Q115 470 115 476T119 482Q146 482 164 502T189 555Q191 567 191 572Q191 605 161 605Q141 605 125 591T98 555Q96 553 94 553Q91 553 89 555T87 561Q102 594 128 614T190 635Q224 635 241 618T259 573Q259 567 257 555Q253 530 234
510ZM152 -8T138 -1T125 9L463 627Q465 631 480 623T492 611L154 -6Q152 -8 138 -1ZM519 125T517 106T512 87Q490 89 477 89L469 41L467 25Q467 16 473 13T498 10Q503 10 503 4T498 -2Q480 -2 470 -1L433 0L386 -1Q374 -2 353 -2Q349 -2 349 4T353 10Q382 10 390
15T403 41L412 92Q381 93 305 93Q304 93 303 95T304 99L498 329Q499 330 502 330Q506 330 511 327T515 321L482 123L516 125Q519 125 517 106ZM398 119T417 120L435 224L353 122Q349 119 355 119Q398 119 417 120Z" />
<glyph unicode="&#xbf;" glyph-name="questiondown" horiz-adv-x="327" d="M231 358T246 343T262 301Q262 276 247 262T205 247Q179 247 165 261T150 301Q150 328 164 343T205 358Q231 358 246 343ZM208 140T218 110T229 55L228 45Q223 14 206 -8T157 -56Q131
-78 116 -94T91 -133T80 -190Q80 -218 88 -236T116 -255Q143 -255 147 -215Q149 -190 160 -172T201 -154Q223 -154 234 -166T246 -196Q246 -234 205 -254T108 -275Q51 -275 17 -251T-17 -179Q-17 -171 -15 -155Q-9 -125 6 -102T37 -64T85 -22Q131 13 151 39T176
101Q177 108 177 123Q177 140 174 158Q173 162 180 165T189 164Q208 140 218 110Z" />
<glyph unicode="&#xc0;" glyph-name="Agrave" horiz-adv-x="605" d="M577 12T577 6T573 0Q557 0 523 2Q485 4 462 4Q440 4 404 2Q372 0 356 0Q352 0 352 6T356 12Q386 12 399 21T412 52Q412 68 408 84L365 295H221L130 129Q104 82 104 56Q104 33 123 23T181 12Q185
12 185 6T180 0Q167 0 129 2Q83 4 58 4Q37 4 9 2Q-19 0 -34 0Q-38 0 -38 6T-34 12Q-6 12 32 44T103 136L382 634Q384 637 390 637Q393 637 396 636T400 633L509 84Q515 51 519 38T536 19T573 12Q577 12 577 6ZM237 323H360L327 487L237 323ZM426 712T388 724T285
756Q273 759 292 768T341 786T387 794Q394 794 396 792Q421 764 450 737L487 701Q488 700 488 698Q488 695 485 693T477 692Q426 712 388 724Z" />
<glyph unicode="&#xc1;" glyph-name="Aacute" horiz-adv-x="605" d="M577 12T577 6T573 0Q557 0 523 2Q485 4 462 4Q440 4 404 2Q372 0 356 0Q352 0 352 6T356 12Q386 12 399 21T412 52Q412 68 408 84L365 295H221L130 129Q104 82 104 56Q104 33 123 23T181 12Q185
12 185 6T180 0Q167 0 129 2Q83 4 58 4Q37 4 9 2Q-19 0 -34 0Q-38 0 -38 6T-34 12Q-6 12 32 44T103 136L382 634Q384 637 390 637Q393 637 396 636T400 633L509 84Q515 51 519 38T536 19T573 12Q577 12 577 6ZM237 323H360L327 487L237 323ZM334 678Q330 678 329
682T331 689Q361 711 415 758Q454 791 456 793Q462 798 492 790T546 770T558 756Q496 741 445 723T336 679L334 678Z" />
<glyph unicode="&#xc2;" glyph-name="Acircumflex" horiz-adv-x="605" d="M577 12T577 6T573 0Q557 0 523 2Q485 4 462 4Q440 4 404 2Q372 0 356 0Q352 0 352 6T356 12Q386 12 399 21T412 52Q412 68 408 84L365 295H221L130 129Q104 82 104 56Q104 33 123 23T181
12Q185 12 185 6T180 0Q167 0 129 2Q83 4 58 4Q37 4 9 2Q-19 0 -34 0Q-38 0 -38 6T-34 12Q-6 12 32 44T103 136L382 634Q384 637 390 637Q393 637 396 636T400 633L509 84Q515 51 519 38T536 19T573 12Q577 12 577 6ZM237 323H360L327 487L237 323ZM291 660Q288
660 286 662T286 667L402 782Q405 787 411 787Q417 787 420 782L503 667L504 665Q504 663 501 661T496 660L402 698L292 660H291Z" />
<glyph unicode="&#xc3;" glyph-name="Atilde" horiz-adv-x="605" d="M577 12T577 6T573 0Q557 0 523 2Q485 4 462 4Q440 4 404 2Q372 0 356 0Q352 0 352 6T356 12Q386 12 399 21T412 52Q412 68 408 84L365 295H221L130 129Q104 82 104 56Q104 33 123 23T181 12Q185
12 185 6T180 0Q167 0 129 2Q83 4 58 4Q37 4 9 2Q-19 0 -34 0Q-38 0 -38 6T-34 12Q-6 12 32 44T103 136L382 634Q384 637 390 637Q393 637 396 636T400 633L509 84Q515 51 519 38T536 19T573 12Q577 12 577 6ZM237 323H360L327 487L237 323ZM274 685T272 685Q270
685 268 688T267 693Q289 727 313 750T367 774Q377 774 393 770T414 764Q463 749 487 749Q509 749 522 755T551 776H552Q555 776 557 774T558 769Q528 720 509 704T463 688Q447 688 407 700Q403 701 381 707T338 713Q315 713 305 709T286 697T274 686Q274 685 272
685Z" />
<glyph unicode="&#xc4;" glyph-name="Adieresis" horiz-adv-x="605" d="M577 12T577 6T573 0Q557 0 523 2Q485 4 462 4Q440 4 404 2Q372 0 356 0Q352 0 352 6T356 12Q386 12 399 21T412 52Q412 68 408 84L365 295H221L130 129Q104 82 104 56Q104 33 123 23T181
12Q185 12 185 6T180 0Q167 0 129 2Q83 4 58 4Q37 4 9 2Q-19 0 -34 0Q-38 0 -38 6T-34 12Q-6 12 32 44T103 136L382 634Q384 637 390 637Q393 637 396 636T400 633L509 84Q515 51 519 38T536 19T573 12Q577 12 577 6ZM237 323H360L327 487L237 323ZM304 703T290
717T276 758Q276 782 290 795T330 809Q354 809 367 796T381 758Q381 732 368 718T330 703Q304 703 290 717ZM463 703T449 717T435 758Q435 782 449 795T489 809Q513 809 526 796T540 758Q540 732 527 718T489 703Q463 703 449 717Z" />
<glyph unicode="&#xc5;" glyph-name="Aring" horiz-adv-x="605" d="M577 12T577 6T573 0Q557 0 523 2Q485 4 462 4Q440 4 404 2Q372 0 356 0Q352 0 352 6T356 12Q386 12 399 21T412 52Q412 68 408 84L365 295H221L130 129Q104 82 104 56Q104 33 123 23T181 12Q185
12 185 6T180 0Q167 0 129 2Q83 4 58 4Q37 4 9 2Q-19 0 -34 0Q-38 0 -38 6T-34 12Q-6 12 32 44T103 136L382 634Q384 637 390 637Q393 637 396 636T400 633L509 84Q515 51 519 38T536 19T573 12Q577 12 577 6ZM237 323H360L327 487L237 323ZM343 660T314 683T285
740Q285 776 321 796T401 817Q445 817 476 794T508 737Q508 702 473 681T392 660Q343 660 314 683ZM421 674T427 685T434 720Q434 753 419 778T381 803Q358 803 358 759Q358 727 371 701T407 674Q421 674 427 685Z" />
<glyph unicode="&#xc6;" glyph-name="AE" horiz-adv-x="772" d="M768 625T766 616L745 482Q745 479 741 479Q738 479 736 480T733 483Q728 542 694 576T604 611H586Q561 611 548 595T529 543L503 339H592Q637 339 662 356T696 415Q697 420 703 420T708 414Q700
367 691 325Q687 307 685 294T682 271L675 222Q674 218 668 218T663 223Q665 237 665 243Q665 276 644 293T585 311H500L471 85Q469 73 469 55Q469 33 479 26T519 18H532Q584 18 633 56T715 159Q716 162 721 161T726 157Q712 115 692 15Q690 6 687 3T676 0H303Q299
0 299 6T303 12Q329 12 341 17T360 37T371 81L401 311H266L136 123Q116 94 116 68Q116 43 136 28T192 12Q196 12 196 6T192 0L124 2Q66 4 40 4Q17 4 -13 2Q-39 0 -56 0Q-61 0 -61 6T-56 12Q-15 12 23 38T110 135L411 577Q424 597 424 602Q424 610 410 611T352 613Q348
613 348 619T352 625H760Q768 625 766 616ZM285 339H404L432 551L285 339Z" />
<glyph unicode="&#xc7;" glyph-name="Ccedilla" horiz-adv-x="588" d="M591 603T592 599T593 584L577 450Q577 447 572 447T566 450Q549 525 505 567T395 609Q308 609 249 539T172 346Q166 304 166 264Q166 191 185 133T240 42T326 8Q376 8 428 45T538 160Q539
162 542 162Q545 162 547 161T549 157L522 42Q519 30 516 26T504 19Q415 -12 322 -12Q318 -23 318 -35Q318 -52 325 -65T341 -89T353 -104Q387 -147 387 -175Q387 -194 374 -217T333 -258T266 -275Q232 -275 209 -262T186 -228Q186 -208 198 -198T228 -188Q246
-188 253 -197T267 -225Q273 -241 278 -248T296 -256Q307 -256 313 -250T322 -232Q323 -215 310 -193T271 -138Q263 -129 263 -114Q263 -103 267 -91T282 -60L305 -12Q174 -8 114 64T54 242Q54 279 60 313Q78 412 135 485T271 597T436 636Q476 636 518 628T585
607Q591 603 592 599Z" />
<glyph unicode="&#xc8;" glyph-name="Egrave" horiz-adv-x="531" d="M527 625T525 616L504 482Q504 479 500 479Q497 479 495 480T492 483Q488 538 453 571T363 604H345Q316 604 303 600T285 583T274 543L238 339H351Q397 339 421 356T455 415Q456 420 462 420T467
414Q463 386 455 352Q455 348 450 325Q447 307 443 278Q441 267 439 253T434 222Q433 218 427 218T422 223Q424 237 424 243Q424 276 403 293T344 311H233L193 85Q190 67 190 55Q190 35 201 28T241 21H267Q325 21 381 58T474 159Q475 162 481 161T485 157Q469 105
451 15Q449 6 446 3T435 0H20Q17 0 17 6T20 12Q48 12 61 17T81 36T94 81L175 544Q179 563 179 578Q179 599 168 606T126 613Q124 613 124 619T126 625H519Q527 625 525 616ZM390 712T352 724T249 756Q237 759 256 768T305 786T351 794Q358 794 360 792Q385 764
414 737L451 701Q452 700 452 698Q452 695 449 693T441 692Q390 712 352 724Z" />
<glyph unicode="&#xc9;" glyph-name="Eacute" horiz-adv-x="531" d="M527 625T525 616L504 482Q504 479 500 479Q497 479 495 480T492 483Q488 538 453 571T363 604H345Q316 604 303 600T285 583T274 543L238 339H351Q397 339 421 356T455 415Q456 420 462 420T467
414Q463 386 455 352Q455 348 450 325Q447 307 443 278Q441 267 439 253T434 222Q433 218 427 218T422 223Q424 237 424 243Q424 276 403 293T344 311H233L193 85Q190 67 190 55Q190 35 201 28T241 21H267Q325 21 381 58T474 159Q475 162 481 161T485 157Q469 105
451 15Q449 6 446 3T435 0H20Q17 0 17 6T20 12Q48 12 61 17T81 36T94 81L175 544Q179 563 179 578Q179 599 168 606T126 613Q124 613 124 619T126 625H519Q527 625 525 616ZM298 678Q294 678 293 682T295 689Q325 711 379 758Q418 791 420 793Q426 798 456 790T510
770T522 756Q460 741 409 723T300 679L298 678Z" />
<glyph unicode="&#xca;" glyph-name="Ecircumflex" horiz-adv-x="531" d="M527 625T525 616L504 482Q504 479 500 479Q497 479 495 480T492 483Q488 538 453 571T363 604H345Q316 604 303 600T285 583T274 543L238 339H351Q397 339 421 356T455 415Q456 420 462
420T467 414Q463 386 455 352Q455 348 450 325Q447 307 443 278Q441 267 439 253T434 222Q433 218 427 218T422 223Q424 237 424 243Q424 276 403 293T344 311H233L193 85Q190 67 190 55Q190 35 201 28T241 21H267Q325 21 381 58T474 159Q475 162 481 161T485 157Q469
105 451 15Q449 6 446 3T435 0H20Q17 0 17 6T20 12Q48 12 61 17T81 36T94 81L175 544Q179 563 179 578Q179 599 168 606T126 613Q124 613 124 619T126 625H519Q527 625 525 616ZM255 660Q252 660 250 662T250 667L366 782Q369 787 375 787Q381 787 384 782L467
667L468 665Q468 663 465 661T460 660L366 698L256 660H255Z" />
<glyph unicode="&#xcb;" glyph-name="Edieresis" horiz-adv-x="531" d="M527 625T525 616L504 482Q504 479 500 479Q497 479 495 480T492 483Q488 538 453 571T363 604H345Q316 604 303 600T285 583T274 543L238 339H351Q397 339 421 356T455 415Q456 420 462
420T467 414Q463 386 455 352Q455 348 450 325Q447 307 443 278Q441 267 439 253T434 222Q433 218 427 218T422 223Q424 237 424 243Q424 276 403 293T344 311H233L193 85Q190 67 190 55Q190 35 201 28T241 21H267Q325 21 381 58T474 159Q475 162 481 161T485 157Q469
105 451 15Q449 6 446 3T435 0H20Q17 0 17 6T20 12Q48 12 61 17T81 36T94 81L175 544Q179 563 179 578Q179 599 168 606T126 613Q124 613 124 619T126 625H519Q527 625 525 616ZM268 703T254 717T240 758Q240 782 254 795T294 809Q318 809 331 796T345 758Q345
732 332 718T294 703Q268 703 254 717ZM427 703T413 717T399 758Q399 782 413 795T453 809Q477 809 490 796T504 758Q504 732 491 718T453 703Q427 703 413 717Z" />
<glyph unicode="&#xcc;" glyph-name="Igrave" horiz-adv-x="336" d="M22 0T22 6T25 12Q52 12 65 17T86 36T98 81L180 544Q184 561 184 577Q184 598 172 605T130 613Q127 613 127 619T130 625L176 624Q216 622 240 622Q270 622 310 624L353 625Q356 625 356 619T353
613Q326 613 312 607T292 587T280 542L198 81Q194 62 194 47Q194 26 206 19T248 12Q250 12 250 6T248 0Q220 0 203 1L136 2L71 1Q54 0 25 0Q22 0 22 6ZM281 712T243 724T140 756Q128 759 147 768T196 786T242 794Q249 794 251 792Q276 764 305 737L342 701Q343
700 343 698Q343 695 340 693T332 692Q281 712 243 724Z" />
<glyph unicode="&#xcd;" glyph-name="Iacute" horiz-adv-x="336" d="M22 0T22 6T25 12Q52 12 65 17T86 36T98 81L180 544Q184 561 184 577Q184 598 172 605T130 613Q127 613 127 619T130 625L176 624Q216 622 240 622Q270 622 310 624L353 625Q356 625 356 619T353
613Q326 613 312 607T292 587T280 542L198 81Q194 62 194 47Q194 26 206 19T248 12Q250 12 250 6T248 0Q220 0 203 1L136 2L71 1Q54 0 25 0Q22 0 22 6ZM189 678Q185 678 184 682T186 689Q216 711 270 758Q309 791 311 793Q317 798 347 790T401 770T413 756Q351
741 300 723T191 679L189 678Z" />
<glyph unicode="&#xce;" glyph-name="Icircumflex" horiz-adv-x="336" d="M22 0T22 6T25 12Q52 12 65 17T86 36T98 81L180 544Q184 561 184 577Q184 598 172 605T130 613Q127 613 127 619T130 625L176 624Q216 622 240 622Q270 622 310 624L353 625Q356 625 356
619T353 613Q326 613 312 607T292 587T280 542L198 81Q194 62 194 47Q194 26 206 19T248 12Q250 12 250 6T248 0Q220 0 203 1L136 2L71 1Q54 0 25 0Q22 0 22 6ZM146 660Q143 660 141 662T141 667L257 782Q260 787 266 787Q272 787 275 782L358 667L359 665Q359
663 356 661T351 660L257 698L147 660H146Z" />
<glyph unicode="&#xcf;" glyph-name="Idieresis" horiz-adv-x="336" d="M22 0T22 6T25 12Q52 12 65 17T86 36T98 81L180 544Q184 561 184 577Q184 598 172 605T130 613Q127 613 127 619T130 625L176 624Q216 622 240 622Q270 622 310 624L353 625Q356 625 356
619T353 613Q326 613 312 607T292 587T280 542L198 81Q194 62 194 47Q194 26 206 19T248 12Q250 12 250 6T248 0Q220 0 203 1L136 2L71 1Q54 0 25 0Q22 0 22 6ZM165 703T150 717T135 758Q135 782 150 796T190 810Q214 810 227 796T241 758Q241 732 228 718T190
703Q165 703 150 717ZM318 703T305 717T291 758Q291 782 304 795T343 809Q367 809 380 796T394 758Q394 732 381 718T343 703Q318 703 305 717Z" />
<glyph unicode="&#xd0;" glyph-name="Eth" horiz-adv-x="636" d="M433 627T496 597T592 511T626 382Q626 349 621 323Q604 227 548 153T412 37T251 -4Q227 -4 195 -1Q183 0 165 1T124 2L58 1Q42 0 13 0Q10 0 10 6T13 12Q41 12 54 17T75 36T88 81L126 297H69Q65
297 65 311Q65 325 69 325H131L170 544Q174 570 174 577Q174 598 162 605T120 613Q118 613 118 619T120 625L167 624Q207 622 233 622Q261 622 291 625Q331 627 349 627Q433 627 496 597ZM515 340T515 385Q515 482 473 544T340 607Q304 607 289 593T268 542L229
325H331Q333 325 334 321T336 311Q336 306 335 302T331 297H224L188 92Q185 76 185 64Q185 39 199 28T247 16Q343 16 413 91T508 301Q515 340 515 385Z" />
<glyph unicode="&#xd1;" glyph-name="Ntilde" horiz-adv-x="655" d="M712 625T712 619T710 613Q672 613 645 585T608 509L516 -7Q516 -10 511 -12T499 -15Q490 -15 487 -9L199 517L127 116Q125 106 125 88Q125 52 143 32T193 12Q195 12 195 6T193 0Q167 0 153
1L96 2L42 1Q27 0 -2 0Q-5 0 -5 6T-2 12Q36 12 63 40T99 116L178 554Q159 587 141 600T102 613Q99 613 99 619T102 625L149 624Q164 623 189 623Q213 623 230 624T254 625Q260 625 263 622T270 607Q272 603 276 594T287 573L516 156L580 509Q583 526 583 539Q583
574 565 593T515 613Q512 613 512 619T515 625L551 624Q587 622 612 622Q630 622 666 624L710 625Q712 625 712 619ZM289 685T287 685Q285 685 283 688T282 693Q304 727 328 750T382 774Q392 774 408 770T429 764Q478 749 502 749Q524 749 537 755T566 776H567Q570
776 572 774T573 769Q543 720 524 704T478 688Q462 688 422 700Q418 701 396 707T353 713Q330 713 320 709T301 697T289 686Q289 685 287 685Z" />
<glyph unicode="&#xd2;" glyph-name="Ograve" horiz-adv-x="655" d="M210 -12T159 20T80 110T53 239Q53 269 60 313Q76 405 126 478T252 594T411 636Q483 636 535 604T616 516T644 386Q644 348 637 313Q620 215 566 141T437 28T281 -12Q210 -12 159 20ZM395 14T449
80T523 260Q531 304 531 357Q531 468 489 540T372 612Q300 612 246 546T173 366Q165 313 165 270Q165 160 206 87T324 14Q395 14 449 80ZM439 712T401 724T298 756Q286 759 305 768T354 786T400 794Q407 794 409 792Q434 764 463 737L500 701Q501 700 501 698Q501
695 498 693T490 692Q439 712 401 724Z" />
<glyph unicode="&#xd3;" glyph-name="Oacute" horiz-adv-x="655" d="M210 -12T159 20T80 110T53 239Q53 269 60 313Q76 405 126 478T252 594T411 636Q483 636 535 604T616 516T644 386Q644 348 637 313Q620 215 566 141T437 28T281 -12Q210 -12 159 20ZM395 14T449
80T523 260Q531 304 531 357Q531 468 489 540T372 612Q300 612 246 546T173 366Q165 313 165 270Q165 160 206 87T324 14Q395 14 449 80ZM347 678Q343 678 342 682T344 689Q374 711 428 758Q467 791 469 793Q475 798 505 790T559 770T571 756Q509 741 458 723T349
679L347 678Z" />
<glyph unicode="&#xd4;" glyph-name="Ocircumflex" horiz-adv-x="655" d="M210 -12T159 20T80 110T53 239Q53 269 60 313Q76 405 126 478T252 594T411 636Q483 636 535 604T616 516T644 386Q644 348 637 313Q620 215 566 141T437 28T281 -12Q210 -12 159 20ZM395
14T449 80T523 260Q531 304 531 357Q531 468 489 540T372 612Q300 612 246 546T173 366Q165 313 165 270Q165 160 206 87T324 14Q395 14 449 80ZM304 660Q301 660 299 662T299 667L415 782Q418 787 424 787Q430 787 433 782L516 667L517 665Q517 663 514 661T509
660L415 698L305 660H304Z" />
<glyph unicode="&#xd5;" glyph-name="Otilde" horiz-adv-x="655" d="M210 -12T159 20T80 110T53 239Q53 269 60 313Q76 405 126 478T252 594T411 636Q483 636 535 604T616 516T644 386Q644 348 637 313Q620 215 566 141T437 28T281 -12Q210 -12 159 20ZM395 14T449
80T523 260Q531 304 531 357Q531 468 489 540T372 612Q300 612 246 546T173 366Q165 313 165 270Q165 160 206 87T324 14Q395 14 449 80ZM287 685T285 685Q283 685 281 688T280 693Q302 727 326 750T380 774Q390 774 406 770T427 764Q476 749 500 749Q522 749 535
755T564 776H565Q568 776 570 774T571 769Q541 720 522 704T476 688Q460 688 420 700Q416 701 394 707T351 713Q328 713 318 709T299 697T287 686Q287 685 285 685Z" />
<glyph unicode="&#xd6;" glyph-name="Odieresis" horiz-adv-x="655" d="M210 -12T159 20T80 110T53 239Q53 269 60 313Q76 405 126 478T252 594T411 636Q483 636 535 604T616 516T644 386Q644 348 637 313Q620 215 566 141T437 28T281 -12Q210 -12 159 20ZM395
14T449 80T523 260Q531 304 531 357Q531 468 489 540T372 612Q300 612 246 546T173 366Q165 313 165 270Q165 160 206 87T324 14Q395 14 449 80ZM317 703T303 717T289 758Q289 782 303 795T343 809Q367 809 380 796T394 758Q394 732 381 718T343 703Q317 703 303
717ZM476 703T462 717T448 758Q448 782 462 795T502 809Q526 809 539 796T553 758Q553 732 540 718T502 703Q476 703 462 717Z" />
<glyph unicode="&#xd7;" glyph-name="multiply" horiz-adv-x="399" d="M335 86T319 70T298 57L199 157L98 56Q96 52 79 69T64 88L165 190L65 290Q62 293 78 309T97 324L198 223L298 323Q302 325 318 309T331 289L232 190L332 90Q335 86 319 70Z" />
<glyph unicode="&#xd8;" glyph-name="Oslash" horiz-adv-x="655" d="M648 636Q653 636 662 628T668 616L598 545Q644 481 644 386Q644 348 637 313Q620 215 566 141T437 28T281 -12Q178 -12 116 56L47 -14L46 -15Q40 -15 32 -6T27 7L98 79Q54 144 54 240Q54 276
60 313Q76 405 126 478T252 594T411 636Q464 636 507 619T581 568L647 635L648 636ZM165 313T165 269Q165 208 178 160L510 496Q490 551 455 581T372 612Q300 612 246 546T173 366Q165 313 165 269ZM532 310T532 357Q532 411 519 465L187 128Q207 75 241 45T324
14Q395 14 449 80T523 260Q532 310 532 357Z" />
<glyph unicode="&#xd9;" glyph-name="Ugrave" horiz-adv-x="620" d="M562 519T562 535Q562 572 545 592T496 613Q493 613 493 619T496 625L540 624Q574 622 594 622Q614 622 646 624L684 625Q688 625 688 619T684 613Q648 613 623 581T588 494L535 192Q518 97
447 42T277 -14Q186 -14 133 32T80 158Q80 181 84 201L146 547Q150 573 150 580Q150 600 138 606T95 613Q92 613 92 619T94 625L143 624Q183 622 207 622Q235 622 279 624L323 625Q325 625 325 619T323 613Q282 613 267 598T244 538L189 229Q183 192 183 162Q183
91 216 57T313 23Q389 23 440 69T505 198L559 501Q562 519 562 535ZM401 729T291 756Q279 758 302 769T356 789T392 793L439 753Q483 715 517 689Q520 688 520 685Q520 682 518 680T513 679Q401 729 291 756Z" />
<glyph unicode="&#xda;" glyph-name="Uacute" horiz-adv-x="620" d="M562 519T562 535Q562 572 545 592T496 613Q493 613 493 619T496 625L540 624Q574 622 594 622Q614 622 646 624L684 625Q688 625 688 619T684 613Q648 613 623 581T588 494L535 192Q518 97
447 42T277 -14Q186 -14 133 32T80 158Q80 181 84 201L146 547Q150 573 150 580Q150 600 138 606T95 613Q92 613 92 619T94 625L143 624Q183 622 207 622Q235 622 279 624L323 625Q325 625 325 619T323 613Q282 613 267 598T244 538L189 229Q183 192 183 162Q183
91 216 57T313 23Q389 23 440 69T505 198L559 501Q562 519 562 535ZM315 678Q311 678 310 682T311 689Q342 711 398 759Q411 771 437 793Q442 797 472 789T526 769T538 756Q420 726 316 678H315Z" />
<glyph unicode="&#xdb;" glyph-name="Ucircumflex" horiz-adv-x="620" d="M562 519T562 535Q562 572 545 592T496 613Q493 613 493 619T496 625L540 624Q574 622 594 622Q614 622 646 624L684 625Q688 625 688 619T684 613Q648 613 623 581T588 494L535 192Q518
97 447 42T277 -14Q186 -14 133 32T80 158Q80 181 84 201L146 547Q150 573 150 580Q150 600 138 606T95 613Q92 613 92 619T94 625L143 624Q183 622 207 622Q235 622 279 624L323 625Q325 625 325 619T323 613Q282 613 267 598T244 538L189 229Q183 192 183 162Q183
91 216 57T313 23Q389 23 440 69T505 198L559 501Q562 519 562 535ZM318 660Q315 660 313 662T313 667L429 782Q432 787 438 787Q444 787 447 782L530 667L531 665Q531 663 528 661T523 660L429 698L319 660H318Z" />
<glyph unicode="&#xdc;" glyph-name="Udieresis" horiz-adv-x="620" d="M562 519T562 535Q562 572 545 592T496 613Q493 613 493 619T496 625L540 624Q574 622 594 622Q614 622 646 624L684 625Q688 625 688 619T684 613Q648 613 623 581T588 494L535 192Q518
97 447 42T277 -14Q186 -14 133 32T80 158Q80 181 84 201L146 547Q150 573 150 580Q150 600 138 606T95 613Q92 613 92 619T94 625L143 624Q183 622 207 622Q235 622 279 624L323 625Q325 625 325 619T323 613Q282 613 267 598T244 538L189 229Q183 192 183 162Q183
91 216 57T313 23Q389 23 440 69T505 198L559 501Q562 519 562 535ZM325 703T311 717T296 758Q296 782 311 796T351 810Q376 810 389 796T403 758Q403 732 390 718T351 703Q325 703 311 717ZM499 703T485 717T471 758Q471 782 485 795T525 809Q550 809 563 796T577
758Q577 732 564 718T525 703Q499 703 485 717Z" />
<glyph unicode="&#xdd;" glyph-name="Yacute" horiz-adv-x="535" d="M608 625T608 619T605 613Q542 613 469 504L343 313L302 81Q298 62 298 47Q298 26 311 19T363 12Q366 12 366 6T363 0Q331 0 313 1L241 2L167 1Q149 0 117 0Q113 0 113 6T117 12Q150 12 166
17T190 36T204 81L241 301L139 542Q123 579 107 596T70 613Q66 613 66 619T70 625L117 624Q151 622 167 622Q190 622 236 624L282 625Q286 625 286 619T282 613Q256 613 245 609T233 592Q233 582 237 573L333 343L450 526Q467 552 467 573Q467 591 455 602T420
613Q416 613 416 619T420 625L469 624Q513 622 538 622Q553 622 573 624L605 625Q608 625 608 619ZM297 678Q293 678 292 682T294 689Q324 711 378 758Q417 791 419 793Q425 798 455 790T509 770T521 756Q459 741 408 723T299 679L297 678Z" />
<glyph unicode="&#xde;" glyph-name="Thorn" horiz-adv-x="546" d="M425 499T484 461T543 352Q543 335 538 312Q525 252 483 212T386 153T280 133Q259 133 239 138Q238 138 238 142Q238 147 240 152T244 157Q257 153 274 153Q325 153 369 185T427 292Q432 317
432 337Q432 399 396 438T290 478Q279 478 257 476L188 81Q184 55 184 49Q184 26 200 19T261 12Q263 12 263 6T261 0Q226 0 206 1L124 2L60 1Q44 0 15 0Q13 0 13 6T15 12Q43 12 57 17T78 36T90 81L172 544Q176 570 176 577Q176 598 164 605T123 613Q120 613 120
619T123 625L167 624Q207 622 232 622Q266 622 316 624L368 625Q371 625 371 619T368 613Q327 613 309 609T283 590T269 542L261 496Q294 499 325 499Q425 499 484 461Z" />
<glyph unicode="&#xdf;" glyph-name="germandbls" horiz-adv-x="475" d="M-80 -275T-104 -259T-125 -218Q-123 -200 -110 -189T-77 -178Q-55 -178 -47 -190T-35 -224Q-31 -241 -28 -248T-14 -255Q-2 -255 9 -210T39 -47L108 418Q128 557 192 641T361 726Q411 726
440 706T470 646Q470 608 451 581T396 519Q363 488 348 467T332 417Q332 394 343 371T378 312Q408 267 423 234T439 161Q439 153 437 135Q428 73 388 31T287 -11Q247 -11 224 7T200 49Q200 70 212 84T246 98Q269 98 278 87T295 55Q303 37 309 29T330 21Q351 21
359 34T372 70Q373 75 373 85Q373 113 361 138T323 207Q295 252 282 282T268 347Q268 360 269 366Q273 393 284 416T319 477Q347 523 361 556T376 634Q376 668 363 685T323 703Q276 703 246 639T194 439L126 -21Q112 -118 92 -173T41 -251T-36 -275Q-80 -275 -104
-259Z" />
<glyph unicode="&#xe0;" glyph-name="agrave" horiz-adv-x="444" d="M416 78T418 78Q421 78 423 75T423 69Q359 -9 311 -9Q285 -9 273 5T261 51Q261 68 264 89L276 157Q238 77 186 32T83 -13Q52 -13 34 6T16 63Q16 130 60 209T170 344T294 399Q312 399 331 393T365
373Q384 387 396 407Q398 409 400 409Q403 409 406 407T408 404L350 89Q347 76 347 66Q347 42 361 42Q380 42 415 77Q416 78 418 78ZM177 60T208 91T263 168T294 253Q297 270 297 283Q297 315 283 332T242 350Q196 350 161 301T111 172Q106 140 106 124Q106 91
117 76T147 60Q177 60 208 91ZM237 727Q236 734 259 734Q281 734 306 728T331 716L307 476Q307 474 303 473T298 475L237 727Z" />
<glyph unicode="&#xe1;" glyph-name="aacute" horiz-adv-x="444" d="M416 78T418 78Q421 78 423 75T423 69Q359 -9 311 -9Q285 -9 273 5T261 51Q261 68 264 89L276 157Q238 77 186 32T83 -13Q52 -13 34 6T16 63Q16 130 60 209T170 344T294 399Q312 399 331 393T365
373Q384 387 396 407Q398 409 400 409Q403 409 406 407T408 404L350 89Q347 76 347 66Q347 42 361 42Q380 42 415 77Q416 78 418 78ZM177 60T208 91T263 168T294 253Q297 270 297 283Q297 315 283 332T242 350Q196 350 161 301T111 172Q106 140 106 124Q106 91
117 76T147 60Q177 60 208 91ZM286 470T281 472T277 476L352 716Q353 722 381 727T433 732Q456 732 452 727L287 473Q286 470 281 472Z" />
<glyph unicode="&#xe2;" glyph-name="acircumflex" horiz-adv-x="444" d="M416 78T418 78Q421 78 423 75T423 69Q359 -9 311 -9Q285 -9 273 5T261 51Q261 68 264 89L276 157Q238 77 186 32T83 -13Q52 -13 34 6T16 63Q16 130 60 209T170 344T294 399Q312 399 331
393T365 373Q384 387 396 407Q398 409 400 409Q403 409 406 407T408 404L350 89Q347 76 347 66Q347 42 361 42Q380 42 415 77Q416 78 418 78ZM177 60T208 91T263 168T294 253Q297 270 297 283Q297 315 283 332T242 350Q196 350 161 301T111 172Q106 140 106 124Q106
91 117 76T147 60Q177 60 208 91ZM384 477Q384 475 379 475T372 476L319 584L225 474Q223 472 221 472Q218 472 216 473T214 477L334 726Q335 731 344 731Q352 731 352 726L384 477Z" />
<glyph unicode="&#xe3;" glyph-name="atilde" horiz-adv-x="444" d="M416 78T418 78Q421 78 423 75T423 69Q359 -9 311 -9Q285 -9 273 5T261 51Q261 68 264 89L276 157Q238 77 186 32T83 -13Q52 -13 34 6T16 63Q16 130 60 209T170 344T294 399Q312 399 331 393T365
373Q384 387 396 407Q398 409 400 409Q403 409 406 407T408 404L350 89Q347 76 347 66Q347 42 361 42Q380 42 415 77Q416 78 418 78ZM177 60T208 91T263 168T294 253Q297 270 297 283Q297 315 283 332T242 350Q196 350 161 301T111 172Q106 140 106 124Q106 91
117 76T147 60Q177 60 208 91ZM163 470Q161 470 159 472T157 477Q179 511 203 534T256 558Q267 558 303 548Q321 542 341 538T377 533Q398 533 411 539T440 560Q440 561 442 561Q444 561 446 558T447 553Q417 505 398 489T352 473Q333 473 296 484Q279 489 261
493T227 497Q203 497 193 492T164 470H163Z" />
<glyph unicode="&#xe4;" glyph-name="adieresis" horiz-adv-x="444" d="M416 78T418 78Q421 78 423 75T423 69Q359 -9 311 -9Q285 -9 273 5T261 51Q261 68 264 89L276 157Q238 77 186 32T83 -13Q52 -13 34 6T16 63Q16 130 60 209T170 344T294 399Q312 399 331
393T365 373Q384 387 396 407Q398 409 400 409Q403 409 406 407T408 404L350 89Q347 76 347 66Q347 42 361 42Q380 42 415 77Q416 78 418 78ZM177 60T208 91T263 168T294 253Q297 270 297 283Q297 315 283 332T242 350Q196 350 161 301T111 172Q106 140 106 124Q106
91 117 76T147 60Q177 60 208 91ZM198 464T184 478T170 519Q170 543 184 556T224 570Q248 570 261 557T275 519Q275 493 262 479T224 464Q198 464 184 478ZM357 464T343 478T329 519Q329 543 343 556T383 570Q407 570 420 557T434 519Q434 493 421 479T383 464Q357
464 343 478Z" />
<glyph unicode="&#xe5;" glyph-name="aring" horiz-adv-x="444" d="M416 78T418 78Q421 78 423 75T423 69Q359 -9 311 -9Q285 -9 273 5T261 51Q261 68 264 89L276 157Q238 77 186 32T83 -13Q52 -13 34 6T16 63Q16 130 60 209T170 344T294 399Q312 399 331 393T365
373Q384 387 396 407Q398 409 400 409Q403 409 406 407T408 404L350 89Q347 76 347 66Q347 42 361 42Q380 42 415 77Q416 78 418 78ZM177 60T208 91T263 168T294 253Q297 270 297 283Q297 315 283 332T242 350Q196 350 161 301T111 172Q106 140 106 124Q106 91
117 76T147 60Q177 60 208 91ZM249 468T220 491T191 547Q191 583 227 604T307 625Q351 625 382 602T413 545Q413 510 378 489T297 468Q249 468 220 491ZM340 482T340 527Q340 561 325 586T287 611Q264 611 264 567Q264 534 277 508T313 482Q340 482 340 527Z" />
<glyph unicode="&#xe6;" glyph-name="ae" horiz-adv-x="589" d="M600 399T600 350Q600 312 553 276T375 197Q373 173 373 164Q373 102 396 69T458 35Q497 35 532 64Q533 65 535 65Q538 65 540 62T540 56Q468 -12 396 -12Q341 -12 313 22T285 121Q285 152 291 186Q249
96 195 42T88 -13Q55 -13 36 8T16 68Q16 75 18 91Q27 156 68 228T171 350T297 399Q328 399 351 388T379 352Q441 399 520 399Q600 399 600 350ZM502 350T495 361T470 373Q437 373 411 329T377 215V212Q433 237 467 265T502 333Q502 350 495 361ZM173 65T204 96T262
171T297 254Q301 270 301 289Q301 324 287 345T247 367Q222 367 195 341T147 270T117 171Q113 148 113 127Q113 65 152 65Q173 65 204 96Z" />
<glyph unicode="&#xe7;" glyph-name="ccedilla" horiz-adv-x="347" d="M290 399T318 383T347 337Q347 314 334 301T296 287Q272 287 261 299T246 332Q241 351 234 361T209 371Q179 371 156 335T123 237Q117 204 117 174Q117 111 143 74T221 36Q241 36 267 45T309
67H310Q313 67 316 64T317 58Q283 25 245 7T169 -13Q165 -24 165 -36Q165 -52 172 -65T188 -89T200 -104Q234 -147 234 -175Q234 -194 221 -217T180 -258T113 -275Q79 -275 56 -262T33 -228Q33 -208 45 -198T75 -188Q93 -188 100 -197T114 -225Q120 -241 125 -248T143
-256Q154 -256 160 -250T169 -232Q170 -215 157 -193T118 -138Q110 -129 110 -114Q110 -103 114 -92T129 -60L152 -13Q87 -10 56 35T24 147Q24 172 29 202Q39 260 74 305T158 374T253 399Q290 399 318 383Z" />
<glyph unicode="&#xe8;" glyph-name="egrave" horiz-adv-x="357" d="M308 399T329 386T350 350Q350 305 284 266T123 208Q120 186 120 165Q120 105 145 69T219 32Q240 32 264 39T309 63H310Q313 63 315 60T316 55Q280 20 240 4T160 -12Q91 -12 57 30T22 136Q22
158 27 185Q37 239 71 288T158 368T270 399Q308 399 329 386ZM250 328T250 336Q250 353 242 362T218 372Q186 372 162 331T125 224Q240 254 249 324Q250 328 250 336ZM191 727Q190 734 213 734Q235 734 260 728T285 716L261 476Q261 474 257 473T252 475L191 727Z"
/>
<glyph unicode="&#xe9;" glyph-name="eacute" horiz-adv-x="357" d="M308 399T329 386T350 350Q350 305 284 266T123 208Q120 186 120 165Q120 105 145 69T219 32Q240 32 264 39T309 63H310Q313 63 315 60T316 55Q280 20 240 4T160 -12Q91 -12 57 30T22 136Q22
158 27 185Q37 239 71 288T158 368T270 399Q308 399 329 386ZM250 328T250 336Q250 353 242 362T218 372Q186 372 162 331T125 224Q240 254 249 324Q250 328 250 336ZM240 470T235 472T231 476L306 716Q307 722 335 727T387 732Q410 732 406 727L241 473Q240 470
235 472Z" />
<glyph unicode="&#xea;" glyph-name="ecircumflex" horiz-adv-x="357" d="M308 399T329 386T350 350Q350 305 284 266T123 208Q120 186 120 165Q120 105 145 69T219 32Q240 32 264 39T309 63H310Q313 63 315 60T316 55Q280 20 240 4T160 -12Q91 -12 57 30T22 136Q22
158 27 185Q37 239 71 288T158 368T270 399Q308 399 329 386ZM250 328T250 336Q250 353 242 362T218 372Q186 372 162 331T125 224Q240 254 249 324Q250 328 250 336ZM338 478Q338 475 333 475T326 477L273 584L179 474Q178 473 175 473Q172 473 170 474T168 478L287
727Q290 732 298 732Q306 732 306 727L338 478Z" />
<glyph unicode="&#xeb;" glyph-name="edieresis" horiz-adv-x="357" d="M308 399T329 386T350 350Q350 305 284 266T123 208Q120 186 120 165Q120 105 145 69T219 32Q240 32 264 39T309 63H310Q313 63 315 60T316 55Q280 20 240 4T160 -12Q91 -12 57 30T22 136Q22
158 27 185Q37 239 71 288T158 368T270 399Q308 399 329 386ZM250 328T250 336Q250 353 242 362T218 372Q186 372 162 331T125 224Q240 254 249 324Q250 328 250 336ZM152 464T138 478T124 519Q124 543 138 556T178 570Q202 570 215 557T229 519Q229 493 216 479T178
464Q152 464 138 478ZM311 464T297 478T283 519Q283 543 297 556T337 570Q361 570 374 557T388 519Q388 493 375 479T337 464Q311 464 297 478Z" />
<glyph unicode="&#xec;" glyph-name="igrave" horiz-adv-x="247" d="M58 -9T58 47Q58 62 63 89L104 297Q107 311 107 320Q107 333 102 339T89 346Q68 346 32 306Q31 305 29 305Q25 305 23 308T23 315Q59 357 88 376T145 395Q193 395 193 343Q193 326 189 309L147
89Q145 80 145 66Q145 42 160 42Q170 42 182 51T213 77Q215 79 217 79Q220 79 222 76T221 69Q187 29 161 10T106 -9Q58 -9 58 47ZM353 727Q352 734 375 734Q397 734 422 728T447 716L423 476Q423 474 419 473T414 475L353 727Z" />
<glyph unicode="&#xed;" glyph-name="iacute" horiz-adv-x="247" d="M58 -9T58 47Q58 62 63 89L104 297Q107 311 107 320Q107 333 102 339T89 346Q68 346 32 306Q31 305 29 305Q25 305 23 308T23 315Q59 357 88 376T145 395Q193 395 193 343Q193 326 189 309L147
89Q145 80 145 66Q145 42 160 42Q170 42 182 51T213 77Q215 79 217 79Q220 79 222 76T221 69Q187 29 161 10T106 -9Q58 -9 58 47ZM146 470T141 472T137 476L212 716Q213 722 241 727T293 732Q316 732 312 727L147 473Q146 470 141 472Z" />
<glyph unicode="&#xee;" glyph-name="icircumflex" horiz-adv-x="247" d="M58 -9T58 47Q58 62 63 89L104 297Q107 311 107 320Q107 333 102 339T89 346Q68 346 32 306Q31 305 29 305Q25 305 23 308T23 315Q59 357 88 376T145 395Q193 395 193 343Q193 326 189
309L147 89Q145 80 145 66Q145 42 160 42Q170 42 182 51T213 77Q215 79 217 79Q220 79 222 76T221 69Q187 29 161 10T106 -9Q58 -9 58 47ZM244 477Q244 475 239 475T232 476L179 584L85 474Q83 472 81 472Q78 472 76 473T74 477L194 726Q195 731 204 731Q212 731
212 726L244 477Z" />
<glyph unicode="&#xef;" glyph-name="idieresis" horiz-adv-x="247" d="M58 -9T58 47Q58 62 63 89L104 297Q107 311 107 320Q107 333 102 339T89 346Q68 346 32 306Q31 305 29 305Q25 305 23 308T23 315Q59 357 88 376T145 395Q193 395 193 343Q193 326 189 309L147
89Q145 80 145 66Q145 42 160 42Q170 42 182 51T213 77Q215 79 217 79Q220 79 222 76T221 69Q187 29 161 10T106 -9Q58 -9 58 47ZM320 464T305 478T290 519Q290 543 305 557T345 571Q369 571 382 557T396 519Q396 493 383 479T345 464Q320 464 305 478ZM473 464T460
478T446 519Q446 543 459 556T498 570Q522 570 535 557T549 519Q549 493 536 479T498 464Q473 464 460 478Z" />
<glyph unicode="&#xf0;" glyph-name="eth" horiz-adv-x="401" d="M407 648T413 637T415 625L322 581Q356 521 374 451T393 309Q393 256 385 216Q372 142 337 91T254 13T154 -13Q88 -13 52 29T15 138Q15 159 20 186Q33 255 69 303T153 375T242 399Q268 399 290
390Q280 482 259 551L142 495H141Q136 495 131 504T130 516L251 574Q220 667 172 712L171 714Q171 719 177 723T186 725Q259 682 310 601L404 646Q407 648 413 637ZM219 11T246 58T288 204Q293 246 293 272Q293 378 228 378Q191 378 160 334T119 215Q116 185 116
158Q116 93 133 52T181 11Q219 11 246 58Z" />
<glyph unicode="&#xf1;" glyph-name="ntilde" horiz-adv-x="475" d="M448 79T449 79Q452 79 454 76T454 69Q420 29 394 10T339 -9Q291 -9 291 47Q291 62 296 89L325 248Q330 276 330 293Q330 342 298 342Q270 342 240 306T184 199T139 31L136 12Q131 -8 80 -8Q47
-8 47 0L51 21Q61 68 62 74L103 297Q105 306 105 319Q105 346 88 346Q67 346 30 306Q29 305 27 305Q24 305 22 308T22 315Q58 357 86 376T144 395Q191 395 191 342Q191 327 188 309L172 218Q207 305 252 352T349 399Q418 399 418 316Q418 297 413 267L380 89Q377
74 377 65Q377 42 393 42Q403 42 415 51T446 77Q448 79 449 79ZM148 470Q146 470 144 472T142 477Q164 511 188 534T241 558Q252 558 288 548Q306 542 326 538T362 533Q383 533 396 539T425 560Q425 561 427 561Q429 561 431 558T432 553Q402 505 383 489T337 473Q318
473 281 484Q264 489 246 493T212 497Q188 497 178 492T149 470H148Z" />
<glyph unicode="&#xf2;" glyph-name="ograve" horiz-adv-x="408" d="M92 -14T58 28T23 139Q23 169 28 193Q39 253 71 300T150 373T249 399Q316 399 351 359T387 250Q387 223 381 193Q368 127 334 81T253 10T158 -14Q92 -14 58 28ZM224 11T247 48T282 149Q289 188
289 228Q289 293 270 334T216 375Q186 375 163 340T127 236Q120 197 120 157Q120 92 139 52T192 11Q224 11 247 48ZM193 727Q192 734 215 734Q237 734 262 728T287 716L263 476Q263 474 259 473T254 475L193 727Z" />
<glyph unicode="&#xf3;" glyph-name="oacute" horiz-adv-x="408" d="M92 -14T58 28T23 139Q23 169 28 193Q39 253 71 300T150 373T249 399Q316 399 351 359T387 250Q387 223 381 193Q368 127 334 81T253 10T158 -14Q92 -14 58 28ZM224 11T247 48T282 149Q289 188
289 228Q289 293 270 334T216 375Q186 375 163 340T127 236Q120 197 120 157Q120 92 139 52T192 11Q224 11 247 48ZM242 470T237 472T233 476L308 716Q309 722 337 727T389 732Q412 732 408 727L243 473Q242 470 237 472Z" />
<glyph unicode="&#xf4;" glyph-name="ocircumflex" horiz-adv-x="408" d="M92 -14T58 28T23 139Q23 169 28 193Q39 253 71 300T150 373T249 399Q316 399 351 359T387 250Q387 223 381 193Q368 127 334 81T253 10T158 -14Q92 -14 58 28ZM224 11T247 48T282 149Q289
188 289 228Q289 293 270 334T216 375Q186 375 163 340T127 236Q120 197 120 157Q120 92 139 52T192 11Q224 11 247 48ZM340 478Q340 475 335 475T328 477L275 584L181 474Q180 473 177 473Q174 473 172 474T170 478L289 727Q292 732 300 732Q308 732 308 727L340
478Z" />
<glyph unicode="&#xf5;" glyph-name="otilde" horiz-adv-x="408" d="M92 -14T58 28T23 139Q23 169 28 193Q39 253 71 300T150 373T249 399Q316 399 351 359T387 250Q387 223 381 193Q368 127 334 81T253 10T158 -14Q92 -14 58 28ZM224 11T247 48T282 149Q289 188
289 228Q289 293 270 334T216 375Q186 375 163 340T127 236Q120 197 120 157Q120 92 139 52T192 11Q224 11 247 48ZM119 470Q117 470 115 472T113 477Q135 511 159 534T212 558Q223 558 259 548Q277 542 297 538T333 533Q354 533 367 539T396 560Q396 561 398 561Q400
561 402 558T403 553Q373 505 354 489T308 473Q289 473 252 484Q235 489 217 493T183 497Q159 497 149 492T120 470H119Z" />
<glyph unicode="&#xf6;" glyph-name="odieresis" horiz-adv-x="408" d="M92 -14T58 28T23 139Q23 169 28 193Q39 253 71 300T150 373T249 399Q316 399 351 359T387 250Q387 223 381 193Q368 127 334 81T253 10T158 -14Q92 -14 58 28ZM224 11T247 48T282 149Q289
188 289 228Q289 293 270 334T216 375Q186 375 163 340T127 236Q120 197 120 157Q120 92 139 52T192 11Q224 11 247 48ZM154 464T140 478T126 519Q126 543 140 556T180 570Q204 570 217 557T231 519Q231 493 218 479T180 464Q154 464 140 478ZM313 464T299 478T285
519Q285 543 299 556T339 570Q363 570 376 557T390 519Q390 493 377 479T339 464Q313 464 299 478Z" />
<glyph unicode="&#xf7;" glyph-name="divide" horiz-adv-x="394" d="M173 309T158 324T142 366Q142 391 157 405T199 420Q225 420 239 406T254 366Q254 339 240 324T199 309Q173 309 158 324ZM32 178T31 186T29 203Q29 211 30 218T33 225H364Q366 225 367 218T369
202Q369 193 368 186T364 178H34Q32 178 31 186ZM174 -8T159 7T143 49Q143 74 158 88T200 103Q226 103 240 89T255 49Q255 22 241 7T200 -8Q174 -8 159 7Z" />
<glyph unicode="&#xf8;" glyph-name="oslash" horiz-adv-x="408" d="M388 403Q392 403 399 397T404 387L362 344Q387 307 387 250Q387 223 381 193Q368 127 334 81T253 10T158 -14Q92 -14 57 29L12 -18H11Q6 -18 -1 -11T-5 0L43 49Q23 85 23 138Q23 161 28 193Q39
253 71 300T150 373T249 399Q313 399 348 362L386 402L388 403ZM120 198T120 158Q120 138 121 129L283 296Q275 333 258 354T216 375Q186 375 163 340T127 236Q120 198 120 158ZM289 185T289 226Q289 241 287 267L125 99Q132 58 149 35T192 11Q224 11 247 48T282
149Q289 185 289 226Z" />
<glyph unicode="&#xf9;" glyph-name="ugrave" horiz-adv-x="476" d="M447 81T449 81Q452 81 454 78T454 71Q418 29 390 10T332 -9Q285 -9 285 44Q285 59 288 77L304 168Q269 81 224 34T127 -13Q58 -13 58 69Q58 95 63 119L98 297Q101 312 101 321Q101 344 85 344Q75
344 64 336T33 309Q31 307 29 307Q26 307 24 310T25 317Q59 357 84 376T138 395Q187 395 187 338Q187 324 182 297L151 138Q146 116 146 93Q146 44 178 44Q206 44 236 80T292 187T337 355L340 374Q345 394 396 394Q413 394 421 392T429 386L425 365Q415 318 414
312L373 89Q371 80 371 67Q371 40 388 40Q409 40 446 80Q447 81 449 81ZM215 727Q214 734 237 734Q259 734 284 728T309 716L285 476Q285 474 281 473T276 475L215 727Z" />
<glyph unicode="&#xfa;" glyph-name="uacute" horiz-adv-x="476" d="M447 81T449 81Q452 81 454 78T454 71Q418 29 390 10T332 -9Q285 -9 285 44Q285 59 288 77L304 168Q269 81 224 34T127 -13Q58 -13 58 69Q58 95 63 119L98 297Q101 312 101 321Q101 344 85 344Q75
344 64 336T33 309Q31 307 29 307Q26 307 24 310T25 317Q59 357 84 376T138 395Q187 395 187 338Q187 324 182 297L151 138Q146 116 146 93Q146 44 178 44Q206 44 236 80T292 187T337 355L340 374Q345 394 396 394Q413 394 421 392T429 386L425 365Q415 318 414
312L373 89Q371 80 371 67Q371 40 388 40Q409 40 446 80Q447 81 449 81ZM264 470T259 472T255 476L330 716Q331 722 359 727T411 732Q434 732 430 727L265 473Q264 470 259 472Z" />
<glyph unicode="&#xfb;" glyph-name="ucircumflex" horiz-adv-x="476" d="M447 81T449 81Q452 81 454 78T454 71Q418 29 390 10T332 -9Q285 -9 285 44Q285 59 288 77L304 168Q269 81 224 34T127 -13Q58 -13 58 69Q58 95 63 119L98 297Q101 312 101 321Q101 344
85 344Q75 344 64 336T33 309Q31 307 29 307Q26 307 24 310T25 317Q59 357 84 376T138 395Q187 395 187 338Q187 324 182 297L151 138Q146 116 146 93Q146 44 178 44Q206 44 236 80T292 187T337 355L340 374Q345 394 396 394Q413 394 421 392T429 386L425 365Q415
318 414 312L373 89Q371 80 371 67Q371 40 388 40Q409 40 446 80Q447 81 449 81ZM362 478Q362 475 357 475T350 477L297 584L203 474Q202 473 199 473Q196 473 194 474T192 478L311 727Q314 732 322 732Q330 732 330 727L362 478Z" />
<glyph unicode="&#xfc;" glyph-name="udieresis" horiz-adv-x="476" d="M447 81T449 81Q452 81 454 78T454 71Q418 29 390 10T332 -9Q285 -9 285 44Q285 59 288 77L304 168Q269 81 224 34T127 -13Q58 -13 58 69Q58 95 63 119L98 297Q101 312 101 321Q101 344 85
344Q75 344 64 336T33 309Q31 307 29 307Q26 307 24 310T25 317Q59 357 84 376T138 395Q187 395 187 338Q187 324 182 297L151 138Q146 116 146 93Q146 44 178 44Q206 44 236 80T292 187T337 355L340 374Q345 394 396 394Q413 394 421 392T429 386L425 365Q415
318 414 312L373 89Q371 80 371 67Q371 40 388 40Q409 40 446 80Q447 81 449 81ZM176 464T162 478T148 519Q148 543 162 556T202 570Q226 570 239 557T253 519Q253 493 240 479T202 464Q176 464 162 478ZM335 464T321 478T307 519Q307 543 321 556T361 570Q385
570 398 557T412 519Q412 493 399 479T361 464Q335 464 321 478Z" />
<glyph unicode="&#xfd;" glyph-name="yacute" horiz-adv-x="453" d="M393 396T407 378T421 326Q421 252 340 103T155 -163T-15 -281Q-74 -281 -74 -234Q-74 -206 -59 -191T-15 -175Q0 -175 26 -187Q29 -188 41 -193T65 -198Q82 -198 99 -186Q125 -169 164 -118V-71Q164
124 137 231T63 339Q51 339 39 330T18 308Q17 305 12 305Q5 305 6 311Q23 347 58 371T122 395Q160 395 188 351T231 229T246 55Q246 17 245 -3Q284 59 312 112T347 191Q353 215 353 232Q353 253 347 266T330 296Q320 311 315 320T310 345Q310 368 326 382T368 396Q393
396 407 378ZM248 470T243 472T239 476L314 716Q315 722 343 727T395 732Q418 732 414 727L249 473Q248 470 243 472Z" />
<glyph unicode="&#xfe;" glyph-name="thorn" horiz-adv-x="411" d="M338 393T366 365T395 285Q395 264 393 253Q383 186 345 128T253 34T145 -1Q131 -1 105 1L73 -178Q69 -202 69 -207Q69 -222 76 -228T99 -235Q104 -235 120 -233Q124 -233 125 -238T123 -244L-67
-275Q-70 -276 -71 -270T-69 -263Q-49 -258 -40 -252T-26 -231T-15 -185L71 294Q42 276 20 260Q19 259 17 259Q13 259 11 263T13 270Q38 292 75 316L124 589Q128 609 128 625Q128 650 110 650Q95 650 69 637H68Q63 637 62 642T64 649L220 725H222Q226 725 229 722T232
717L170 368Q231 393 285 393Q338 393 366 365ZM304 227T304 242Q304 287 283 315T216 344Q189 344 164 337L112 43Q145 29 182 29Q231 29 262 81T303 220Q304 227 304 242Z" />
<glyph unicode="&#xff;" glyph-name="ydieresis" horiz-adv-x="453" d="M393 396T407 378T421 326Q421 252 340 103T155 -163T-15 -281Q-74 -281 -74 -234Q-74 -206 -59 -191T-15 -175Q0 -175 26 -187Q29 -188 41 -193T65 -198Q82 -198 99 -186Q125 -169 164 -118V-71Q164
124 137 231T63 339Q51 339 39 330T18 308Q17 305 12 305Q5 305 6 311Q23 347 58 371T122 395Q160 395 188 351T231 229T246 55Q246 17 245 -3Q284 59 312 112T347 191Q353 215 353 232Q353 253 347 266T330 296Q320 311 315 320T310 345Q310 368 326 382T368 396Q393
396 407 378ZM160 464T146 478T132 519Q132 543 146 556T186 570Q210 570 223 557T237 519Q237 493 224 479T186 464Q160 464 146 478ZM319 464T305 478T291 519Q291 543 305 556T345 570Q369 570 382 557T396 519Q396 493 383 479T345 464Q319 464 305 478Z" />
<glyph unicode="&#x2013;" glyph-name="endash" horiz-adv-x="515" d="M32 166T31 174T29 191Q29 199 30 206T33 213H481Q483 213 484 206T486 190Q486 181 485 174T481 166H34Q32 166 31 174Z" />
<glyph unicode="&#x2014;" glyph-name="emdash" horiz-adv-x="830" d="M32 166T31 174T29 191Q29 199 30 206T33 213H796Q798 213 799 206T801 190Q801 181 800 174T796 166H34Q32 166 31 174Z" />
<glyph unicode="&#x2018;" glyph-name="quoteleft" horiz-adv-x="154" d="M176 646T178 646Q181 646 183 642T182 636Q115 577 104 510Q103 505 103 497Q103 489 104 486Q111 493 128 493Q153 493 167 477T181 439Q181 415 166 398T120 381Q89 381 73 400T56 453Q56
473 60 490Q68 529 100 572T175 645Q176 646 178 646Z" />
<glyph unicode="&#x2019;" glyph-name="quoteright" horiz-adv-x="150" d="M168 635T184 616T201 563Q201 543 197 526Q189 487 157 444T82 371Q81 370 79 370Q76 370 74 374T75 380Q142 439 153 506Q155 516 155 520Q155 524 153 530Q146 523 129 523Q104 523
90 539T76 577Q76 601 91 618T137 635Q168 635 184 616Z" />
<glyph unicode="&#x201a;" glyph-name="quotesinglbase" horiz-adv-x="143" d="M333 104T349 85T366 32Q366 12 362 -5Q354 -44 322 -87T247 -160Q246 -161 244 -161Q241 -161 239 -157T240 -151Q307 -92 318 -25Q320 -15 320 -12Q320 -7 318 -1Q311 -8 294 -8Q269
-8 255 8T241 46Q241 70 256 87T302 104Q333 104 349 85Z" />
<glyph unicode="&#x201c;" glyph-name="quotedblleft" horiz-adv-x="313" d="M178 646T180 646Q183 646 185 642T184 636Q117 577 106 510Q105 505 105 497Q105 489 106 486Q113 493 130 493Q155 493 169 477T183 439Q183 415 168 398T122 381Q91 381 75 400T58
453Q58 473 62 490Q70 529 102 572T177 645Q178 646 180 646ZM341 646T343 646Q346 646 348 642T347 636Q280 577 269 510Q268 505 268 497Q268 489 269 486Q276 493 293 493Q318 493 332 477T346 439Q346 415 331 398T285 381Q254 381 238 400T221 453Q221 473
225 490Q233 529 265 572T340 645Q341 646 343 646Z" />
<glyph unicode="&#x201d;" glyph-name="quotedblright" horiz-adv-x="313" d="M332 635T348 616T365 563Q365 543 361 526Q353 487 321 444T246 371Q245 370 243 370Q240 370 238 374T239 380Q306 439 317 506Q319 516 319 519Q319 524 317 530Q310 523 293 523Q268
523 254 539T240 577Q240 601 255 618T301 635Q332 635 348 616ZM169 635T185 616T202 563Q202 543 198 526Q190 487 158 444T83 371Q82 370 80 370Q77 370 75 374T76 380Q143 439 154 506Q156 516 156 519Q156 524 154 530Q147 523 130 523Q105 523 91 539T77
577Q77 601 92 618T138 635Q169 635 185 616Z" />
<glyph unicode="&#x201e;" glyph-name="quotedblbase" horiz-adv-x="313" d="M240 104T256 85T273 32Q273 12 269 -5Q261 -44 229 -87T154 -160Q153 -161 151 -161Q148 -161 146 -157T147 -151Q214 -92 225 -25Q227 -15 227 -12Q227 -7 225 -1Q218 -8 201 -8Q176
-8 162 8T148 46Q148 70 163 87T209 104Q240 104 256 85ZM333 104T349 85T366 32Q366 12 362 -5Q354 -44 322 -87T247 -160Q246 -161 244 -161Q241 -161 239 -157T240 -151Q307 -92 318 -25Q320 -15 320 -12Q320 -7 318 -1Q311 -8 294 -8Q269 -8 255 8T241 46Q241
70 256 87T302 104Q333 104 349 85Z" />
<glyph unicode="&#x2022;" glyph-name="bullet" horiz-adv-x="322" d="M122 131T88 165T53 248Q53 279 69 306T112 349T171 365Q202 365 229 349T272 306T288 248Q288 199 254 165T171 131Q122 131 88 165Z" />
<glyph unicode="&#x2039;" glyph-name="guilsinglleft" horiz-adv-x="287" d="M253 364Q256 364 259 361T260 356L150 201L206 47V46Q206 43 203 40T198 40L43 189Q40 192 40 198Q40 206 47 212L251 364H253Z" />
<glyph unicode="&#x203a;" glyph-name="guilsinglright" horiz-adv-x="285" d="M36 37Q33 37 30 40T29 46L139 200L83 354V355Q83 358 86 361T91 361L246 212Q249 209 249 203Q249 195 242 189L37 37H36Z" />
</font>
</defs>
</svg>
