<?xml version="1.0" standalone="no"?>
<!DOCTYPE svg PUBLIC "-//W3C//DTD SVG 1.1//EN" "http://www.w3.org/Graphics/SVG/1.1/DTD/svg11.dtd">
<svg xmlns="http://www.w3.org/2000/svg">
<defs >
<font id="Cormorant" horiz-adv-x="537" ><font-face
    font-family="Cormorant SemiBold"
    units-per-em="1000"
    panose-1="0 0 7 0 0 0 0 0 0 0"
    ascent="924"
    descent="-287"
    alphabetic="0" />
<glyph unicode=" " glyph-name="space" horiz-adv-x="234" />
<glyph unicode="!" glyph-name="exclam" horiz-adv-x="258" d="M65 622T85 625T129 629Q151 629 172 626T191 617Q171 536 161 441T141 209L140 189Q140 185 127 185Q113 185 113 189Q106 329 97 430T67 617Q65 622 85 625ZM98 -11T83 4T68 44Q68 68 83 82T123
97Q149 97 163 83T177 44Q177 18 163 4T123 -11Q98 -11 83 4Z" />
<glyph unicode="&quot;" glyph-name="quotedbl" horiz-adv-x="296" d="M33 607Q32 618 62 629T115 640Q131 640 130 633L71 366Q69 364 63 363T56 365L33 607ZM182 607Q181 618 211 629T264 640Q280 640 279 633L220 366Q218 364 212 363T205 365L182 607Z" />
<glyph unicode="#" glyph-name="numbersign" horiz-adv-x="526" d="M465 318T466 311T468 296Q468 288 467 281T463 274H397L370 120H428Q430 120 431 113T433 98Q433 89 432 82T428 75H362L334 -82Q334 -86 310 -83T288 -75L315 75H175L147 -82Q147 -86 123 -83T101
-75L128 75H63Q61 75 60 82T58 99Q58 107 59 113T62 120H136L163 274H98Q96 274 95 281T93 298Q93 305 94 311T97 318H171L200 482Q200 487 223 482T245 472L218 318H358L387 482Q387 487 410 482T432 472L405 318H463Q465 318 466 311ZM323 120L350 274H210L183
120H323Z" />
<glyph unicode="$" glyph-name="dollar" horiz-adv-x="418" d="M383 73T341 35T231 -11V-102Q231 -109 218 -109Q204 -109 204 -102V-12Q162 -11 124 -1T67 24Q59 28 59 45L52 153V154Q52 158 57 158T64 155Q88 102 124 61T204 11V208L180 221Q140 242 116 258T76
299T59 355Q59 407 100 440T204 479V561Q204 565 208 567T218 569Q223 569 227 567T231 561V480Q259 479 289 473T341 457Q349 453 352 449T356 438L358 346Q358 342 353 341T346 343Q336 373 306 410T231 458V280L252 270Q295 248 321 231T365 189T383 128Q383
73 341 35ZM132 359T151 337T204 295V460Q169 459 151 440T132 390Q132 359 151 337ZM263 12T283 30T304 86Q304 120 285 145T231 192V9Q263 12 283 30Z" />
<glyph unicode="%" glyph-name="percent" horiz-adv-x="574" d="M94 303T58 340T21 433Q21 486 57 523T150 560Q205 560 241 523T277 430Q277 376 241 340T150 303Q94 303 58 340ZM107 -10T93 -1T81 11L451 555Q454 558 468 548T480 536L109 -7Q107 -10 93 -1ZM185
317T194 344T203 423Q203 483 188 514T144 546Q115 546 105 517T94 436Q94 317 157 317Q185 317 194 344ZM371 -5T335 32T298 125Q298 178 335 215T427 253Q482 253 518 215T554 123Q554 69 518 32T427 -5Q371 -5 335 32ZM462 10T471 36T480 116Q480 176 465 207T421
238Q393 238 383 209T372 129Q372 10 434 10Q462 10 471 36Z" />
<glyph unicode="&amp;" glyph-name="ampersand" horiz-adv-x="710" d="M720 11T720 6T716 0H570Q539 0 461 56Q385 -12 266 -12Q199 -12 154 8T87 62T65 133Q65 185 99 224T199 312Q185 334 169 362Q155 391 148 416T140 470Q140 520 162 560T226 623T323 646Q381
646 416 621T452 546Q452 506 430 474T377 419T287 356Q361 244 494 141Q510 182 510 239Q510 290 493 313T432 337Q430 337 430 343T432 349L661 350Q664 350 664 344T661 338Q630 338 614 332T591 312T576 268Q550 178 516 124Q579 77 631 48T716 12Q720 11 720
6ZM222 464T277 373Q317 408 339 445T361 527Q361 571 340 596T283 621Q222 621 222 541Q222 464 277 373ZM399 31T445 69Q425 84 410 96Q355 140 302 192T210 297Q153 245 153 183Q153 143 175 108T238 52T332 31Q399 31 445 69Z" />
<glyph unicode="&apos;" glyph-name="quotesingle" horiz-adv-x="147" d="M33 607Q32 618 62 629T115 640Q131 640 130 633L71 366Q69 364 63 363T56 365L33 607Z" />
<glyph unicode="(" glyph-name="parenleft" horiz-adv-x="309" d="M51 446T110 559T274 725Q276 726 278 724T278 719Q211 649 180 546T149 304Q149 166 180 63T278 -111Q280 -112 278 -115T274 -117Q169 -63 110 49T51 304Q51 446 110 559Z" />
<glyph unicode=")" glyph-name="parenright" horiz-adv-x="309" d="M258 162T199 49T35 -117Q33 -118 31 -116T31 -111Q98 -41 129 62T160 304Q160 442 129 545T31 719Q29 720 31 723T35 725Q140 671 199 559T258 304Q258 162 199 49Z" />
<glyph unicode="*" glyph-name="asterisk" horiz-adv-x="448" d="M209 657Q208 668 243 678T302 689Q313 689 312 685L236 529Q235 526 231 526T226 529L209 657ZM76 535Q66 536 66 569Q66 594 71 619T81 641L207 520Q209 519 208 515T204 511L76 535ZM250 504Q248
504 247 508T248 513L364 569Q373 573 389 551T418 505T424 480L250 504ZM151 368T142 368Q129 368 106 377T66 396T53 409L206 491L208 492Q211 492 213 490T215 485L152 372Q151 368 142 368ZM232 481Q231 483 235 486T241 488L330 393Q336 387 321 365T285 324T264
311L232 481Z" />
<glyph unicode="+" glyph-name="plus" horiz-adv-x="398" d="M366 212T367 205T369 190Q369 181 368 174T364 167H222V25Q222 23 214 22T196 20Q176 20 176 23V167H34Q32 167 31 174T29 191Q29 199 30 205T33 212H176V354Q176 356 183 357T199 359Q208 359 215
358T222 354V212H364Q366 212 367 205Z" />
<glyph unicode="," glyph-name="comma" horiz-adv-x="222" d="M134 94T153 69T172 -4Q172 -48 153 -85T95 -159Q94 -160 92 -160Q89 -160 87 -157T87 -152Q136 -102 136 -34Q136 -6 126 7Q117 -8 91 -8Q69 -8 56 5T43 42Q43 67 58 80T101 94Q134 94 153 69Z" />
<glyph unicode="-" glyph-name="hyphen" horiz-adv-x="323" d="M30 157T29 166T27 186Q27 208 30 208L291 255Q293 256 294 248T296 231Q296 222 295 214T291 205L32 158Q30 157 29 166Z" />
<glyph unicode="." glyph-name="period" horiz-adv-x="204" d="M78 -11T63 4T48 44Q48 68 63 82T103 97Q129 97 143 83T157 44Q157 18 143 4T103 -11Q78 -11 63 4Z" />
<glyph unicode="/" glyph-name="slash" horiz-adv-x="348" d="M69 -168T47 -162T26 -152L278 730Q280 734 301 728T322 717L71 -164Q69 -168 47 -162Z" />
<glyph unicode="0" glyph-name="zero" horiz-adv-x="477" d="M179 -13T131 14T56 88T29 195Q29 254 56 300T131 373T240 399Q301 399 348 373T421 299T448 193Q448 134 422 87T348 14T240 -13Q179 -13 131 14ZM301 6T327 52T353 180Q353 280 318 330T231 380Q180
380 152 333T123 205Q123 117 158 62T250 6Q301 6 327 52Z" />
<glyph unicode="1" glyph-name="one" horiz-adv-x="332" d="M43 0T43 6T46 12Q86 12 105 17T131 36T138 81V260Q138 295 133 309T110 323Q93 323 43 302H42Q38 302 36 307T38 313L210 395Q211 396 213 396Q216 396 218 394T220 388V81Q220 50 226 36T250 17T310
12Q313 12 313 6T310 0Q275 0 255 1L178 2L101 1Q81 0 46 0Q43 0 43 6Z" />
<glyph unicode="2" glyph-name="two" horiz-adv-x="402" d="M125 101T167 143T227 216T246 279Q246 318 225 344T168 371Q130 371 105 339T58 241Q58 240 54 240Q45 240 46 243L88 408Q88 410 92 410Q95 410 97 409T99 406Q98 401 98 394Q98 378 113 378Q122 378
143 385Q187 399 220 399Q274 399 304 373T335 303Q335 267 313 234T260 174T174 105Q162 96 153 89T137 77Q133 74 134 72T141 70Q232 70 273 73T336 87T365 125Q365 127 370 127Q377 127 377 124L358 11Q358 7 356 4T349 0H43Q38 0 36 9T37 23Q125 101 167 143Z"
/>
<glyph unicode="3" glyph-name="three" horiz-adv-x="392" d="M288 121T323 82T358 -11Q358 -59 325 -108T224 -202T56 -275Q52 -276 50 -271T51 -264Q164 -222 213 -156T262 -23Q262 34 233 70T150 106Q130 106 107 100Q104 99 102 105T103 112Q175 131 207 167T240
268Q240 318 223 345T171 373Q129 373 96 344T42 258Q41 257 38 257Q29 257 30 261L67 407Q69 409 71 409Q74 409 77 408T79 405Q77 397 77 394Q77 377 94 377Q106 377 127 385Q150 392 166 395T204 399Q262 399 295 366T328 285Q328 237 299 195T219 131Q288 121
323 82Z" />
<glyph unicode="4" glyph-name="four" horiz-adv-x="454" d="M422 47T422 30Q422 20 420 11T416 1L392 2Q360 4 344 4V-141Q344 -151 336 -155L270 -188Q264 -190 264 -190Q261 -190 261 -182V7Q200 8 32 8Q27 8 24 12T25 20L329 396Q331 398 335 398Q338 398
341 397T344 392V44L418 47Q422 47 422 30ZM213 41T261 42V262L84 48Q78 41 89 41Q213 41 261 42Z" />
<glyph unicode="5" glyph-name="five" horiz-adv-x="409" d="M226 195T291 145T357 9Q357 -48 328 -94T235 -184T68 -275H67Q63 -275 61 -271T62 -264Q175 -203 220 -141T266 -8Q266 75 215 121T68 167Q63 167 60 170T58 179L90 357Q91 364 93 365T103 368Q229
383 272 389T327 401T345 423Q346 426 351 426T356 421L336 323Q333 311 328 308T308 305L118 301Q105 301 103 286L87 196Q226 195 291 145Z" />
<glyph unicode="6" glyph-name="six" horiz-adv-x="465" d="M371 286T404 249T437 159Q437 112 409 73T334 10T230 -13Q142 -13 91 45T40 207Q40 301 83 391T208 553T400 661Q404 662 406 657T405 650Q316 607 254 538T161 386T130 222Q130 163 145 115T190 38T257
9Q298 9 322 41T347 131Q347 184 325 216T258 249Q238 249 220 241T178 215Q177 214 175 214Q172 214 169 217T167 222Q223 286 306 286Q371 286 404 249Z" />
<glyph unicode="7" glyph-name="seven" horiz-adv-x="429" d="M166 -231T151 -238L80 -275H79Q76 -275 74 -273T73 -268L335 304Q339 311 331 311Q187 311 131 307T57 290T28 243Q26 241 23 241Q20 241 18 242T16 246L58 413Q59 415 65 415T70 412Q69 408 69 402Q69
392 78 389T117 386H382Q386 386 389 382T391 373L172 -214Q166 -231 151 -238Z" />
<glyph unicode="8" glyph-name="eight" horiz-adv-x="489" d="M358 316T388 294T439 239T460 163Q460 113 431 73T351 10T241 -13Q182 -13 136 9T65 70T40 152Q40 206 76 255T171 334Q137 359 119 387T100 450Q100 491 124 519T184 560T258 574Q301 574 334 559T384
519T402 470Q402 437 377 404T306 347L308 346Q358 316 388 294ZM214 555T196 536T177 487Q177 446 207 417T294 354Q327 405 327 453Q327 498 303 526T244 555Q214 555 196 536ZM318 8T348 42T379 126Q379 166 359 195T314 243T232 294Q200 314 189 321Q161 296
146 259T131 179Q131 133 148 94T197 32T269 8Q318 8 348 42Z" />
<glyph unicode="9" glyph-name="nine" horiz-adv-x="465" d="M120 106T89 126T44 178T29 243Q29 288 52 323T118 379T215 399Q312 399 368 337T425 170Q425 79 382 -10T258 -170T65 -275Q62 -276 60 -271T61 -264Q149 -225 211 -157T304 -7T335 151Q335 203 322
255T278 343T200 379Q159 379 139 349T118 266Q118 209 141 175T210 141Q231 141 248 148T288 174Q289 175 291 175Q294 175 296 172T298 167Q251 106 168 106Q120 106 89 126Z" />
<glyph unicode=":" glyph-name="colon" horiz-adv-x="204" d="M78 -11T63 4T48 44Q48 68 63 82T103 97Q129 97 143 83T157 44Q157 18 143 4T103 -11Q78 -11 63 4ZM78 270T63 285T48 325Q48 349 63 363T103 378Q129 378 143 364T157 325Q157 299 143 285T103 270Q78
270 63 285Z" />
<glyph unicode=";" glyph-name="semicolon" horiz-adv-x="229" d="M141 94T160 69T179 -4Q179 -48 160 -85T102 -159Q101 -160 99 -160Q96 -160 94 -157T94 -152Q143 -102 143 -34Q143 -6 133 7Q124 -8 98 -8Q76 -8 63 5T50 42Q50 67 65 80T108 94Q141 94 160
69ZM80 270T65 285T50 325Q50 349 65 363T105 378Q131 378 145 364T159 325Q159 299 145 285T105 270Q80 270 65 285Z" />
<glyph unicode="&lt;" glyph-name="less" horiz-adv-x="407" d="M377 68T377 45Q377 22 370 25L36 173Q31 176 31 190Q31 205 36 207L370 354Q377 358 377 335Q377 313 370 309L92 190L370 71Q377 68 377 45Z" />
<glyph unicode="=" glyph-name="equal" horiz-adv-x="468" d="M32 237T31 244T29 261Q29 269 30 275T33 282H434Q436 282 437 275T439 260Q439 251 438 244T434 237H34Q32 237 31 244ZM32 97T31 104T29 121Q29 129 30 135T33 142H434Q436 142 437 135T439 120Q439
111 438 104T434 97H34Q32 97 31 104Z" />
<glyph unicode="&gt;" glyph-name="greater" horiz-adv-x="407" d="M376 204T376 189Q376 175 371 172L37 25Q34 24 32 29T30 44Q30 53 32 61T37 70L315 189L37 308Q34 309 32 317T30 334Q30 343 32 349T37 354L371 206Q376 204 376 189Z" />
<glyph unicode="?" glyph-name="question" horiz-adv-x="336" d="M145 608T139 597T130 565Q127 539 117 522T79 504Q56 504 45 517T34 547Q34 579 71 602T164 625Q227 625 269 594T312 506Q312 468 294 443T240 386L222 371Q190 342 176 313T161 248Q161 229
167 194Q168 191 161 190T152 191Q140 218 133 252T126 311Q126 342 136 361T168 406Q191 433 203 456T215 518Q215 558 201 583T163 608Q145 608 139 597ZM126 -11T111 4T96 44Q96 68 111 82T151 97Q177 97 191 83T205 44Q205 18 191 4T151 -11Q126 -11 111 4Z"
/>
<glyph unicode="@" glyph-name="at" horiz-adv-x="726" d="M437 54T421 69T405 113Q405 129 409 144L413 164Q379 113 339 83T264 52Q240 52 224 67T208 116Q208 122 210 138Q218 192 252 243T332 326T418 358Q432 358 445 352T467 335Q490 347 496 365Q498 367
503 367Q513 367 513 364L472 140Q469 127 469 115Q469 78 506 78Q531 78 557 96T600 151T618 236Q618 302 586 357T497 444T370 477Q294 477 238 440T153 339T123 200Q123 119 157 58T253 -36T398 -69Q446 -69 484 -59T565 -20H566Q569 -20 571 -23T571 -28Q520
-71 469 -87T364 -103Q281 -103 213 -70T106 25T67 174Q67 268 114 342T238 458T404 500Q482 500 542 468T634 383T667 267Q667 210 640 161T567 83T467 54Q437 54 421 69ZM327 108T354 133T403 196T433 273Q434 279 434 290Q434 310 426 322T404 335Q367 335 333
290T287 183Q283 166 283 146Q283 108 306 108Q327 108 354 133Z" />
<glyph unicode="A" glyph-name="A" horiz-adv-x="711" d="M716 12T716 6T711 0Q692 0 650 2Q608 4 589 4Q564 4 530 2Q496 0 477 0Q473 0 473 6T477 12Q506 12 519 18T533 40Q533 55 516 91L408 310H227L150 137Q137 107 137 83Q137 48 162 30T232 12Q237 12 237
6T232 0Q214 0 180 2Q142 4 114 4Q87 4 51 2Q19 0 -2 0Q-7 0 -7 6T-2 12Q26 12 45 23T82 62T125 147L340 631Q342 634 349 634Q356 634 357 631L602 137Q637 65 660 39T711 12Q716 12 716 6ZM238 335H396L313 503L238 335Z" />
<glyph unicode="B" glyph-name="B" horiz-adv-x="583" d="M433 342T482 296T531 182Q531 130 503 88T424 21T311 -4Q282 -4 244 -1Q231 0 211 1T166 2L94 1Q75 0 42 0Q39 0 39 6T42 12Q74 12 90 17T112 37T119 81V544Q119 573 113 587T91 607T43 613Q41 613 41
619T43 625L95 624Q139 622 166 622Q194 622 225 625Q236 626 251 627T287 628Q376 628 423 594T471 498Q471 451 440 412T351 351Q433 342 482 296ZM238 608T227 595T215 542V352L257 351Q316 351 346 389T376 489Q376 546 349 577T270 608Q238 608 227 595ZM430
19T430 158Q430 234 391 280T275 326Q239 326 215 324V81Q215 58 221 45T244 26T295 19Q430 19 430 158Z" />
<glyph unicode="C" glyph-name="C" horiz-adv-x="669" d="M464 636T512 628T589 606Q598 603 600 599T604 583L616 453Q616 450 611 449T605 452Q576 530 518 571T380 612Q276 612 217 539T158 343Q158 251 190 174T280 52T409 7Q544 7 614 175Q615 179 620 178T626
174L611 46Q609 34 607 31T595 23Q508 -12 410 -12Q288 -12 207 36T88 160T49 316Q49 410 100 483T237 596T419 636Q464 636 512 628Z" />
<glyph unicode="D" glyph-name="D" horiz-adv-x="700" d="M287 -4T246 -1Q231 0 208 1T156 2L85 1Q66 0 32 0Q30 0 30 6T32 12Q66 12 81 17T103 36T109 81V544Q109 574 104 588T82 607T33 613Q31 613 31 619T33 625L86 624Q130 622 156 622Q196 622 237 625Q287
627 304 627Q406 627 485 587T607 478T651 323Q651 226 606 152T485 37T318 -4Q287 -4 246 -1ZM377 16T430 49T514 146T544 301Q544 387 516 456T435 566T314 607Q272 607 249 602T216 584T205 542V92Q205 51 226 34T308 16Q377 16 430 49Z" />
<glyph unicode="E" glyph-name="E" horiz-adv-x="547" d="M489 158T493 158Q496 158 498 157T501 154Q491 78 491 15Q491 7 488 4T476 0H42Q39 0 39 6T42 12Q76 12 91 17T112 36T118 81V544Q118 574 113 588T91 607T42 613Q39 613 39 619T42 625H458Q468 625 468
616L470 486Q470 484 465 483T458 485Q434 599 319 599H279Q243 599 228 586T213 542V338H309Q419 338 419 412Q419 415 424 415T430 412L429 325L430 278Q432 246 432 226Q432 224 426 224T420 226Q420 312 308 312H213V85Q213 52 225 39T270 26H319Q453 26 489
156Q489 158 493 158Z" />
<glyph unicode="F" glyph-name="F" horiz-adv-x="518" d="M470 486Q470 484 465 483T458 485Q434 599 319 599H279Q243 599 228 586T213 543V326H295Q407 326 407 401Q407 403 413 403T419 401L418 313Q418 282 419 267L420 215Q420 212 414 212T408 215Q408 300
293 300H213V85Q213 53 221 39T252 18T325 12Q327 12 327 6T325 0Q284 0 261 1L163 2L90 1Q71 0 37 0Q34 0 34 6T37 12Q73 12 89 17T112 36T118 81V544Q118 574 113 588T91 607T42 613Q39 613 39 619T42 625H458Q468 625 468 616L470 486Z" />
<glyph unicode="G" glyph-name="G" horiz-adv-x="717" d="M298 -12T217 30T92 144T49 306Q49 402 98 477T234 594T429 636Q476 636 523 628T599 606Q607 602 609 598T613 583L625 453Q625 450 620 449T613 452Q583 527 523 569T382 611Q272 611 213 540T154 343Q154
245 190 168T289 48T432 5Q476 5 500 14T535 49T547 126Q547 178 541 198T515 226T443 233Q437 233 437 241Q437 244 438 246T442 249Q525 244 575 244Q625 244 679 247Q681 247 682 245T684 240Q684 233 679 233Q659 234 651 227T641 196T638 116Q638 71 641 52T645
28Q645 22 643 21T633 16Q507 -12 408 -12Q298 -12 217 30Z" />
<glyph unicode="H" glyph-name="H" horiz-adv-x="762" d="M732 12T732 6T729 0Q695 0 674 1L601 2L516 1Q498 0 468 0Q465 0 465 6T468 12Q506 12 523 17T546 36T552 81V312H209V81Q209 51 215 37T238 17T294 12Q296 12 296 6T294 0Q260 0 241 1L158 2L85 1Q66
0 32 0Q30 0 30 6T32 12Q68 12 85 17T108 36T114 81V544Q114 574 108 588T85 607T33 613Q31 613 31 619T33 625L86 624Q132 622 158 622Q193 622 241 624L294 625Q296 625 296 619T294 613Q257 613 240 607T216 587T209 542V338H552V542Q552 572 546 586T523 607T468
613Q465 613 465 619T468 625L516 624Q564 622 601 622Q628 622 674 624L729 625Q732 625 732 619T729 613Q693 613 677 608T654 588T648 544V81Q648 51 654 37T676 17T729 12Q732 12 732 6Z" />
<glyph unicode="I" glyph-name="I" horiz-adv-x="339" d="M218 50T223 36T243 17T293 12Q296 12 296 6T293 0Q261 0 242 1L168 2L96 1Q77 0 44 0Q41 0 41 6T44 12Q78 12 93 17T115 36T121 81V544Q121 574 115 588T94 607T44 613Q41 613 41 619T44 625L96 624Q140
622 168 622Q199 622 243 624L293 625Q296 625 296 619T293 613Q260 613 245 607T224 587T218 542V81Q218 50 223 36Z" />
<glyph unicode="J" glyph-name="J" horiz-adv-x="333" d="M295 625T295 619T292 613Q264 613 251 607T233 587T228 542V-12Q228 -120 176 -181T28 -243Q-8 -243 -30 -229T-53 -188Q-53 -170 -41 -157T-7 -143Q15 -143 27 -155T49 -190Q56 -206 63 -214T80 -222Q106
-222 118 -186T131 -66V544Q131 574 125 588T100 607T42 613Q40 613 40 619T42 625L102 624Q150 622 178 622Q205 622 247 624L292 625Q295 625 295 619Z" />
<glyph unicode="K" glyph-name="K" horiz-adv-x="653" d="M659 12T659 6T656 0H544L505 -1Q491 -1 481 5T458 27T410 90L369 145L230 327L205 301V81Q205 50 210 36T230 17T280 12Q284 12 284 6T280 0Q248 0 229 1L156 2L85 1Q66 0 32 0Q30 0 30 6T32 12Q66 12
81 17T103 36T109 81V544Q109 574 104 588T82 607T33 613Q31 613 31 619T33 625L86 624Q130 622 156 622Q186 622 230 624L280 625Q283 625 283 619T280 613Q247 613 232 607T211 587T205 542V331L401 529Q432 560 432 581Q432 596 417 604T371 613Q369 613 369
619T371 625L416 624Q460 622 496 622Q535 622 575 624L618 625Q621 625 621 619T618 613Q574 613 522 589T426 523L298 395L445 200Q513 107 547 69T602 21T656 12Q659 12 659 6Z" />
<glyph unicode="L" glyph-name="L" horiz-adv-x="541" d="M204 85Q204 58 208 46T226 30T268 26H328Q399 26 448 65T513 172Q514 175 519 175T524 171Q515 77 515 15Q515 7 512 4T500 0H32Q30 0 30 6T32 12Q66 12 81 17T102 36T108 81V544Q108 574 103 588T81
607T32 613Q30 613 30 619T32 625L83 624Q127 622 155 622Q185 622 229 624L279 625Q282 625 282 619T279 613Q246 613 231 608T210 588T204 543V85Z" />
<glyph unicode="M" glyph-name="M" horiz-adv-x="850" d="M828 12T828 6T826 0Q793 0 773 1L701 2L631 1Q613 0 580 0Q578 0 578 6T580 12Q624 12 639 22T654 64L653 81L633 505L420 7Q418 3 412 3Q407 3 403 7L153 501L144 121Q143 68 164 40T229 12Q232 12 232
6T229 0Q202 0 187 1L132 2L73 1Q58 0 31 0Q28 0 28 6T31 12Q72 12 94 40T118 121L127 551Q109 583 88 598T38 613Q35 613 35 619T38 625L81 624Q94 623 115 623L162 624Q170 625 182 625Q195 625 203 616T228 573L448 144L647 600Q653 614 660 619T677 625Q684
625 695 624T722 623L776 624Q789 625 815 625Q817 625 817 619T815 613Q767 613 746 596T726 538L749 81Q751 50 756 36T777 17T826 12Q828 12 828 6Z" />
<glyph unicode="N" glyph-name="N" horiz-adv-x="732" d="M719 625T719 619T717 613Q677 613 655 585T633 503V-14Q633 -17 628 -18T621 -17L152 528V121Q152 68 173 40T234 12Q236 12 236 6T234 0Q207 0 193 1L140 2L81 1Q65 0 35 0Q32 0 32 6T35 12Q78 12 101
40T125 121V559Q97 589 75 601T28 613Q26 613 26 619T28 625L68 624Q81 623 105 623L169 624Q181 625 198 625Q206 625 210 621T222 605Q239 582 247 573L606 149V503Q606 556 585 584T525 613Q523 613 523 619T525 625L566 624Q598 622 619 622Q639 622 673 624L717
625Q719 625 719 619Z" />
<glyph unicode="O" glyph-name="O" horiz-adv-x="766" d="M273 -12T201 31T89 149T49 312Q49 415 101 488T234 599T401 636Q496 636 568 592T678 474T717 319Q717 228 669 152T541 32T366 -12Q273 -12 201 31ZM460 12T507 44T582 140T610 290Q610 382 580 455T493
569T360 610Q263 610 210 541T156 348Q156 253 187 176T274 56T400 12Q460 12 507 44Z" />
<glyph unicode="P" glyph-name="P" horiz-adv-x="550" d="M208 53T215 39T244 18T312 12Q315 12 315 6T312 0Q271 0 248 1L161 2L89 1Q70 0 37 0Q34 0 34 6T37 12Q71 12 86 17T106 36T112 81V544Q112 574 107 588T86 607T37 613Q34 613 34 619T37 625L89 624Q133
622 160 622Q183 622 216 625Q228 626 248 627T297 628Q396 628 453 586T511 457Q511 394 479 350T396 284T292 262Q264 262 245 267Q242 267 242 272Q242 275 243 278T247 280Q263 276 282 276Q334 276 370 319T406 442Q406 521 369 564T267 608Q243 608 231 603T213
585T208 542V85Q208 53 215 39Z" />
<glyph unicode="Q" glyph-name="Q" horiz-adv-x="766" d="M748 -172T749 -177T749 -183Q704 -195 667 -195Q593 -195 513 -147T374 -12H366Q273 -12 201 31T89 149T49 312Q49 415 101 488T234 599T401 636Q496 636 568 592T678 474T717 319Q717 248 687 185T604
76T483 7Q523 -72 587 -123T710 -175Q727 -175 745 -173Q748 -172 749 -177ZM156 253T187 176T274 56T400 12Q460 12 507 44T582 140T610 290Q610 382 580 455T493 569T360 610Q263 610 210 541T156 348Q156 253 187 176Z" />
<glyph unicode="R" glyph-name="R" horiz-adv-x="690" d="M702 12T702 6T699 0H538Q515 0 453 83T300 317Q284 314 267 314Q230 314 215 315V81Q215 50 220 36T241 17T291 12Q293 12 293 6T291 0Q258 0 240 1L166 2L94 1Q75 0 42 0Q39 0 39 6T42 12Q76 12 91 17T113
36T119 81V544Q119 574 114 588T92 607T43 613Q41 613 41 619T43 625L95 624Q139 622 166 622Q196 622 229 625Q241 626 258 627T295 628Q384 628 432 595T480 502Q480 455 452 413T379 345Q461 219 516 148T615 44T699 12Q702 12 702 6ZM239 339T273 339Q333 339
357 366T381 465Q381 546 354 577T278 609Q242 609 229 595T215 542V343Q239 339 273 339Z" />
<glyph unicode="S" glyph-name="S" horiz-adv-x="507" d="M164 482T182 454T228 404T303 354Q354 322 383 299T433 243T454 164Q454 113 428 73T353 11T242 -12Q200 -12 156 -1T88 26Q79 32 78 45L72 197V198Q72 202 77 202T83 199Q116 116 158 63T267 10Q310
10 339 33T368 112Q368 156 349 189T301 244T223 298Q175 329 148 350T102 403T83 477Q83 529 112 565T187 618T285 636Q319 636 353 630T410 613Q419 610 422 606T425 594L428 458Q428 455 423 454T416 456Q396 517 363 566T262 616Q217 616 191 590T164 519Q164
482 182 454Z" />
<glyph unicode="T" glyph-name="T" horiz-adv-x="640" d="M150 604T111 567T50 453Q50 451 45 451T39 454Q43 493 48 554T53 647Q53 652 58 652T64 647Q64 625 120 625Q206 622 321 622Q380 622 446 624L514 625Q552 625 569 630T592 650Q593 654 598 654T603
650Q600 619 597 556T594 454Q594 451 589 451T582 454Q572 531 535 567T435 604Q407 604 394 599T376 582T371 542V81Q371 50 377 36T401 17T458 12Q461 12 461 6T458 0Q423 0 403 1L321 2L243 1Q222 0 185 0Q183 0 183 6T185 12Q224 12 242 17T267 36T274 81V544Q274
570 269 582T251 599T211 604Q150 604 111 567Z" />
<glyph unicode="U" glyph-name="U" horiz-adv-x="701" d="M571 555T548 584T480 613Q478 613 478 619T480 625L526 624Q564 622 586 622Q604 622 640 624L684 625Q686 625 686 619T684 613Q645 613 624 584T602 503V223Q602 151 572 98T486 15T357 -14Q284 -14
227 14T139 96T107 222V544Q107 574 101 588T80 607T31 613Q28 613 28 619T31 625L83 624Q127 622 154 622Q184 622 228 624L278 625Q281 625 281 619T278 613Q245 613 230 607T208 587T202 542V257Q202 138 251 80T390 21Q475 21 523 73T571 222V503Q571 555 548
584Z" />
<glyph unicode="V" glyph-name="V" horiz-adv-x="662" d="M669 625T669 619T666 613Q630 613 600 586T551 508L357 1Q356 -3 346 -3Q336 -3 335 1L82 542Q64 579 46 596T3 613Q0 613 0 619T3 625L29 624Q51 622 79 622Q149 622 205 624Q221 625 246 625Q249 625
249 619T246 613Q183 613 183 569Q183 552 193 531L379 133L525 512Q534 536 534 555Q534 583 516 598T460 613Q457 613 457 619T460 625L508 624Q546 622 578 622Q597 622 625 624L666 625Q669 625 669 619Z" />
<glyph unicode="W" glyph-name="W" horiz-adv-x="918" d="M925 625T925 619T923 613Q887 613 857 586T807 508L613 1Q612 -3 602 -3Q592 -3 591 1L462 277L357 1Q356 -3 346 -3Q336 -3 335 1L82 542Q61 586 47 599T3 613Q0 613 0 619T3 625L29 624Q51 622 79 622Q135
622 181 624Q195 625 216 625Q219 625 219 619T216 613Q189 613 178 608T166 587Q166 570 184 531L375 124L447 310L338 542Q320 579 305 596T268 613Q265 613 265 619T268 625L292 624Q314 622 336 622Q383 622 419 624Q429 625 445 625Q448 625 448 619T445 613Q429
613 423 610T416 597Q416 581 440 531L494 417L530 512Q548 559 548 583Q548 613 518 613Q515 613 515 619T518 625Q527 625 539 624T583 622Q601 622 625 624L664 625Q666 625 666 619T664 613Q630 613 604 588T557 508L509 384L632 124L778 505Q788 531 788 554Q788
582 772 597T725 613Q722 613 722 619T725 625L769 624Q805 622 834 622Q854 622 880 624L923 625Q925 625 925 619Z" />
<glyph unicode="X" glyph-name="X" horiz-adv-x="649" d="M644 12T644 6T641 0Q613 0 598 1L539 2L458 1Q440 0 407 0Q404 0 404 6T407 12Q446 12 446 29Q446 38 437 51L295 269L195 127Q161 78 161 50Q161 32 175 22T216 12Q218 12 218 6T216 0Q184 0 167 1L95
2L49 1Q37 0 9 0Q6 0 6 6T9 12Q41 12 82 41T168 132L283 288L122 535Q95 577 70 595T15 613Q12 613 12 619T15 625L56 624Q84 622 97 622Q131 622 183 624L238 625Q240 625 240 619T238 613Q218 613 208 610T198 596Q198 588 207 573L344 363L437 495Q472 545 472
575Q472 613 418 613Q416 613 416 619T418 625L467 624Q507 622 539 622Q559 622 585 624L625 625Q628 625 628 619T625 613Q592 613 550 583T464 490L356 344L526 83Q551 45 578 29T641 12Q644 12 644 6Z" />
<glyph unicode="Y" glyph-name="Y" horiz-adv-x="616" d="M623 625T623 619T621 613Q588 613 546 579T471 490L357 305V81Q357 50 362 36T383 17T433 12Q436 12 436 6T433 0Q400 0 382 1L309 2L237 1Q217 0 184 0Q182 0 182 6T184 12Q218 12 233 17T255 36T261
81V287L109 519Q75 572 51 592T3 613Q0 613 0 619T3 625L36 624Q58 622 68 622Q102 622 164 624L226 625Q228 625 228 619T226 613Q185 613 185 585Q185 571 197 553L342 330L444 497Q469 538 469 569Q469 613 414 613Q412 613 412 619T414 625L466 624Q508 622
543 622Q560 622 584 624L621 625Q623 625 623 619Z" />
<glyph unicode="Z" glyph-name="Z" horiz-adv-x="602" d="M424 600Q427 605 427 606T419 608Q285 608 223 601T127 568T67 484Q67 483 63 483Q54 483 55 487L95 655Q95 656 99 656Q109 656 107 653Q106 650 106 645Q106 633 117 629T164 625H529Q534 625 536 620T536
612L176 27Q172 22 173 21T180 19H400Q458 19 501 55T554 147Q555 150 560 150T565 147L551 8Q551 5 549 2T542 -2Q393 0 64 0Q59 0 57 4T58 13L424 600Z" />
<glyph unicode="[" glyph-name="bracketleft" horiz-adv-x="274" d="M74 715Q74 722 75 723T83 725H236Q239 725 239 719T236 713Q202 713 186 707T165 687T159 642V-34Q159 -64 164 -78T186 -99T236 -105Q239 -105 239 -111T236 -117H83Q77 -117 76 -115T74 -106V715Z" />
<glyph unicode="\" glyph-name="backslash" horiz-adv-x="348" d="M26 717Q24 722 46 728T70 730L322 -152Q323 -156 301 -162T277 -164L26 717Z" />
<glyph unicode="]" glyph-name="bracketright" horiz-adv-x="274" d="M200 -113T199 -115T191 -117H38Q35 -117 35 -111T38 -105Q72 -105 88 -99T109 -79T115 -34V642Q115 672 110 686T88 707T38 713Q35 713 35 719T38 725H191Q197 725 198 724T200 715V-106Q200
-113 199 -115Z" />
<glyph unicode="^" glyph-name="asciicircum" horiz-adv-x="392" d="M333 379Q333 377 329 375T324 375L196 522L68 375Q67 374 65 374Q62 374 60 376T58 380L185 629Q186 634 196 634Q206 634 207 629L333 380V379Z" />
<glyph unicode="_" glyph-name="underscore" horiz-adv-x="398" d="M32 -79T31 -71T29 -54Q29 -46 30 -40T33 -33H364Q366 -33 367 -40T369 -56Q369 -65 368 -72T364 -79H34Q32 -79 31 -71Z" />
<glyph unicode="`" glyph-name="grave" horiz-adv-x="213" d="M28 731T41 731Q60 731 87 726T116 716L154 476Q155 474 150 473T144 474L29 727Q28 731 41 731Z" />
<glyph unicode="a" glyph-name="a" horiz-adv-x="420" d="M418 54Q422 54 423 50T420 43L317 -6Q313 -8 308 -8Q294 -8 281 8T263 51L211 23Q153 -7 112 -7Q80 -7 63 9T45 55Q45 86 67 101T151 138L260 175V255Q260 316 246 344T204 373Q150 373 142 294Q137 244
91 244Q48 244 48 281Q48 307 80 333T159 377T241 395Q286 395 313 368T341 285V108Q341 77 351 61T380 45Q395 45 416 54H418ZM261 67Q260 71 260 82V159L189 133Q163 123 152 112T141 83Q141 62 153 50T184 38Q205 38 231 51L261 67Z" />
<glyph unicode="b" glyph-name="b" horiz-adv-x="514" d="M360 399T397 378T457 315T480 213Q480 141 450 90T369 13T263 -13Q185 -13 123 33L38 -6H36Q32 -6 31 -3T33 3Q60 20 72 42T85 103V592Q85 627 78 642T54 658Q42 658 15 646H14Q10 646 8 651T8 658L147
724L152 725Q156 725 161 721T166 714V325Q199 359 235 379T316 399Q360 399 397 378ZM338 7T364 51T390 176Q390 264 359 308T274 353Q223 353 166 307V154Q166 102 185 69T233 22T289 7Q338 7 364 51Z" />
<glyph unicode="c" glyph-name="c" horiz-adv-x="420" d="M168 -12T123 16T55 90T33 186Q33 249 67 296T154 369T263 395Q310 395 348 376T386 325Q386 308 373 296T337 283Q299 283 282 328Q272 353 261 363T226 374Q179 374 152 332T124 218Q124 135 162 84T283
32Q311 32 333 39T381 61H382Q385 61 387 58T388 53Q351 20 315 4T233 -12Q168 -12 123 16Z" />
<glyph unicode="d" glyph-name="d" horiz-adv-x="511" d="M504 62Q507 62 509 57T509 51L381 -11L375 -12Q365 -12 357 8T347 62Q311 28 273 8T190 -13Q147 -13 111 10T54 78T33 181Q33 255 68 304T156 376T262 399Q306 399 346 383V592Q346 627 340 642T316 658Q305
658 276 646H274Q270 646 268 651T268 657L409 724L413 725Q417 725 422 721T427 714V114Q427 79 434 65T458 50Q478 50 503 62H504ZM269 31T294 44T346 81V82V320Q326 348 302 361T243 375Q186 375 155 336T124 212Q124 128 156 80T240 31Q269 31 294 44Z" />
<glyph unicode="e" glyph-name="e" horiz-adv-x="415" d="M380 63Q382 63 384 59T385 53Q349 19 312 4T231 -12Q169 -12 125 14T57 85T33 181Q33 240 62 289T143 366T257 395Q316 395 348 369T380 296Q380 269 369 269H314L126 267Q123 246 123 222Q123 135 163
84T276 32Q302 32 329 39T378 62L380 63ZM188 375T164 351T130 285L286 288Q284 329 268 352T221 375Q188 375 164 351Z" />
<glyph unicode="f" glyph-name="f" horiz-adv-x="305" d="M374 726T405 711T436 669Q436 649 423 638T391 626Q371 626 361 635T341 663Q329 684 317 694T281 705Q231 705 202 640T173 439V377Q225 378 289 386Q292 386 294 379T296 362Q296 353 293 344T286 336Q225
350 173 351V81Q173 50 179 36T205 17T265 12Q269 12 269 6T265 0L198 1Q176 2 131 2L72 1Q57 0 29 0Q25 0 25 6T29 12Q56 12 69 17T87 37T92 81V306Q92 339 79 348T25 357Q22 357 22 366Q22 374 25 374Q62 374 75 383T90 418Q95 581 151 653T319 726Q374 726 405
711Z" />
<glyph unicode="g" glyph-name="g" horiz-adv-x="445" d="M308 30T343 21T404 -13T431 -81Q431 -132 397 -178T304 -253T179 -282Q106 -282 60 -250T14 -165Q14 -129 38 -92T122 -14Q57 5 57 57Q57 83 76 109T133 158Q92 173 69 203T46 270Q46 308 70 336T133
378T212 393Q278 393 320 361Q347 378 373 386T429 395Q436 395 436 369Q436 355 433 340T425 328Q383 344 353 344Q344 344 339 343Q366 313 366 273Q366 237 343 209T281 164T200 148Q172 148 149 154Q123 134 123 106Q123 75 153 63T245 40Q308 30 343 21ZM158
375T145 355T131 295Q131 241 158 203T225 165Q248 165 264 186T280 251Q280 304 251 339T182 375Q158 375 145 355ZM287 -251T322 -218T358 -133Q358 -95 336 -74T281 -45T194 -29Q186 -28 171 -26T144 -20Q123 -39 112 -62T100 -122Q100 -183 135 -217T228 -251Q287
-251 322 -218Z" />
<glyph unicode="h" glyph-name="h" horiz-adv-x="506" d="M490 12T490 6T486 0Q461 0 446 1L389 2L332 1Q317 0 292 0Q289 0 289 6T292 12Q325 12 337 26T349 81V230Q349 340 263 340Q236 340 209 328T160 294V81Q160 40 171 26T217 12Q221 12 221 6T217 0Q192
0 177 1L120 2L63 1Q48 0 23 0Q20 0 20 6T23 12Q56 12 68 26T80 81V592Q80 627 73 642T50 658Q35 658 9 646H8Q5 646 3 651T3 658L142 724L147 725Q151 725 155 721T160 714V314Q232 397 313 397Q368 397 398 364T429 274V81Q429 40 440 26T486 12Q490 12 490 6Z"
/>
<glyph unicode="i" glyph-name="i" horiz-adv-x="266" d="M41 0T41 6T44 12Q78 12 89 26T100 81V263Q100 297 93 312T69 328Q54 328 30 316H29Q25 316 23 321T24 328L168 395L171 396Q175 396 179 392T184 384V363Q182 321 182 264V81Q182 40 193 26T239 12Q242
12 242 6T239 0Q214 0 199 1L141 2L83 1Q69 0 44 0Q41 0 41 6ZM110 501T96 515T81 555Q81 580 95 593T136 607Q161 607 175 594T189 555Q189 529 176 515T136 501Q110 501 96 515Z" />
<glyph unicode="j" glyph-name="j" horiz-adv-x="261" d="M181 363Q179 321 179 264V-48Q179 -116 164 -159T113 -232T13 -282Q11 -283 9 -278T9 -271Q57 -250 77 -204T97 -71V263Q97 298 91 313T68 328Q52 328 28 316H27Q23 316 21 321T21 328L165 395L168 396Q172
396 176 392T181 384V363ZM105 501T91 515T76 555Q76 580 90 593T131 607Q156 607 170 594T184 555Q184 529 171 515T131 501Q105 501 91 515Z" />
<glyph unicode="k" glyph-name="k" horiz-adv-x="491" d="M495 12T495 6T492 0Q467 0 452 1L395 2L320 1Q303 0 274 0Q272 0 272 6T274 12Q315 12 315 33Q315 42 307 53L190 207L160 181V81Q160 40 171 26T217 12Q221 12 221 6T217 0Q192 0 177 1L120 2L63 1Q48
0 23 0Q20 0 20 6T23 12Q56 12 68 26T80 81V592Q80 627 73 642T50 658Q35 658 9 646H8Q5 646 3 651T3 658L142 724L147 725Q151 725 155 721T160 714V202L267 298Q295 322 295 345Q295 358 284 366T251 374Q248 374 248 380T251 386Q279 386 295 385L371 384L442
385Q456 386 480 386Q483 386 483 380T480 374Q439 374 387 354T291 294L248 257L381 81Q409 44 436 28T492 12Q495 12 495 6Z" />
<glyph unicode="l" glyph-name="l" horiz-adv-x="265" d="M34 0T34 6T37 12Q70 12 82 26T94 81V592Q94 627 88 642T64 658Q49 658 24 646H23Q19 646 17 651T17 658L158 724L162 725Q166 725 171 721T177 714V81Q177 40 188 26T233 12Q236 12 236 6T233 0Q209 0
194 1L135 2L77 1Q62 0 37 0Q34 0 34 6Z" />
<glyph unicode="m" glyph-name="m" horiz-adv-x="772" d="M757 12T757 6T753 0Q728 0 713 1L656 2L599 1Q584 0 559 0Q556 0 556 6T559 12Q592 12 604 26T616 81V230Q616 286 597 313T537 340Q510 340 483 327T436 292V282V81Q436 40 447 26T493 12Q496 12 496
6T493 0Q468 0 453 1L395 2L338 1Q323 0 298 0Q295 0 295 6T298 12Q332 12 343 26T355 81V230Q355 286 336 313T276 340Q251 340 225 328T179 296V81Q179 40 190 26T235 12Q238 12 238 6T235 0Q210 0 196 1L138 2L80 1Q66 0 41 0Q38 0 38 6T41 12Q75 12 86 26T97
81V272Q97 304 90 319T65 334Q50 334 15 319H14Q10 319 8 324T9 330L140 394Q146 396 147 396Q157 396 167 374T179 315Q246 397 325 397Q371 397 399 375T434 309Q505 397 586 397Q639 397 667 367T696 274V81Q696 40 707 26T753 12Q757 12 757 6Z" />
<glyph unicode="n" glyph-name="n" horiz-adv-x="523" d="M507 12T507 6T504 0Q479 0 465 1L407 2L350 1Q335 0 310 0Q307 0 307 6T310 12Q344 12 355 26T366 81V231Q366 287 346 313T281 340Q255 340 228 328T179 296V81Q179 40 190 26T235 12Q238 12 238 6T235
0Q210 0 196 1L138 2L80 1Q66 0 41 0Q38 0 38 6T41 12Q75 12 86 26T97 81V272Q97 304 90 319T65 334Q50 334 15 319H14Q10 319 8 324T9 330L140 394Q146 396 147 396Q157 396 167 374T179 315Q249 398 331 398Q386 398 417 365T448 274V81Q448 40 459 26T504 12Q507
12 507 6Z" />
<glyph unicode="o" glyph-name="o" horiz-adv-x="486" d="M175 -13T129 15T58 92T33 198Q33 263 65 308T148 376T252 399Q313 399 358 370T428 294T452 192Q452 132 423 85T343 13T235 -13Q175 -13 129 15ZM309 7T332 46T356 160Q356 227 338 277T288 353T219
379Q174 379 151 342T128 233Q128 168 145 117T194 36T265 7Q309 7 332 46Z" />
<glyph unicode="p" glyph-name="p" horiz-adv-x="512" d="M212 -13T167 2V-194Q167 -224 174 -238T200 -257T260 -263Q262 -263 262 -269T260 -275Q224 -275 204 -274L126 -273L69 -274Q54 -275 28 -275Q25 -275 25 -269T28 -263Q53 -263 65 -258T81 -238T86 -194V271Q86
304 79 319T53 334Q36 334 5 320H3Q-1 320 -3 324T-3 331L129 394Q131 395 135 395Q146 395 155 377T166 326Q243 399 322 399Q364 399 400 377T457 313T479 215Q479 136 446 85T362 11T260 -13Q212 -13 167 2ZM213 349T167 306V304V65Q191 39 217 25T282 11Q332
11 361 54T390 184Q390 263 354 306T264 349Q213 349 167 306Z" />
<glyph unicode="q" glyph-name="q" horiz-adv-x="497" d="M488 -263T488 -269T485 -275Q460 -275 445 -274L386 -273L319 -274Q300 -275 267 -275Q265 -275 265 -269T267 -263Q301 -263 317 -258T340 -238T346 -194V61Q312 27 277 7T196 -13Q152 -13 115 8T56
71T33 172Q33 246 65 297T148 374T255 399Q334 399 395 360L471 388L473 389Q476 389 477 384T475 378Q450 365 438 346T426 295V-194Q426 -224 430 -238T447 -257T485 -263Q488 -263 488 -269ZM290 33T346 80V265Q346 320 311 349T231 379Q178 379 151 336T124
209Q124 122 154 78T238 33Q290 33 346 80Z" />
<glyph unicode="r" glyph-name="r" horiz-adv-x="374" d="M314 396T335 381T356 345Q356 326 345 314T313 302Q300 302 292 307T274 323Q265 332 258 336T241 341Q230 341 218 333T179 297V81Q179 53 187 39T214 18T270 12Q274 12 274 6T270 0Q237 0 217 1L138
2L80 1Q66 0 41 0Q38 0 38 6T41 12Q75 12 86 26T97 81V272Q97 304 90 319T65 334Q50 334 15 319H14Q10 319 8 324T9 330L140 394Q146 396 147 396Q157 396 167 375T179 318Q218 362 244 379T291 396Q314 396 335 381Z" />
<glyph unicode="s" glyph-name="s" horiz-adv-x="337" d="M112 303T133 282T196 238Q232 218 251 205T285 170T300 117Q300 83 283 54T233 7T153 -11Q98 -11 52 17Q46 23 46 29L44 121Q44 124 49 124T56 123Q73 73 107 41T181 9Q206 9 220 22T234 61Q234 99 212
121T148 166Q114 184 95 196T63 230T49 284Q49 341 90 369T191 397Q230 397 271 382Q280 378 280 371Q280 348 279 335L278 287Q278 284 272 284T266 287Q266 307 250 328T209 364T158 378Q112 378 112 334Q112 303 133 282Z" />
<glyph unicode="t" glyph-name="t" horiz-adv-x="337" d="M320 64Q323 64 325 60T325 54Q288 19 255 4T185 -12Q142 -12 113 8T83 77V303Q83 336 73 347T32 358Q31 358 30 360T28 366Q28 369 29 371T32 374Q126 378 150 455Q152 459 158 459T165 455V376Q212 377
298 386Q300 386 302 379T305 362Q305 353 302 344T294 336Q238 349 165 352V110Q165 71 184 53T239 34Q281 34 318 63L320 64Z" />
<glyph unicode="u" glyph-name="u" horiz-adv-x="501" d="M495 63Q498 63 500 58T499 51L368 -12L364 -13Q354 -13 346 9T337 70Q267 -11 189 -11Q135 -11 105 22T75 114V263Q75 331 44 331Q34 331 16 323H15Q11 323 9 328T10 335L137 394L141 395Q145 395 150
391T155 384V157Q155 46 239 46Q264 46 290 58T337 91V263Q337 298 330 314T306 331Q297 331 278 323H277Q273 323 271 328T273 335L399 394Q401 395 404 395Q408 395 413 391T418 384V113Q418 78 425 64T448 50Q460 50 493 62L495 63Z" />
<glyph unicode="v" glyph-name="v" horiz-adv-x="438" d="M448 386T448 380T446 374Q418 374 398 354T358 290L234 0Q232 -5 224 -5Q215 -5 212 0L64 303Q43 347 28 360T-9 374Q-12 374 -12 380T-9 386Q9 386 20 385L78 384L152 385Q168 386 196 386Q199 386 199
380T196 374Q137 374 137 351Q137 345 142 335L257 109L333 292Q340 309 340 325Q340 349 323 361T271 374Q269 374 269 380T271 386Q298 386 312 385L372 384L411 385Q422 386 446 386Q448 386 448 380Z" />
<glyph unicode="w" glyph-name="w" horiz-adv-x="680" d="M691 386T691 380T688 374Q661 374 641 354T601 290L477 1Q477 -3 467 -3Q456 -3 455 1L337 241L234 1Q234 -3 224 -3Q215 -3 212 1L64 303Q42 346 27 360T-9 374Q-12 374 -12 380T-9 386Q9 386 20 385L78
384L146 385Q161 386 187 386Q190 386 190 380T187 374Q134 374 134 351Q134 345 139 335L257 110L323 268L306 303Q284 347 272 360T241 374Q239 374 239 380T241 386Q258 386 269 385L321 384L390 385Q405 386 430 386Q432 386 432 380T430 374Q407 374 394 368T380
350Q380 345 385 335L500 109L575 292Q583 313 583 326Q583 349 565 361T514 374Q511 374 511 380T514 386Q541 386 554 385L614 384L654 385Q664 386 688 386Q691 386 691 380Z" />
<glyph unicode="x" glyph-name="x" horiz-adv-x="440" d="M436 12T436 6T433 0L398 1Q386 2 363 2L294 1Q279 0 252 0Q249 0 249 6T252 12Q278 12 278 26Q278 34 267 51L198 155L155 92Q133 61 133 40Q133 12 181 12Q184 12 184 6T181 0Q154 0 141 1L81 2L41 1Q31
0 7 0Q4 0 4 6T7 12Q36 12 69 35T133 99L186 172L99 303Q77 337 55 355T15 374Q13 374 13 380T15 386Q36 386 46 385L77 384L144 385Q160 386 188 386Q190 386 190 380T188 374Q162 374 162 360Q162 350 173 335L235 241L270 294Q293 328 293 346Q293 374 244 374Q242
374 242 380T244 386Q271 386 285 385L345 384L385 385Q395 386 419 386Q422 386 422 380T419 374Q390 374 357 351T293 287L246 224L340 83Q364 47 389 30T433 12Q436 12 436 6Z" />
<glyph unicode="y" glyph-name="y" horiz-adv-x="430" d="M440 386T440 380T438 374Q408 374 387 350T347 277L232 -28Q196 -124 163 -179T96 -257T21 -281Q-7 -281 -22 -270T-38 -235Q-38 -215 -26 -205T5 -194Q17 -194 25 -197T43 -207Q53 -213 60 -216T79 -219Q102
-219 121 -201T162 -139T214 -17L56 303Q34 346 22 360T-9 374Q-12 374 -12 380T-9 386Q17 386 31 385L70 384L138 385Q153 386 179 386Q182 386 182 380T179 374Q152 374 140 370T127 353Q127 344 132 335L254 83L321 277Q330 303 330 321Q330 374 263 374Q261
374 261 380T263 386Q290 386 304 385L364 384L403 385Q414 386 438 386Q440 386 440 380Z" />
<glyph unicode="z" glyph-name="z" horiz-adv-x="405" d="M265 365Q269 372 260 372Q167 372 116 349T46 271Q46 270 42 270Q34 270 35 274L75 422Q75 423 79 423Q87 423 86 419Q84 411 84 408Q84 395 96 391T135 386H359Q363 386 366 382T367 374L136 24Q133
17 141 17Q216 17 260 27T329 60T364 126Q365 129 370 129T376 126L374 11Q374 7 371 4T364 0H43Q39 0 37 4T36 12L265 365Z" />
<glyph unicode="{" glyph-name="braceleft" horiz-adv-x="289" d="M29 298T29 304T32 311Q71 317 84 376T97 529Q97 615 109 655T153 710T250 725Q254 725 254 719T250 713Q221 713 205 686T188 607Q186 485 180 435T151 357T73 305Q128 281 150 252T179 172T188
1Q189 -50 205 -77T250 -105Q254 -105 254 -111T250 -117Q184 -117 153 -103T109 -47T97 80Q97 175 84 233T32 298Q29 298 29 304Z" />
<glyph unicode="|" glyph-name="bar" horiz-adv-x="168" d="M63 731Q63 738 86 738Q108 738 108 731V-154Q108 -158 102 -160T86 -162Q77 -162 70 -160T63 -154V731Z" />
<glyph unicode="}" glyph-name="braceright" horiz-adv-x="283" d="M212 292T199 234T186 80Q186 -6 174 -47T131 -102T33 -117Q29 -117 29 -111T33 -105Q62 -105 78 -78T95 1Q97 122 103 172T132 251T210 305Q155 328 133 356T104 435T95 607Q94 658 78 685T33
713Q29 713 29 719T33 725Q99 725 130 711T173 656T186 529Q186 435 199 376T251 311Q254 311 254 305T251 298Q212 292 199 234Z" />
<glyph unicode="~" glyph-name="asciitilde" horiz-adv-x="443" d="M342 207T357 217T389 245L391 246Q393 246 395 243T396 238Q359 182 335 163T283 144Q266 144 252 148T209 161Q163 180 129 180Q106 180 94 174T71 157T55 142H54Q52 142 50 144T48 149Q109
243 168 243Q181 243 198 238T231 227Q256 217 275 212T314 207Q342 207 357 217Z" />
<glyph unicode="&#xa0;" glyph-name="uni00A0" horiz-adv-x="234" />
<glyph unicode="&#xa1;" glyph-name="exclamdown" horiz-adv-x="258" d="M160 365T175 350T190 310Q190 286 175 272T135 257Q109 257 95 271T81 310Q81 336 95 350T135 365Q160 365 175 350ZM193 -268T173 -271T129 -275Q107 -275 86 -272T67 -263Q87 -182 97
-87T117 145L118 165Q118 167 122 168T132 170Q137 170 141 169T145 165Q152 25 161 -76T191 -263Q193 -268 173 -271Z" />
<glyph unicode="&#xa2;" glyph-name="cent" horiz-adv-x="533" d="M478 144T483 143T488 139L478 33Q477 25 475 22T464 15Q387 -12 304 -12H301V-102Q301 -109 288 -109Q274 -109 274 -102V-11Q189 -4 135 34T57 127T32 236Q32 299 63 351T150 437T274 478V561Q274
565 278 567T288 569Q293 569 297 567T301 561V480H309Q346 480 389 472T461 451Q468 448 470 445T472 434L479 331Q479 328 474 327T467 330Q437 394 396 426T301 460V8Q307 7 318 7Q373 7 410 39T477 140Q478 144 483 143ZM135 166T170 98T274 12V459Q209 451
172 395T135 251Q135 166 170 98Z" />
<glyph unicode="&#xa3;" glyph-name="sterling" horiz-adv-x="432" d="M368 129T374 129T380 126Q371 74 371 15Q371 7 368 4T356 0H19Q16 0 16 5T19 12Q70 24 88 47T107 106Q107 164 89 216H46Q43 216 41 220T39 230Q39 235 41 239T46 243H80Q72 268 68 287T63
329Q63 406 115 443T247 480Q294 480 336 466Q351 460 352 447L359 344Q359 340 354 340Q350 340 347 344Q322 401 296 431T228 462Q187 462 169 434T150 363Q150 337 155 314T166 270T174 243H274Q281 243 281 230Q281 216 274 216H182Q191 176 191 148Q191 111
179 88T144 46H251Q295 46 316 52T349 74T368 127Q368 129 374 129Z" />
<glyph unicode="&#xa4;" glyph-name="currency" horiz-adv-x="414" d="M331 33L282 88Q242 65 196 65Q156 65 126 84L81 33L52 62L96 108Q79 127 70 151T61 202Q61 256 97 290L47 340L81 371L132 316Q169 335 211 335Q253 335 285 315L336 368L364 340L315 290Q349
253 349 201Q349 151 316 115L365 66L331 33ZM245 87T262 111T280 180Q280 234 255 273T188 313Q160 313 144 290T127 223Q127 170 150 129T215 87Q245 87 262 111Z" />
<glyph unicode="&#xa5;" glyph-name="yen" horiz-adv-x="492" d="M491 468T491 462T488 456Q457 456 429 433T375 366L297 230V213H392Q399 213 399 201Q399 189 392 189H109Q106 189 104 192T102 201Q102 206 104 209T109 213H207V214L96 385Q71 423 50 439T3
456Q0 456 0 462T3 468L40 467L76 465Q105 465 165 467L223 468Q225 468 225 462T223 456Q176 456 176 433Q176 421 187 404L285 253L349 367Q365 396 365 416Q365 435 353 445T317 456Q314 456 314 462T317 468L363 467Q399 465 432 465Q445 465 463 467L488 468Q491
468 491 462ZM399 146T399 134Q399 121 392 121H297V81Q297 50 302 36T323 17T375 12Q377 12 377 6T375 0Q342 0 324 1L251 2L182 1Q162 0 128 0Q125 0 125 6T128 12Q162 12 178 17T201 36T207 81V121H109Q106 121 104 125T102 134Q102 139 104 142T109 146H392Q399
146 399 134Z" />
<glyph unicode="&#xa6;" glyph-name="brokenbar" horiz-adv-x="168" d="M63 731Q63 738 86 738Q108 738 108 731V360Q108 357 102 355T86 353Q77 353 70 355T63 360V731ZM63 216Q63 220 70 222T86 224Q95 224 101 222T108 216V-154Q108 -158 102 -160T86 -162Q77
-162 70 -160T63 -154V216Z" />
<glyph unicode="&#xa7;" glyph-name="section" horiz-adv-x="472" d="M385 -8T385 -57Q385 -121 337 -154T222 -188Q171 -188 135 -170Q124 -163 124 -153L116 -42Q116 -40 121 -40T128 -42Q143 -82 177 -123T256 -165Q281 -165 296 -148T312 -96Q312 -63 298
-38T262 5T203 47Q163 74 138 94T96 146T79 221Q79 256 94 285T152 351Q112 391 112 441Q112 504 160 538T276 572Q327 572 362 553Q373 548 373 537L381 426Q381 423 376 423T369 426Q354 466 320 507T241 549Q216 549 201 532T185 480Q185 447 199 422T236 378T294
336Q335 309 359 289T400 237T417 163Q417 128 402 99T344 33Q385 -8 385 -57ZM145 220T163 187T207 133T275 84Q319 54 331 44Q351 73 351 119Q351 164 333 196T290 250T222 299Q174 333 165 340Q145 311 145 265Q145 220 163 187Z" />
<glyph unicode="&#xa8;" glyph-name="dieresis" horiz-adv-x="322" d="M51 469T38 482T24 519Q24 542 37 554T75 567Q98 567 110 555T123 519Q123 495 111 482T75 469Q51 469 38 482ZM226 469T213 482T199 519Q199 541 212 554T249 567Q272 567 285 555T298 519Q298
495 285 482T249 469Q226 469 213 482Z" />
<glyph unicode="&#xa9;" glyph-name="copyright" horiz-adv-x="724" d="M296 -105T225 -71T111 30T67 188Q67 278 115 349T241 461T407 501Q484 501 543 469T634 384T666 269Q666 209 633 156T540 71T408 39Q345 39 304 61T245 119T226 195Q226 247 251 285T317
343T401 364Q441 364 472 349T504 307Q504 289 495 279T466 269Q452 269 443 277T425 302Q413 322 402 332T370 342Q334 342 321 314T307 227Q307 157 343 112T454 66Q494 66 529 86T586 146T608 238Q608 304 578 359T494 446T374 478Q298 478 244 443T161 347T132
213Q132 125 169 61T269 -37T411 -71Q464 -71 507 -61T599 -22H601Q604 -22 606 -25T605 -29Q549 -72 494 -88T377 -105Q296 -105 225 -71Z" />
<glyph unicode="&#xaa;" glyph-name="ordfeminine" horiz-adv-x="285" d="M274 407Q278 407 279 404T279 398L211 366Q205 364 203 364Q193 364 185 374T174 403L140 385Q119 373 106 369T77 365Q55 365 42 376T29 404Q29 421 39 433T77 454L173 488V538Q173 584
163 598T134 612Q119 612 109 598T96 561Q93 546 86 537T62 528Q47 528 38 536T29 558Q29 575 51 591T106 619T161 630Q191 630 209 612T228 558V441Q228 418 232 408T246 398Q251 398 273 407H274ZM173 415V419V477L121 456Q106 450 100 443T93 423Q93 410 100
402T120 394Q131 394 143 399L173 415ZM264 317T265 312T267 301Q267 295 266 290T262 284H38Q36 284 35 289T33 302Q33 307 34 312T37 317H262Q264 317 265 312Z" />
<glyph unicode="&#xab;" glyph-name="guillemotleft" horiz-adv-x="469" d="M55 189Q51 193 51 201Q51 208 55 212L239 361Q239 362 241 362Q243 362 245 360T246 356L144 201L246 46Q247 44 244 41T239 40L55 189ZM219 189Q215 195 215 201Q215 206 219 212L404
361Q404 362 406 362Q408 362 410 360T411 356L308 201L411 46Q412 44 409 41T404 40L219 189Z" />
<glyph unicode="&#xac;" glyph-name="logicalnot" horiz-adv-x="395" d="M364 77Q364 75 357 74T340 72Q332 72 326 73T319 76V226H34Q32 226 31 233T29 250Q29 257 30 263T33 270H364V77Z" />
<glyph unicode="&#xad;" glyph-name="uni00AD" horiz-adv-x="323" d="M30 157T29 166T27 186Q27 208 30 208L291 255Q293 256 294 248T296 231Q296 222 295 214T291 205L32 158Q30 157 29 166Z" />
<glyph unicode="&#xae;" glyph-name="registered" horiz-adv-x="743" d="M483 725T548 689T649 591T685 451Q685 365 642 293T526 180T365 138Q290 138 221 173T110 272T67 422Q67 511 112 580T234 687T397 725Q483 725 548 689ZM509 165T568 235T627 419Q627
504 593 568T499 666T360 701Q281 701 228 668T149 579T123 455Q123 369 161 303T262 201T400 165Q509 165 568 235ZM564 281T564 277T562 273H470Q461 273 439 313T377 434Q356 431 334 431V329Q334 308 337 299T349 287T379 284Q381 284 381 279T379 273L306
274L235 273Q234 273 234 278T235 284Q253 284 260 287T270 299T273 329V544Q273 572 267 580T235 588Q234 588 234 594T235 600L306 599Q318 599 350 601Q378 603 388 603Q438 603 462 587T486 535Q486 478 430 450Q470 368 497 332T562 281Q564 281 564 277ZM342
446T356 446Q392 446 407 461T422 514Q422 590 372 590Q356 590 349 588T338 575T334 542V447Q342 446 356 446Z" />
<glyph unicode="&#xaf;" glyph-name="overscore" horiz-adv-x="345" d="M43 477T41 482T39 494Q39 501 41 506T47 511H298Q302 511 304 506T307 494Q307 487 305 482T298 477H47Q43 477 41 482Z" />
<glyph unicode="&#xb0;" glyph-name="degree" horiz-adv-x="332" d="M106 373T68 410T29 503Q29 556 67 593T167 630Q228 630 265 593T303 501Q303 446 266 410T167 373Q106 373 68 410ZM211 386T222 412T233 494Q233 556 216 586T161 617Q126 617 113 589T100
506Q100 449 116 418T174 386Q211 386 222 412Z" />
<glyph unicode="&#xb1;" glyph-name="plusminus" horiz-adv-x="398" d="M32 230T31 237T29 254Q29 262 30 268T33 275H176V418Q176 422 199 422Q222 422 222 418V275H364Q366 275 367 268T369 253Q369 244 368 237T364 230H222V88Q222 86 214 85T197 83Q189 83
183 84T176 87V230H34Q32 230 31 237ZM366 42T367 36T369 22Q369 14 368 8T364 1H34Q32 1 31 8T29 23Q29 30 30 36T33 42H364Q366 42 367 36Z" />
<glyph unicode="&#xb2;" glyph-name="uni00B2" horiz-adv-x="252" d="M34 448T51 476T94 537Q121 571 133 593T145 646Q145 704 101 704Q79 704 62 689T38 651Q38 649 34 649Q31 649 29 650T27 654Q38 689 61 709T126 730Q168 730 189 710T211 657Q211 625 191
600T132 540Q103 516 87 498T63 460Q63 456 66 456Q130 456 159 459T199 471T212 501Q212 503 217 503T223 501L221 408Q221 406 220 405T217 403H27Q25 403 24 405T24 409Q34 448 51 476Z" />
<glyph unicode="&#xb3;" glyph-name="uni00B3" horiz-adv-x="251" d="M184 567T204 548T225 497Q225 458 196 427T116 396Q43 396 22 465Q21 469 27 470T34 468Q43 447 60 434T102 420Q126 420 142 436T158 491Q158 526 139 545T83 564Q79 564 79 570T83 576Q113
576 129 595T145 645Q145 673 133 687T100 701Q78 701 61 686T40 650Q38 648 35 648Q32 648 30 649T28 653Q37 688 61 708T126 729Q167 729 189 709T212 656Q212 629 195 607T150 574Q184 567 204 548Z" />
<glyph unicode="&#xb4;" glyph-name="acute" horiz-adv-x="212" d="M69 472T65 472Q62 472 60 473T58 476L97 716Q99 720 126 725T172 731Q184 731 183 727L69 474Q69 472 65 472Z" />
<glyph unicode="&#xb6;" glyph-name="paragraph" horiz-adv-x="651" d="M308 -193T286 -179T264 -139Q264 -120 275 -109T308 -97Q332 -97 340 -108T353 -141Q357 -158 361 -165T378 -173Q401 -173 409 -134T418 8V125Q394 122 362 122Q284 122 214 148T99 233T54
386Q54 504 129 566T336 628Q365 628 400 625Q475 622 484 622Q504 622 542 624L594 625Q597 625 597 619T594 613Q551 613 528 592T505 532L506 55Q506 -74 468 -133T346 -193Q308 -193 286 -179Z" />
<glyph unicode="&#xb7;" glyph-name="middot" horiz-adv-x="195" d="M72 146T57 161T42 201Q42 225 57 239T97 254Q123 254 137 240T151 201Q151 175 137 161T97 146Q72 146 57 161Z" />
<glyph unicode="&#xb8;" glyph-name="cedilla" horiz-adv-x="232" d="M111 -30T111 -42Q111 -59 120 -70T152 -95Q178 -111 192 -128T207 -173Q207 -213 178 -244T91 -275Q20 -275 20 -230Q20 -216 30 -205T56 -194Q73 -194 80 -201T93 -223Q99 -238 105 -245T128
-252Q154 -252 154 -224Q154 -198 136 -177T70 -130Q65 -128 63 -125T60 -118Q60 -112 64 -101Q78 -68 93 -25Q97 -16 102 -1L118 -2Q111 -30 111 -42Z" />
<glyph unicode="&#xb9;" glyph-name="uni00B9" horiz-adv-x="262" d="M38 403T38 409T40 415Q72 415 85 419T102 437T106 484V602Q106 646 103 661T85 676Q72 676 35 659H34Q30 659 28 664T29 670L158 728Q159 729 161 729Q164 729 166 727T168 721V484Q168 450
171 437T187 419T230 415Q232 415 232 409T230 403L191 404Q157 406 138 406Q117 406 81 404L40 403Q38 403 38 409Z" />
<glyph unicode="&#xba;" glyph-name="ordmasculine" horiz-adv-x="322" d="M99 359T64 399T29 498Q29 541 50 570T103 615T168 630Q206 630 234 611T278 561T294 495Q294 458 275 427T225 377T156 359Q99 359 64 399ZM199 374T215 401T231 477Q231 535 208 574T149
614Q122 614 107 589T92 517Q92 459 114 417T171 374Q199 374 215 401ZM38 284T37 289T35 302Q35 307 36 312T39 317H282Q284 317 285 312T287 301Q287 295 286 290T282 284H40Q38 284 37 289Z" />
<glyph unicode="&#xbb;" glyph-name="guillemotright" horiz-adv-x="469" d="M249 212Q254 207 254 201Q254 194 249 189L65 40Q65 39 63 39Q61 39 59 41T58 46L160 200L58 356Q57 358 60 361T65 361L249 212ZM414 212Q418 208 418 201Q418 193 414 189L229 40Q229
39 227 39Q225 39 223 41T222 46L324 200L222 356Q221 358 224 361T229 361L414 212Z" />
<glyph unicode="&#xbc;" glyph-name="onequarter" horiz-adv-x="605" d="M38 309T38 314T40 320Q72 320 85 324T102 342T106 389V508Q106 552 103 567T85 582Q72 582 35 565H33Q30 565 28 569T29 575L158 634H160Q163 634 165 632T168 627V389Q168 355 171 342T187
324T230 320Q232 320 232 315T230 309Q205 309 191 310L138 311L81 310Q66 309 40 309Q38 309 38 314ZM186 -4T172 3T158 13L437 629Q439 632 453 626T467 617L187 -1Q186 -4 172 3ZM541 90V41Q541 27 543 22T553 14T581 11Q582 9 582 5T581 -1L514 0L430 -1Q429
-1 429 5T430 11Q454 11 464 13T477 21T481 41V92Q411 94 355 94Q352 94 350 97T351 103L514 321Q517 325 527 325Q532 325 536 324T541 320V113L581 115Q584 115 584 102Q584 88 581 88L541 90ZM481 110V246L387 112Q384 109 389 109L481 110Z" />
<glyph unicode="&#xbd;" glyph-name="onehalf" horiz-adv-x="611" d="M38 309T38 314T40 320Q72 320 85 324T102 342T106 389V508Q106 552 103 567T85 582Q72 582 35 565H33Q30 565 28 569T29 575L158 634H160Q163 634 165 632T168 627V389Q168 355 171 342T187
324T230 320Q232 320 232 315T230 309Q205 309 191 310L138 311L81 310Q66 309 40 309Q38 309 38 314ZM186 -4T172 3T158 13L437 629Q439 632 453 626T467 617L187 -1Q186 -4 172 3ZM393 45T410 73T453 134Q479 166 491 189T504 243Q504 300 460 300Q438 300 421
286T397 248Q397 245 393 245Q390 245 388 246T386 250Q397 285 420 305T485 326Q527 326 548 306T570 254Q570 222 550 197T491 137Q461 111 445 94T422 56Q422 53 425 53Q489 53 517 56T557 68T571 98Q571 100 576 100T582 98L580 5Q580 0 576 0H386Q382 0 383
6Q393 45 410 73Z" />
<glyph unicode="&#xbe;" glyph-name="threequarters" horiz-adv-x="594" d="M184 473T204 454T225 403Q225 364 196 333T116 302Q43 302 22 371Q21 375 27 376T34 373Q43 352 60 339T102 326Q126 326 142 342T158 396Q158 432 139 451T83 470Q79 470 79 476T83
482Q113 482 129 501T145 551Q145 578 133 592T100 607Q78 607 61 592T40 556Q39 553 35 553Q32 553 30 554T28 558Q37 593 61 613T126 634Q167 634 189 614T212 561Q212 534 195 512T150 480Q184 473 204 454ZM175 -4T161 3T147 13L426 629Q428 632 442 626T456
617L176 -1Q175 -4 161 3ZM530 90V41Q530 27 532 22T542 14T570 11Q571 9 571 5T570 -1L503 0L419 -1Q418 -1 418 5T419 11Q443 11 453 13T466 21T470 41V92Q400 94 344 94Q341 94 339 97T340 103L503 321Q506 325 516 325Q521 325 525 324T530 320V113L570 115Q573
115 573 102Q573 88 570 88L530 90ZM470 110V246L376 112Q373 109 378 109L470 110Z" />
<glyph unicode="&#xbf;" glyph-name="questiondown" horiz-adv-x="327" d="M201 361T216 346T231 306Q231 282 216 268T176 253Q150 253 136 267T122 306Q122 332 136 346T176 361Q201 361 216 346ZM182 -258T188 -247T197 -215Q200 -189 210 -172T248 -154Q271
-154 282 -167T293 -197Q293 -229 256 -252T163 -275Q100 -275 58 -244T15 -156Q15 -118 33 -93T87 -36L105 -21Q137 8 151 37T166 102Q166 122 160 156Q159 159 166 160T175 159Q187 132 194 98T201 39Q201 8 191 -11T159 -56Q136 -83 124 -106T112 -168Q112 -208
126 -233T164 -258Q182 -258 188 -247Z" />
<glyph unicode="&#xc0;" glyph-name="Agrave" horiz-adv-x="711" d="M716 12T716 6T711 0Q692 0 650 2Q608 4 589 4Q564 4 530 2Q496 0 477 0Q473 0 473 6T477 12Q506 12 519 18T533 40Q533 55 516 91L408 310H227L150 137Q137 107 137 83Q137 48 162 30T232 12Q237
12 237 6T232 0Q214 0 180 2Q142 4 114 4Q87 4 51 2Q19 0 -2 0Q-7 0 -7 6T-2 12Q26 12 45 23T82 62T125 147L340 631Q342 634 349 634Q356 634 357 631L602 137Q637 65 660 39T711 12Q716 12 716 6ZM238 335H396L313 503L238 335ZM337 729T227 756Q217 758 237
768T284 786T316 790Q346 768 361 756Q422 710 454 689Q456 688 456 685Q456 682 454 680T450 679Q337 729 227 756Z" />
<glyph unicode="&#xc1;" glyph-name="Aacute" horiz-adv-x="711" d="M716 12T716 6T711 0Q692 0 650 2Q608 4 589 4Q564 4 530 2Q496 0 477 0Q473 0 473 6T477 12Q506 12 519 18T533 40Q533 55 516 91L408 310H227L150 137Q137 107 137 83Q137 48 162 30T232 12Q237
12 237 6T232 0Q214 0 180 2Q142 4 114 4Q87 4 51 2Q19 0 -2 0Q-7 0 -7 6T-2 12Q26 12 45 23T82 62T125 147L340 631Q342 634 349 634Q356 634 357 631L602 137Q637 65 660 39T711 12Q716 12 716 6ZM238 335H396L313 503L238 335ZM251 678Q247 678 246 682T248
689Q280 708 336 752Q382 787 386 790Q391 794 418 786T465 768T475 756Q413 741 362 723T253 679L251 678Z" />
<glyph unicode="&#xc2;" glyph-name="Acircumflex" horiz-adv-x="711" d="M716 12T716 6T711 0Q692 0 650 2Q608 4 589 4Q564 4 530 2Q496 0 477 0Q473 0 473 6T477 12Q506 12 519 18T533 40Q533 55 516 91L408 310H227L150 137Q137 107 137 83Q137 48 162 30T232
12Q237 12 237 6T232 0Q214 0 180 2Q142 4 114 4Q87 4 51 2Q19 0 -2 0Q-7 0 -7 6T-2 12Q26 12 45 23T82 62T125 147L340 631Q342 634 349 634Q356 634 357 631L602 137Q637 65 660 39T711 12Q716 12 716 6ZM238 335H396L313 503L238 335ZM338 765Q343 770 349 770Q356
770 361 765L463 655Q464 655 464 653Q464 651 462 649T458 648L350 693L241 648Q239 647 236 650T235 655L338 765Z" />
<glyph unicode="&#xc3;" glyph-name="Atilde" horiz-adv-x="711" d="M716 12T716 6T711 0Q692 0 650 2Q608 4 589 4Q564 4 530 2Q496 0 477 0Q473 0 473 6T477 12Q506 12 519 18T533 40Q533 55 516 91L408 310H227L150 137Q137 107 137 83Q137 48 162 30T232 12Q237
12 237 6T232 0Q214 0 180 2Q142 4 114 4Q87 4 51 2Q19 0 -2 0Q-7 0 -7 6T-2 12Q26 12 45 23T82 62T125 147L340 631Q342 634 349 634Q356 634 357 631L602 137Q637 65 660 39T711 12Q716 12 716 6ZM238 335H396L313 503L238 335ZM447 755T457 761T480 782H481Q484
782 486 780T487 775Q461 730 444 715T406 700Q390 700 372 705T348 711Q331 716 313 720T279 724Q262 724 254 720T238 708T228 697H227Q224 697 222 699T221 704Q264 779 308 779Q319 779 355 769Q401 755 430 755Q447 755 457 761Z" />
<glyph unicode="&#xc4;" glyph-name="Adieresis" horiz-adv-x="711" d="M716 12T716 6T711 0Q692 0 650 2Q608 4 589 4Q564 4 530 2Q496 0 477 0Q473 0 473 6T477 12Q506 12 519 18T533 40Q533 55 516 91L408 310H227L150 137Q137 107 137 83Q137 48 162 30T232
12Q237 12 237 6T232 0Q214 0 180 2Q142 4 114 4Q87 4 51 2Q19 0 -2 0Q-7 0 -7 6T-2 12Q26 12 45 23T82 62T125 147L340 631Q342 634 349 634Q356 634 357 631L602 137Q637 65 660 39T711 12Q716 12 716 6ZM238 335H396L313 503L238 335ZM240 708T227 721T213 758Q213
781 226 793T264 806Q287 806 299 794T312 758Q312 734 300 721T264 708Q240 708 227 721ZM415 708T402 721T388 758Q388 780 401 793T438 806Q461 806 474 794T487 758Q487 734 474 721T438 708Q415 708 402 721Z" />
<glyph unicode="&#xc5;" glyph-name="Aring" horiz-adv-x="711" d="M716 12T716 6T711 0Q692 0 650 2Q608 4 589 4Q564 4 530 2Q496 0 477 0Q473 0 473 6T477 12Q506 12 519 18T533 40Q533 55 516 91L408 310H227L150 137Q137 107 137 83Q137 48 162 30T232 12Q237
12 237 6T232 0Q214 0 180 2Q142 4 114 4Q87 4 51 2Q19 0 -2 0Q-7 0 -7 6T-2 12Q26 12 45 23T82 62T125 147L340 631Q342 634 349 634Q356 634 357 631L602 137Q637 65 660 39T711 12Q716 12 716 6ZM238 335H396L313 503L238 335ZM297 661T270 684T242 741Q242
777 276 797T352 818Q393 818 422 795T452 739Q452 704 419 683T343 661Q297 661 270 684ZM388 674T388 721Q388 755 372 780T332 805Q306 805 306 761Q306 727 320 701T358 674Q388 674 388 721Z" />
<glyph unicode="&#xc6;" glyph-name="AE" horiz-adv-x="883" d="M826 158T829 158Q832 158 834 157T837 154Q828 69 828 15Q828 7 825 4T813 0H385Q383 0 383 6T385 12Q419 12 434 17T456 36T462 81V312H304L188 134Q161 91 161 62Q161 38 180 25T236 12Q241 12
241 6T236 0Q215 0 177 2Q133 4 101 4Q76 4 44 2Q14 0 -4 0Q-9 0 -9 6T-4 12Q34 12 70 40T148 132L441 574Q454 592 454 599Q454 608 438 610T377 613Q374 613 374 619T377 625H795Q805 625 805 616L807 486Q807 484 802 483T795 485Q790 511 772 537T725 581T664
599H618Q582 599 568 587T553 543V338H646Q755 338 755 412Q755 415 761 415T767 412L766 325Q766 294 767 278L768 226Q768 224 763 224T757 226Q757 268 729 290T644 312H553V85Q553 52 565 39T610 26H663Q716 26 763 64T826 156Q826 158 829 158ZM321 338H462V555L321
338Z" />
<glyph unicode="&#xc7;" glyph-name="Ccedilla" horiz-adv-x="669" d="M615 179T620 178T626 174L611 46Q609 34 607 31T595 23Q508 -12 410 -12H392Q387 -32 387 -42Q387 -59 396 -71T428 -95Q454 -111 468 -128T483 -173Q483 -213 454 -244T367 -275Q296 -275
296 -230Q296 -216 306 -205T332 -194Q349 -194 356 -201T369 -223Q375 -238 381 -245T404 -252Q430 -252 430 -224Q430 -198 412 -177T346 -130Q341 -128 339 -125T336 -118Q336 -112 340 -101Q356 -61 374 -11Q264 -3 191 46T84 167T49 316Q49 410 100 483T237
596T419 636Q464 636 512 628T589 606Q598 603 600 599T604 583L616 453Q616 450 611 449T605 452Q576 530 518 571T380 612Q276 612 217 539T158 343Q158 251 190 174T280 52T409 7Q544 7 614 175Q615 179 620 178Z" />
<glyph unicode="&#xc8;" glyph-name="Egrave" horiz-adv-x="547" d="M489 158T493 158Q496 158 498 157T501 154Q491 78 491 15Q491 7 488 4T476 0H42Q39 0 39 6T42 12Q76 12 91 17T112 36T118 81V544Q118 574 113 588T91 607T42 613Q39 613 39 619T42 625H458Q468
625 468 616L470 486Q470 484 465 483T458 485Q434 599 319 599H279Q243 599 228 586T213 542V338H309Q419 338 419 412Q419 415 424 415T430 412L429 325L430 278Q432 246 432 226Q432 224 426 224T420 226Q420 312 308 312H213V85Q213 52 225 39T270 26H319Q453
26 489 156Q489 158 493 158ZM283 729T173 756Q163 758 183 768T230 786T262 790Q292 768 307 756Q368 710 400 689Q402 688 402 685Q402 682 400 680T396 679Q283 729 173 756Z" />
<glyph unicode="&#xc9;" glyph-name="Eacute" horiz-adv-x="547" d="M489 158T493 158Q496 158 498 157T501 154Q491 78 491 15Q491 7 488 4T476 0H42Q39 0 39 6T42 12Q76 12 91 17T112 36T118 81V544Q118 574 113 588T91 607T42 613Q39 613 39 619T42 625H458Q468
625 468 616L470 486Q470 484 465 483T458 485Q434 599 319 599H279Q243 599 228 586T213 542V338H309Q419 338 419 412Q419 415 424 415T430 412L429 325L430 278Q432 246 432 226Q432 224 426 224T420 226Q420 312 308 312H213V85Q213 52 225 39T270 26H319Q453
26 489 156Q489 158 493 158ZM197 678Q193 678 192 682T194 689Q226 708 282 752Q328 787 332 790Q337 794 364 786T411 768T421 756Q359 741 308 723T199 679L197 678Z" />
<glyph unicode="&#xca;" glyph-name="Ecircumflex" horiz-adv-x="547" d="M489 158T493 158Q496 158 498 157T501 154Q491 78 491 15Q491 7 488 4T476 0H42Q39 0 39 6T42 12Q76 12 91 17T112 36T118 81V544Q118 574 113 588T91 607T42 613Q39 613 39 619T42 625H458Q468
625 468 616L470 486Q470 484 465 483T458 485Q434 599 319 599H279Q243 599 228 586T213 542V338H309Q419 338 419 412Q419 415 424 415T430 412L429 325L430 278Q432 246 432 226Q432 224 426 224T420 226Q420 312 308 312H213V85Q213 52 225 39T270 26H319Q453
26 489 156Q489 158 493 158ZM285 809Q290 814 297 814Q303 814 308 809L410 699Q411 699 411 697Q411 695 409 693T405 692L297 737L188 692Q186 691 183 694T182 699L285 809Z" />
<glyph unicode="&#xcb;" glyph-name="Edieresis" horiz-adv-x="547" d="M489 158T493 158Q496 158 498 157T501 154Q491 78 491 15Q491 7 488 4T476 0H42Q39 0 39 6T42 12Q76 12 91 17T112 36T118 81V544Q118 574 113 588T91 607T42 613Q39 613 39 619T42 625H458Q468
625 468 616L470 486Q470 484 465 483T458 485Q434 599 319 599H279Q243 599 228 586T213 542V338H309Q419 338 419 412Q419 415 424 415T430 412L429 325L430 278Q432 246 432 226Q432 224 426 224T420 226Q420 312 308 312H213V85Q213 52 225 39T270 26H319Q453
26 489 156Q489 158 493 158ZM186 708T173 721T159 758Q159 781 172 793T210 806Q233 806 245 794T258 758Q258 734 246 721T210 708Q186 708 173 721ZM361 708T348 721T334 758Q334 780 347 793T384 806Q407 806 420 794T433 758Q433 734 420 721T384 708Q361
708 348 721Z" />
<glyph unicode="&#xcc;" glyph-name="Igrave" horiz-adv-x="339" d="M218 50T223 36T243 17T293 12Q296 12 296 6T293 0Q261 0 242 1L168 2L96 1Q77 0 44 0Q41 0 41 6T44 12Q78 12 93 17T115 36T121 81V544Q121 574 115 588T94 607T44 613Q41 613 41 619T44 625L96
624Q140 622 168 622Q199 622 243 624L293 625Q296 625 296 619T293 613Q260 613 245 607T224 587T218 542V81Q218 50 223 36ZM156 729T46 756Q36 758 56 768T103 786T135 790Q165 768 180 756Q241 710 273 689Q275 688 275 685Q275 682 273 680T269 679Q156 729
46 756Z" />
<glyph unicode="&#xcd;" glyph-name="Iacute" horiz-adv-x="339" d="M218 50T223 36T243 17T293 12Q296 12 296 6T293 0Q261 0 242 1L168 2L96 1Q77 0 44 0Q41 0 41 6T44 12Q78 12 93 17T115 36T121 81V544Q121 574 115 588T94 607T44 613Q41 613 41 619T44 625L96
624Q140 622 168 622Q199 622 243 624L293 625Q296 625 296 619T293 613Q260 613 245 607T224 587T218 542V81Q218 50 223 36ZM70 678Q66 678 65 682T67 689Q99 708 155 752Q201 787 205 790Q210 794 237 786T284 768T294 756Q232 741 181 723T72 679L70 678Z"
/>
<glyph unicode="&#xce;" glyph-name="Icircumflex" horiz-adv-x="339" d="M218 50T223 36T243 17T293 12Q296 12 296 6T293 0Q261 0 242 1L168 2L96 1Q77 0 44 0Q41 0 41 6T44 12Q78 12 93 17T115 36T121 81V544Q121 574 115 588T94 607T44 613Q41 613 41 619T44
625L96 624Q140 622 168 622Q199 622 243 624L293 625Q296 625 296 619T293 613Q260 613 245 607T224 587T218 542V81Q218 50 223 36ZM158 809Q163 814 170 814Q176 814 181 809L283 699Q284 699 284 697Q284 695 282 693T278 692L170 737L61 692Q59 691 56 694T55
699L158 809Z" />
<glyph unicode="&#xcf;" glyph-name="Idieresis" horiz-adv-x="339" d="M218 50T223 36T243 17T293 12Q296 12 296 6T293 0Q261 0 242 1L168 2L96 1Q77 0 44 0Q41 0 41 6T44 12Q78 12 93 17T115 36T121 81V544Q121 574 115 588T94 607T44 613Q41 613 41 619T44
625L96 624Q140 622 168 622Q199 622 243 624L293 625Q296 625 296 619T293 613Q260 613 245 607T224 587T218 542V81Q218 50 223 36ZM71 708T58 721T44 758Q44 781 57 793T95 806Q118 806 131 793T144 758Q144 734 131 721T95 708Q71 708 58 721ZM221 708T208
721T194 758Q194 780 207 793T244 806Q267 806 279 794T292 758Q292 734 280 721T244 708Q221 708 208 721Z" />
<glyph unicode="&#xd0;" glyph-name="Eth" horiz-adv-x="700" d="M406 627T485 587T607 478T651 323Q651 226 606 152T485 37T318 -4Q287 -4 246 -1Q231 0 208 1T156 2L85 1Q66 0 32 0Q30 0 30 6T32 12Q66 12 81 17T103 36T109 81V298H53Q49 298 49 311Q49 324
53 324H109V544Q109 574 104 588T82 607T33 613Q31 613 31 619T33 625L86 624Q130 622 156 622Q196 622 237 625Q287 627 304 627Q406 627 485 587ZM377 16T430 49T514 146T544 301Q544 387 516 456T435 566T314 607Q272 607 249 602T216 584T205 542V324H341Q345
324 345 311Q345 298 341 298H205V92Q205 51 226 34T308 16Q377 16 430 49Z" />
<glyph unicode="&#xd1;" glyph-name="Ntilde" horiz-adv-x="732" d="M719 625T719 619T717 613Q677 613 655 585T633 503V-14Q633 -17 628 -18T621 -17L152 528V121Q152 68 173 40T234 12Q236 12 236 6T234 0Q207 0 193 1L140 2L81 1Q65 0 35 0Q32 0 32 6T35 12Q78
12 101 40T125 121V559Q97 589 75 601T28 613Q26 613 26 619T28 625L68 624Q81 623 105 623L169 624Q181 625 198 625Q206 625 210 621T222 605Q239 582 247 573L606 149V503Q606 556 585 584T525 613Q523 613 523 619T525 625L566 624Q598 622 619 622Q639 622
673 624L717 625Q719 625 719 619ZM477 755T487 761T510 782H511Q514 782 516 780T517 775Q491 730 474 715T436 700Q420 700 402 705T378 711Q361 716 343 720T309 724Q292 724 284 720T268 708T258 697H257Q254 697 252 699T251 704Q294 779 338 779Q349 779
385 769Q431 755 460 755Q477 755 487 761Z" />
<glyph unicode="&#xd2;" glyph-name="Ograve" horiz-adv-x="766" d="M273 -12T201 31T89 149T49 312Q49 415 101 488T234 599T401 636Q496 636 568 592T678 474T717 319Q717 228 669 152T541 32T366 -12Q273 -12 201 31ZM460 12T507 44T582 140T610 290Q610 382
580 455T493 569T360 610Q263 610 210 541T156 348Q156 253 187 176T274 56T400 12Q460 12 507 44ZM374 729T264 756Q254 758 274 768T321 786T353 790Q383 768 398 756Q459 710 491 689Q493 688 493 685Q493 682 491 680T487 679Q374 729 264 756Z" />
<glyph unicode="&#xd3;" glyph-name="Oacute" horiz-adv-x="766" d="M273 -12T201 31T89 149T49 312Q49 415 101 488T234 599T401 636Q496 636 568 592T678 474T717 319Q717 228 669 152T541 32T366 -12Q273 -12 201 31ZM460 12T507 44T582 140T610 290Q610 382
580 455T493 569T360 610Q263 610 210 541T156 348Q156 253 187 176T274 56T400 12Q460 12 507 44ZM288 678Q284 678 283 682T285 689Q317 708 373 752Q419 787 423 790Q428 794 455 786T502 768T512 756Q450 741 399 723T290 679L288 678Z" />
<glyph unicode="&#xd4;" glyph-name="Ocircumflex" horiz-adv-x="766" d="M273 -12T201 31T89 149T49 312Q49 415 101 488T234 599T401 636Q496 636 568 592T678 474T717 319Q717 228 669 152T541 32T366 -12Q273 -12 201 31ZM460 12T507 44T582 140T610 290Q610
382 580 455T493 569T360 610Q263 610 210 541T156 348Q156 253 187 176T274 56T400 12Q460 12 507 44ZM376 809Q381 814 388 814Q394 814 399 809L501 699Q502 699 502 697Q502 695 500 693T496 692L388 737L279 692Q277 691 274 694T273 699L376 809Z" />
<glyph unicode="&#xd5;" glyph-name="Otilde" horiz-adv-x="766" d="M273 -12T201 31T89 149T49 312Q49 415 101 488T234 599T401 636Q496 636 568 592T678 474T717 319Q717 228 669 152T541 32T366 -12Q273 -12 201 31ZM460 12T507 44T582 140T610 290Q610 382
580 455T493 569T360 610Q263 610 210 541T156 348Q156 253 187 176T274 56T400 12Q460 12 507 44ZM484 755T494 761T517 782H518Q521 782 523 780T524 775Q498 730 481 715T443 700Q427 700 409 705T385 711Q368 716 350 720T316 724Q299 724 291 720T275 708T265
697H264Q261 697 259 699T258 704Q301 779 345 779Q356 779 392 769Q438 755 467 755Q484 755 494 761Z" />
<glyph unicode="&#xd6;" glyph-name="Odieresis" horiz-adv-x="766" d="M273 -12T201 31T89 149T49 312Q49 415 101 488T234 599T401 636Q496 636 568 592T678 474T717 319Q717 228 669 152T541 32T366 -12Q273 -12 201 31ZM460 12T507 44T582 140T610 290Q610
382 580 455T493 569T360 610Q263 610 210 541T156 348Q156 253 187 176T274 56T400 12Q460 12 507 44ZM277 708T264 721T250 758Q250 781 263 793T301 806Q324 806 336 794T349 758Q349 734 337 721T301 708Q277 708 264 721ZM452 708T439 721T425 758Q425 780
438 793T475 806Q498 806 511 794T524 758Q524 734 511 721T475 708Q452 708 439 721Z" />
<glyph unicode="&#xd7;" glyph-name="multiply" horiz-adv-x="393" d="M333 87T317 70T297 57L197 157L97 56Q93 53 77 69T62 88L164 190L64 290Q61 293 76 309T95 324L197 223L296 322Q300 325 316 309T329 290L229 190L329 90Q333 87 317 70Z" />
<glyph unicode="&#xd8;" glyph-name="Oslash" horiz-adv-x="783" d="M671 497T694 439T717 319Q717 228 669 152T541 32T366 -12Q243 -12 157 63L87 -8L86 -9Q81 -9 74 -1T69 10L139 81Q95 125 72 185T49 312Q49 415 101 488T234 599T401 636Q463 636 516 616T611
560L682 632H683Q688 632 696 625T701 615L629 542Q671 497 694 439ZM156 232T202 145L554 503Q521 554 472 582T360 610Q263 610 210 541T156 348Q156 232 202 145ZM460 12T507 44T582 140T610 290Q610 399 568 480L215 122Q248 70 296 41T400 12Q460 12 507 44Z"
/>
<glyph unicode="&#xd9;" glyph-name="Ugrave" horiz-adv-x="701" d="M571 555T548 584T480 613Q478 613 478 619T480 625L526 624Q564 622 586 622Q604 622 640 624L684 625Q686 625 686 619T684 613Q645 613 624 584T602 503V223Q602 151 572 98T486 15T357 -14Q284
-14 227 14T139 96T107 222V544Q107 574 101 588T80 607T31 613Q28 613 28 619T31 625L83 624Q127 622 154 622Q184 622 228 624L278 625Q281 625 281 619T278 613Q245 613 230 607T208 587T202 542V257Q202 138 251 80T390 21Q475 21 523 73T571 222V503Q571 555
548 584ZM360 729T250 756Q240 758 260 768T307 786T339 790Q369 768 384 756Q445 710 477 689Q479 688 479 685Q479 682 477 680T473 679Q360 729 250 756Z" />
<glyph unicode="&#xda;" glyph-name="Uacute" horiz-adv-x="701" d="M571 555T548 584T480 613Q478 613 478 619T480 625L526 624Q564 622 586 622Q604 622 640 624L684 625Q686 625 686 619T684 613Q645 613 624 584T602 503V223Q602 151 572 98T486 15T357 -14Q284
-14 227 14T139 96T107 222V544Q107 574 101 588T80 607T31 613Q28 613 28 619T31 625L83 624Q127 622 154 622Q184 622 228 624L278 625Q281 625 281 619T278 613Q245 613 230 607T208 587T202 542V257Q202 138 251 80T390 21Q475 21 523 73T571 222V503Q571 555
548 584ZM274 678Q270 678 269 682T271 689Q303 708 359 752Q405 787 409 790Q414 794 441 786T488 768T498 756Q436 741 385 723T276 679L274 678Z" />
<glyph unicode="&#xdb;" glyph-name="Ucircumflex" horiz-adv-x="701" d="M571 555T548 584T480 613Q478 613 478 619T480 625L526 624Q564 622 586 622Q604 622 640 624L684 625Q686 625 686 619T684 613Q645 613 624 584T602 503V223Q602 151 572 98T486 15T357
-14Q284 -14 227 14T139 96T107 222V544Q107 574 101 588T80 607T31 613Q28 613 28 619T31 625L83 624Q127 622 154 622Q184 622 228 624L278 625Q281 625 281 619T278 613Q245 613 230 607T208 587T202 542V257Q202 138 251 80T390 21Q475 21 523 73T571 222V503Q571
555 548 584ZM362 809Q367 814 374 814Q380 814 385 809L487 699Q488 699 488 697Q488 695 486 693T482 692L374 737L265 692Q263 691 260 694T259 699L362 809Z" />
<glyph unicode="&#xdc;" glyph-name="Udieresis" horiz-adv-x="701" d="M571 555T548 584T480 613Q478 613 478 619T480 625L526 624Q564 622 586 622Q604 622 640 624L684 625Q686 625 686 619T684 613Q645 613 624 584T602 503V223Q602 151 572 98T486 15T357
-14Q284 -14 227 14T139 96T107 222V544Q107 574 101 588T80 607T31 613Q28 613 28 619T31 625L83 624Q127 622 154 622Q184 622 228 624L278 625Q281 625 281 619T278 613Q245 613 230 607T208 587T202 542V257Q202 138 251 80T390 21Q475 21 523 73T571 222V503Q571
555 548 584ZM263 708T250 721T236 758Q236 781 249 793T287 806Q310 806 322 794T335 758Q335 734 323 721T287 708Q263 708 250 721ZM438 708T425 721T411 758Q411 780 424 793T461 806Q484 806 497 794T510 758Q510 734 497 721T461 708Q438 708 425 721Z" />
<glyph unicode="&#xdd;" glyph-name="Yacute" horiz-adv-x="616" d="M623 625T623 619T621 613Q588 613 546 579T471 490L357 305V81Q357 50 362 36T383 17T433 12Q436 12 436 6T433 0Q400 0 382 1L309 2L237 1Q217 0 184 0Q182 0 182 6T184 12Q218 12 233 17T255
36T261 81V287L109 519Q75 572 51 592T3 613Q0 613 0 619T3 625L36 624Q58 622 68 622Q102 622 164 624L226 625Q228 625 228 619T226 613Q185 613 185 585Q185 571 197 553L342 330L444 497Q469 538 469 569Q469 613 414 613Q412 613 412 619T414 625L466 624Q508
622 543 622Q560 622 584 624L621 625Q623 625 623 619ZM223 678Q219 678 218 682T220 689Q252 708 308 752Q354 787 358 790Q363 794 390 786T437 768T447 756Q385 741 334 723T225 679L223 678Z" />
<glyph unicode="&#xde;" glyph-name="Thorn" horiz-adv-x="545" d="M338 147T372 190T406 316Q406 396 370 438T271 480Q236 480 205 474V85Q205 53 212 39T241 18T309 12Q311 12 311 6T309 0Q267 0 244 1L158 2L91 1Q73 0 42 0Q39 0 39 6T42 12Q72 12 86 17T105
36T110 81V544Q110 574 105 588T86 607T42 613Q39 613 39 619T42 625L91 624Q133 622 158 622Q190 622 244 624L309 625Q311 625 311 619T309 613Q263 613 242 607T213 586T205 539V493Q255 499 296 499Q394 499 453 459T512 331Q512 266 480 222T399 155T299 133Q275
133 250 138Q247 138 247 143Q247 146 248 149T252 151Q276 147 288 147Q338 147 372 190Z" />
<glyph unicode="&#xdf;" glyph-name="germandbls" horiz-adv-x="549" d="M316 -11T273 17Q267 23 267 29L265 133Q265 136 270 136T277 134Q298 81 332 46T396 10Q418 10 431 28T444 74Q444 101 432 124T404 166T356 215Q312 257 290 288T267 359Q267 385 277
407T308 459Q332 495 344 523T357 589Q357 637 336 673T271 709Q216 709 190 641T163 446V81Q163 51 167 37T183 17T221 12Q223 12 223 6T221 0L123 1L19 0Q16 0 16 6T19 12Q46 12 58 17T76 37T81 81L80 448Q80 582 138 654T309 726Q375 726 411 700T448 629Q448
594 430 570T377 515Q347 488 333 470T318 426Q318 395 341 366T411 291Q465 239 492 204T519 127Q519 93 500 61T446 9T369 -11Q316 -11 273 17Z" />
<glyph unicode="&#xe0;" glyph-name="agrave" horiz-adv-x="420" d="M418 54Q422 54 423 50T420 43L317 -6Q313 -8 308 -8Q294 -8 281 8T263 51L211 23Q153 -7 112 -7Q80 -7 63 9T45 55Q45 86 67 101T151 138L260 175V255Q260 316 246 344T204 373Q150 373 142
294Q137 244 91 244Q48 244 48 281Q48 307 80 333T159 377T241 395Q286 395 313 368T341 285V108Q341 77 351 61T380 45Q395 45 416 54H418ZM261 67Q260 71 260 82V159L189 133Q163 123 152 112T141 83Q141 62 153 50T184 38Q205 38 231 51L261 67ZM102 731T115
731Q134 731 161 726T190 716L228 476Q229 474 224 473T218 474L103 727Q102 731 115 731Z" />
<glyph unicode="&#xe1;" glyph-name="aacute" horiz-adv-x="420" d="M418 54Q422 54 423 50T420 43L317 -6Q313 -8 308 -8Q294 -8 281 8T263 51L211 23Q153 -7 112 -7Q80 -7 63 9T45 55Q45 86 67 101T151 138L260 175V255Q260 316 246 344T204 373Q150 373 142
294Q137 244 91 244Q48 244 48 281Q48 307 80 333T159 377T241 395Q286 395 313 368T341 285V108Q341 77 351 61T380 45Q395 45 416 54H418ZM261 67Q260 71 260 82V159L189 133Q163 123 152 112T141 83Q141 62 153 50T184 38Q205 38 231 51L261 67ZM210 472T206
472Q203 472 201 473T199 476L238 716Q240 720 267 725T313 731Q325 731 324 727L210 474Q210 472 206 472Z" />
<glyph unicode="&#xe2;" glyph-name="acircumflex" horiz-adv-x="420" d="M418 54Q422 54 423 50T420 43L317 -6Q313 -8 308 -8Q294 -8 281 8T263 51L211 23Q153 -7 112 -7Q80 -7 63 9T45 55Q45 86 67 101T151 138L260 175V255Q260 316 246 344T204 373Q150 373
142 294Q137 244 91 244Q48 244 48 281Q48 307 80 333T159 377T241 395Q286 395 313 368T341 285V108Q341 77 351 61T380 45Q395 45 416 54H418ZM261 67Q260 71 260 82V159L189 133Q163 123 152 112T141 83Q141 62 153 50T184 38Q205 38 231 51L261 67ZM291 475Q291
473 287 472T281 474L213 601L144 474Q143 471 138 472T133 476L201 725Q201 730 212 730Q221 730 224 725L291 476V475Z" />
<glyph unicode="&#xe3;" glyph-name="atilde" horiz-adv-x="420" d="M418 54Q422 54 423 50T420 43L317 -6Q313 -8 308 -8Q294 -8 281 8T263 51L211 23Q153 -7 112 -7Q80 -7 63 9T45 55Q45 86 67 101T151 138L260 175V255Q260 316 246 344T204 373Q150 373 142
294Q137 244 91 244Q48 244 48 281Q48 307 80 333T159 377T241 395Q286 395 313 368T341 285V108Q341 77 351 61T380 45Q395 45 416 54H418ZM261 67Q260 71 260 82V159L189 133Q163 123 152 112T141 83Q141 62 153 50T184 38Q205 38 231 51L261 67ZM304 530T315
536T338 557L340 558Q342 558 344 555T345 550Q319 506 302 491T263 476Q243 476 206 487Q189 492 171 496T136 500Q117 500 109 495T86 473H85Q82 473 80 475T79 480Q123 555 165 555Q176 555 214 545Q263 530 288 530Q304 530 315 536Z" />
<glyph unicode="&#xe4;" glyph-name="adieresis" horiz-adv-x="420" d="M418 54Q422 54 423 50T420 43L317 -6Q313 -8 308 -8Q294 -8 281 8T263 51L211 23Q153 -7 112 -7Q80 -7 63 9T45 55Q45 86 67 101T151 138L260 175V255Q260 316 246 344T204 373Q150 373
142 294Q137 244 91 244Q48 244 48 281Q48 307 80 333T159 377T241 395Q286 395 313 368T341 285V108Q341 77 351 61T380 45Q395 45 416 54H418ZM261 67Q260 71 260 82V159L189 133Q163 123 152 112T141 83Q141 62 153 50T184 38Q205 38 231 51L261 67ZM102 469T89
482T75 519Q75 542 88 554T126 567Q149 567 161 555T174 519Q174 495 162 482T126 469Q102 469 89 482ZM277 469T264 482T250 519Q250 541 263 554T300 567Q323 567 336 555T349 519Q349 495 336 482T300 469Q277 469 264 482Z" />
<glyph unicode="&#xe5;" glyph-name="aring" horiz-adv-x="420" d="M418 54Q422 54 423 50T420 43L317 -6Q313 -8 308 -8Q294 -8 281 8T263 51L211 23Q153 -7 112 -7Q80 -7 63 9T45 55Q45 86 67 101T151 138L260 175V255Q260 316 246 344T204 373Q150 373 142
294Q137 244 91 244Q48 244 48 281Q48 307 80 333T159 377T241 395Q286 395 313 368T341 285V108Q341 77 351 61T380 45Q395 45 416 54H418ZM261 67Q260 71 260 82V159L189 133Q163 123 152 112T141 83Q141 62 153 50T184 38Q205 38 231 51L261 67ZM158 468T131
491T103 547Q103 583 137 604T213 625Q254 625 283 602T313 545Q313 510 280 489T203 468Q158 468 131 491ZM234 481T241 492T248 527Q248 562 232 587T193 612Q166 612 166 567Q166 534 180 508T219 481Q234 481 241 492Z" />
<glyph unicode="&#xe6;" glyph-name="ae" horiz-adv-x="589" d="M567 63Q569 63 571 59T572 53Q536 18 500 3T420 -12Q317 -12 273 58L205 22Q149 -7 107 -7Q75 -7 57 9T38 55Q38 86 60 101T145 138L242 170Q239 255 235 293T219 353T181 375Q153 375 141 354T126
291Q126 273 116 260T81 246Q34 246 34 286Q34 308 61 334T128 377T203 395Q237 395 264 380T304 336Q333 364 370 379T451 395Q507 395 537 368T567 289Q567 278 565 274T553 269H483L334 267Q330 246 330 215Q331 131 361 81T459 30Q524 30 565 62L567 63ZM388
375T367 352T337 285L472 289Q471 331 457 353T418 375Q388 375 367 352ZM265 70Q247 107 243 154L182 132Q159 123 149 112T139 83Q139 63 151 51T183 39Q202 39 225 50L265 70Z" />
<glyph unicode="&#xe7;" glyph-name="ccedilla" horiz-adv-x="420" d="M227 -12Q223 -27 223 -41Q223 -59 232 -71T264 -95Q290 -111 304 -128T319 -173Q319 -213 290 -244T203 -275Q132 -275 132 -230Q132 -216 142 -205T168 -194Q185 -194 192 -201T205 -223Q211
-238 217 -245T240 -252Q266 -252 266 -224Q266 -198 248 -177T182 -130Q177 -128 175 -125T172 -118Q172 -112 176 -101Q192 -61 210 -11Q152 -6 112 23T53 96T33 186Q33 249 67 296T154 369T263 395Q310 395 348 376T386 325Q386 308 373 296T337 283Q299 283
282 328Q272 353 261 363T226 374Q179 374 152 332T124 218Q124 135 162 84T283 32Q311 32 333 39T381 61H382Q385 61 387 58T388 53Q351 20 315 4T233 -12H227Z" />
<glyph unicode="&#xe8;" glyph-name="egrave" horiz-adv-x="415" d="M380 63Q382 63 384 59T385 53Q349 19 312 4T231 -12Q169 -12 125 14T57 85T33 181Q33 240 62 289T143 366T257 395Q316 395 348 369T380 296Q380 269 369 269H314L126 267Q123 246 123 222Q123
135 163 84T276 32Q302 32 329 39T378 62L380 63ZM188 375T164 351T130 285L286 288Q284 329 268 352T221 375Q188 375 164 351ZM122 731T135 731Q154 731 181 726T210 716L248 476Q249 474 244 473T238 474L123 727Q122 731 135 731Z" />
<glyph unicode="&#xe9;" glyph-name="eacute" horiz-adv-x="415" d="M380 63Q382 63 384 59T385 53Q349 19 312 4T231 -12Q169 -12 125 14T57 85T33 181Q33 240 62 289T143 366T257 395Q316 395 348 369T380 296Q380 269 369 269H314L126 267Q123 246 123 222Q123
135 163 84T276 32Q302 32 329 39T378 62L380 63ZM188 375T164 351T130 285L286 288Q284 329 268 352T221 375Q188 375 164 351ZM230 472T226 472Q223 472 221 473T219 476L258 716Q260 720 287 725T333 731Q345 731 344 727L230 474Q230 472 226 472Z" />
<glyph unicode="&#xea;" glyph-name="ecircumflex" horiz-adv-x="415" d="M380 63Q382 63 384 59T385 53Q349 19 312 4T231 -12Q169 -12 125 14T57 85T33 181Q33 240 62 289T143 366T257 395Q316 395 348 369T380 296Q380 269 369 269H314L126 267Q123 246 123
222Q123 135 163 84T276 32Q302 32 329 39T378 62L380 63ZM188 375T164 351T130 285L286 288Q284 329 268 352T221 375Q188 375 164 351ZM311 475Q311 473 307 472T301 474L233 601L164 474Q163 471 158 472T153 476L221 725Q222 730 232 730Q243 730 244 725L311
476V475Z" />
<glyph unicode="&#xeb;" glyph-name="edieresis" horiz-adv-x="415" d="M380 63Q382 63 384 59T385 53Q349 19 312 4T231 -12Q169 -12 125 14T57 85T33 181Q33 240 62 289T143 366T257 395Q316 395 348 369T380 296Q380 269 369 269H314L126 267Q123 246 123 222Q123
135 163 84T276 32Q302 32 329 39T378 62L380 63ZM188 375T164 351T130 285L286 288Q284 329 268 352T221 375Q188 375 164 351ZM122 469T109 482T95 519Q95 542 108 554T146 567Q169 567 181 555T194 519Q194 495 182 482T146 469Q122 469 109 482ZM297 469T284
482T270 519Q270 541 283 554T320 567Q343 567 356 555T369 519Q369 495 356 482T320 469Q297 469 284 482Z" />
<glyph unicode="&#xec;" glyph-name="igrave" horiz-adv-x="266" d="M41 0T41 6T44 12Q78 12 89 26T100 81V263Q100 297 93 312T69 328Q54 328 30 316H29Q25 316 23 321T24 328L168 395L171 396Q175 396 179 392T184 384V363Q182 321 182 264V81Q182 40 193 26T239
12Q242 12 242 6T239 0Q214 0 199 1L141 2L83 1Q69 0 44 0Q41 0 41 6ZM282 731T295 731Q314 731 341 726T370 716L408 476Q409 474 404 473T398 474L283 727Q282 731 295 731Z" />
<glyph unicode="&#xed;" glyph-name="iacute" horiz-adv-x="266" d="M41 0T41 6T44 12Q78 12 89 26T100 81V263Q100 297 93 312T69 328Q54 328 30 316H29Q25 316 23 321T24 328L168 395L171 396Q175 396 179 392T184 384V363Q182 321 182 264V81Q182 40 193 26T239
12Q242 12 242 6T239 0Q214 0 199 1L141 2L83 1Q69 0 44 0Q41 0 41 6ZM134 472T130 472Q127 472 125 473T123 476L162 716Q164 720 191 725T237 731Q249 731 248 727L134 474Q134 472 130 472Z" />
<glyph unicode="&#xee;" glyph-name="icircumflex" horiz-adv-x="266" d="M41 0T41 6T44 12Q78 12 89 26T100 81V263Q100 297 93 312T69 328Q54 328 30 316H29Q25 316 23 321T24 328L168 395L171 396Q175 396 179 392T184 384V363Q182 321 182 264V81Q182 40 193
26T239 12Q242 12 242 6T239 0Q214 0 199 1L141 2L83 1Q69 0 44 0Q41 0 41 6ZM471 475Q471 473 467 472T461 474L393 601L324 474Q323 471 318 472T313 476L381 725Q382 730 392 730Q403 730 404 725L471 476V475Z" />
<glyph unicode="&#xef;" glyph-name="idieresis" horiz-adv-x="266" d="M41 0T41 6T44 12Q78 12 89 26T100 81V263Q100 297 93 312T69 328Q54 328 30 316H29Q25 316 23 321T24 328L168 395L171 396Q175 396 179 392T184 384V363Q182 321 182 264V81Q182 40 193
26T239 12Q242 12 242 6T239 0Q214 0 199 1L141 2L83 1Q69 0 44 0Q41 0 41 6ZM294 469T281 482T267 519Q267 542 280 554T318 567Q341 567 354 554T367 519Q367 495 354 482T318 469Q294 469 281 482ZM444 469T431 482T417 519Q417 541 430 554T467 567Q490 567
502 555T515 519Q515 495 503 482T467 469Q444 469 431 482Z" />
<glyph unicode="&#xf0;" glyph-name="eth" horiz-adv-x="470" d="M376 496T413 407T450 227Q450 106 387 47T223 -13Q162 -13 116 14T45 87T20 186Q20 255 53 303T138 375T240 399Q290 399 330 375Q302 469 253 545L125 484Q120 482 114 496T113 513L236 571Q170
663 90 716Q88 718 88 719Q88 721 90 723T96 725Q206 675 285 595L387 643Q390 644 394 638T401 624T399 614L308 571Q376 496 413 407ZM303 8T330 49T358 191Q358 247 347 307Q326 341 296 359T231 378Q178 378 145 336T111 215Q111 158 128 111T178 36T251 8Q303
8 330 49Z" />
<glyph unicode="&#xf1;" glyph-name="ntilde" horiz-adv-x="523" d="M507 12T507 6T504 0Q479 0 465 1L407 2L350 1Q335 0 310 0Q307 0 307 6T310 12Q344 12 355 26T366 81V231Q366 287 346 313T281 340Q255 340 228 328T179 296V81Q179 40 190 26T235 12Q238
12 238 6T235 0Q210 0 196 1L138 2L80 1Q66 0 41 0Q38 0 38 6T41 12Q75 12 86 26T97 81V272Q97 304 90 319T65 334Q50 334 15 319H14Q10 319 8 324T9 330L140 394Q146 396 147 396Q157 396 167 374T179 315Q249 398 331 398Q386 398 417 365T448 274V81Q448 40
459 26T504 12Q507 12 507 6ZM367 530T378 536T401 557L403 558Q405 558 407 555T408 550Q382 506 365 491T326 476Q306 476 269 487Q252 492 234 496T199 500Q180 500 172 495T149 473H148Q145 473 143 475T142 480Q186 555 228 555Q239 555 277 545Q326 530 351
530Q367 530 378 536Z" />
<glyph unicode="&#xf2;" glyph-name="ograve" horiz-adv-x="486" d="M175 -13T129 15T58 92T33 198Q33 263 65 308T148 376T252 399Q313 399 358 370T428 294T452 192Q452 132 423 85T343 13T235 -13Q175 -13 129 15ZM309 7T332 46T356 160Q356 227 338 277T288
353T219 379Q174 379 151 342T128 233Q128 168 145 117T194 36T265 7Q309 7 332 46ZM134 731T147 731Q166 731 193 726T222 716L260 476Q261 474 256 473T250 474L135 727Q134 731 147 731Z" />
<glyph unicode="&#xf3;" glyph-name="oacute" horiz-adv-x="486" d="M175 -13T129 15T58 92T33 198Q33 263 65 308T148 376T252 399Q313 399 358 370T428 294T452 192Q452 132 423 85T343 13T235 -13Q175 -13 129 15ZM309 7T332 46T356 160Q356 227 338 277T288
353T219 379Q174 379 151 342T128 233Q128 168 145 117T194 36T265 7Q309 7 332 46ZM242 472T238 472Q235 472 233 473T231 476L270 716Q272 720 299 725T345 731Q357 731 356 727L242 474Q242 472 238 472Z" />
<glyph unicode="&#xf4;" glyph-name="ocircumflex" horiz-adv-x="486" d="M175 -13T129 15T58 92T33 198Q33 263 65 308T148 376T252 399Q313 399 358 370T428 294T452 192Q452 132 423 85T343 13T235 -13Q175 -13 129 15ZM309 7T332 46T356 160Q356 227 338 277T288
353T219 379Q174 379 151 342T128 233Q128 168 145 117T194 36T265 7Q309 7 332 46ZM323 475Q323 473 319 472T313 474L245 601L176 474Q175 471 170 472T165 476L233 725Q234 730 244 730Q255 730 256 725L323 476V475Z" />
<glyph unicode="&#xf5;" glyph-name="otilde" horiz-adv-x="486" d="M175 -13T129 15T58 92T33 198Q33 263 65 308T148 376T252 399Q313 399 358 370T428 294T452 192Q452 132 423 85T343 13T235 -13Q175 -13 129 15ZM309 7T332 46T356 160Q356 227 338 277T288
353T219 379Q174 379 151 342T128 233Q128 168 145 117T194 36T265 7Q309 7 332 46ZM336 530T347 536T370 557L372 558Q374 558 376 555T377 550Q351 506 334 491T295 476Q275 476 238 487Q221 492 203 496T168 500Q149 500 141 495T118 473H117Q114 473 112 475T111
480Q155 555 197 555Q208 555 246 545Q295 530 320 530Q336 530 347 536Z" />
<glyph unicode="&#xf6;" glyph-name="odieresis" horiz-adv-x="486" d="M175 -13T129 15T58 92T33 198Q33 263 65 308T148 376T252 399Q313 399 358 370T428 294T452 192Q452 132 423 85T343 13T235 -13Q175 -13 129 15ZM309 7T332 46T356 160Q356 227 338 277T288
353T219 379Q174 379 151 342T128 233Q128 168 145 117T194 36T265 7Q309 7 332 46ZM134 469T121 482T107 519Q107 542 120 554T158 567Q181 567 193 555T206 519Q206 495 194 482T158 469Q134 469 121 482ZM309 469T296 482T282 519Q282 541 295 554T332 567Q355
567 368 555T381 519Q381 495 368 482T332 469Q309 469 296 482Z" />
<glyph unicode="&#xf7;" glyph-name="divide" horiz-adv-x="398" d="M173 286T158 300T143 341Q143 365 158 379T199 393Q224 393 237 379T251 341Q251 315 238 301T199 286Q173 286 158 300ZM32 167T31 174T29 191Q29 199 30 205T33 212H364Q366 212 367 205T369
190Q369 181 368 174T364 167H34Q32 167 31 174ZM173 -11T158 3T143 44Q143 68 158 82T199 97Q223 97 237 83T251 44Q251 18 238 4T199 -11Q173 -11 158 3Z" />
<glyph unicode="&#xf8;" glyph-name="oslash" horiz-adv-x="477" d="M424 309T438 271T452 192Q452 132 423 85T343 13T235 -13Q157 -13 103 35L55 -15L54 -16Q49 -16 42 -8T37 3L85 53Q60 82 47 119T33 198Q33 263 65 308T148 376T252 399Q325 399 379 355L423
400L425 401Q430 401 437 394T441 383L397 338Q424 309 438 271ZM128 171T146 115L327 301Q308 339 280 359T219 379Q174 379 151 342T128 233Q128 171 146 115ZM309 7T332 46T356 160Q356 224 338 276L157 90Q175 51 203 29T265 7Q309 7 332 46Z" />
<glyph unicode="&#xf9;" glyph-name="ugrave" horiz-adv-x="501" d="M495 63Q498 63 500 58T499 51L368 -12L364 -13Q354 -13 346 9T337 70Q267 -11 189 -11Q135 -11 105 22T75 114V263Q75 331 44 331Q34 331 16 323H15Q11 323 9 328T10 335L137 394L141 395Q145
395 150 391T155 384V157Q155 46 239 46Q264 46 290 58T337 91V263Q337 298 330 314T306 331Q297 331 278 323H277Q273 323 271 328T273 335L399 394Q401 395 404 395Q408 395 413 391T418 384V113Q418 78 425 64T448 50Q460 50 493 62L495 63ZM141 731T154 731Q173
731 200 726T229 716L267 476Q268 474 263 473T257 474L142 727Q141 731 154 731Z" />
<glyph unicode="&#xfa;" glyph-name="uacute" horiz-adv-x="501" d="M495 63Q498 63 500 58T499 51L368 -12L364 -13Q354 -13 346 9T337 70Q267 -11 189 -11Q135 -11 105 22T75 114V263Q75 331 44 331Q34 331 16 323H15Q11 323 9 328T10 335L137 394L141 395Q145
395 150 391T155 384V157Q155 46 239 46Q264 46 290 58T337 91V263Q337 298 330 314T306 331Q297 331 278 323H277Q273 323 271 328T273 335L399 394Q401 395 404 395Q408 395 413 391T418 384V113Q418 78 425 64T448 50Q460 50 493 62L495 63ZM249 472T245 472Q242
472 240 473T238 476L277 716Q279 720 306 725T352 731Q364 731 363 727L249 474Q249 472 245 472Z" />
<glyph unicode="&#xfb;" glyph-name="ucircumflex" horiz-adv-x="501" d="M495 63Q498 63 500 58T499 51L368 -12L364 -13Q354 -13 346 9T337 70Q267 -11 189 -11Q135 -11 105 22T75 114V263Q75 331 44 331Q34 331 16 323H15Q11 323 9 328T10 335L137 394L141
395Q145 395 150 391T155 384V157Q155 46 239 46Q264 46 290 58T337 91V263Q337 298 330 314T306 331Q297 331 278 323H277Q273 323 271 328T273 335L399 394Q401 395 404 395Q408 395 413 391T418 384V113Q418 78 425 64T448 50Q460 50 493 62L495 63ZM330 475Q330
473 326 472T320 474L252 601L183 474Q182 471 177 472T172 476L240 725Q241 730 251 730Q262 730 263 725L330 476V475Z" />
<glyph unicode="&#xfc;" glyph-name="udieresis" horiz-adv-x="501" d="M495 63Q498 63 500 58T499 51L368 -12L364 -13Q354 -13 346 9T337 70Q267 -11 189 -11Q135 -11 105 22T75 114V263Q75 331 44 331Q34 331 16 323H15Q11 323 9 328T10 335L137 394L141 395Q145
395 150 391T155 384V157Q155 46 239 46Q264 46 290 58T337 91V263Q337 298 330 314T306 331Q297 331 278 323H277Q273 323 271 328T273 335L399 394Q401 395 404 395Q408 395 413 391T418 384V113Q418 78 425 64T448 50Q460 50 493 62L495 63ZM141 469T128 482T114
519Q114 542 127 554T165 567Q188 567 200 555T213 519Q213 495 201 482T165 469Q141 469 128 482ZM316 469T303 482T289 519Q289 541 302 554T339 567Q362 567 375 555T388 519Q388 495 375 482T339 469Q316 469 303 482Z" />
<glyph unicode="&#xfd;" glyph-name="yacute" horiz-adv-x="430" d="M440 386T440 380T438 374Q408 374 387 350T347 277L232 -28Q196 -124 163 -179T96 -257T21 -281Q-7 -281 -22 -270T-38 -235Q-38 -215 -26 -205T5 -194Q17 -194 25 -197T43 -207Q53 -213 60
-216T79 -219Q102 -219 121 -201T162 -139T214 -17L56 303Q34 346 22 360T-9 374Q-12 374 -12 380T-9 386Q17 386 31 385L70 384L138 385Q153 386 179 386Q182 386 182 380T179 374Q152 374 140 370T127 353Q127 344 132 335L254 83L321 277Q330 303 330 321Q330
374 263 374Q261 374 261 380T263 386Q290 386 304 385L364 384L403 385Q414 386 438 386Q440 386 440 380ZM221 472T217 472Q214 472 212 473T210 476L249 716Q251 720 278 725T324 731Q336 731 335 727L221 474Q221 472 217 472Z" />
<glyph unicode="&#xfe;" glyph-name="thorn" horiz-adv-x="494" d="M195 -13T150 2V-194Q150 -224 157 -238T183 -257T242 -263Q245 -263 245 -269T242 -275Q206 -275 185 -274L109 -273L50 -274Q35 -275 10 -275Q8 -275 8 -269T10 -263Q35 -263 47 -258T64 -238T69
-194V592Q69 627 62 642T38 658Q23 658 -1 646H-2Q-6 646 -8 651T-8 658L131 724Q133 725 136 725Q140 725 145 721T150 714V328Q190 365 227 382T304 399Q346 399 382 377T439 313T461 215Q461 136 428 85T345 11T242 -13Q195 -13 150 2ZM219 349T196 339T150
307V64Q173 38 199 25T264 11Q315 11 344 54T373 184Q373 262 337 305T246 349Q219 349 196 339Z" />
<glyph unicode="&#xff;" glyph-name="ydieresis" horiz-adv-x="430" d="M440 386T440 380T438 374Q408 374 387 350T347 277L232 -28Q196 -124 163 -179T96 -257T21 -281Q-7 -281 -22 -270T-38 -235Q-38 -215 -26 -205T5 -194Q17 -194 25 -197T43 -207Q53 -213
60 -216T79 -219Q102 -219 121 -201T162 -139T214 -17L56 303Q34 346 22 360T-9 374Q-12 374 -12 380T-9 386Q17 386 31 385L70 384L138 385Q153 386 179 386Q182 386 182 380T179 374Q152 374 140 370T127 353Q127 344 132 335L254 83L321 277Q330 303 330 321Q330
374 263 374Q261 374 261 380T263 386Q290 386 304 385L364 384L403 385Q414 386 438 386Q440 386 440 380ZM113 469T100 482T86 519Q86 542 99 554T137 567Q160 567 172 555T185 519Q185 495 173 482T137 469Q113 469 100 482ZM288 469T275 482T261 519Q261 541
274 554T311 567Q334 567 347 555T360 519Q360 495 347 482T311 469Q288 469 275 482Z" />
<glyph unicode="&#x2013;" glyph-name="endash" horiz-adv-x="515" d="M32 167T31 174T29 191Q29 199 30 205T33 212H481Q483 212 484 205T486 190Q486 181 485 174T481 167H34Q32 167 31 174Z" />
<glyph unicode="&#x2014;" glyph-name="emdash" horiz-adv-x="830" d="M32 167T31 174T29 191Q29 199 30 205T33 212H796Q798 212 799 205T801 190Q801 181 800 174T796 167H34Q32 167 31 174Z" />
<glyph unicode="&#x2018;" glyph-name="quoteleft" horiz-adv-x="175" d="M120 499T133 486T146 449Q146 424 131 411T88 397Q55 397 36 422T17 495Q17 539 36 576T94 650Q95 651 97 651Q100 651 102 648T102 643Q53 593 53 525Q53 497 63 484Q72 499 98 499Q120
499 133 486Z" />
<glyph unicode="&#x2019;" glyph-name="quoteright" horiz-adv-x="163" d="M108 627T127 602T146 529Q146 485 127 448T69 374Q68 373 66 373Q63 373 61 376T61 381Q110 431 110 499Q110 527 100 540Q91 525 65 525Q43 525 30 538T17 575Q17 600 32 613T75 627Q108
627 127 602Z" />
<glyph unicode="&#x201a;" glyph-name="quotesinglbase" horiz-adv-x="163" d="M364 94T383 69T402 -4Q402 -48 383 -85T325 -159Q324 -160 322 -160Q319 -160 317 -157T317 -152Q366 -102 366 -34Q366 -6 356 7Q347 -8 321 -8Q299 -8 286 5T273 42Q273 67 288
80T331 94Q364 94 383 69Z" />
<glyph unicode="&#x201c;" glyph-name="quotedblleft" horiz-adv-x="327" d="M120 499T133 486T146 449Q146 424 131 411T88 397Q55 397 36 422T17 495Q17 539 36 576T94 650Q95 651 97 651Q100 651 102 648T102 643Q53 593 53 525Q53 497 63 484Q72 499 98 499Q120
499 133 486ZM284 499T297 486T310 449Q310 424 295 411T252 397Q219 397 200 422T181 495Q181 539 200 576T258 650Q259 651 261 651Q264 651 266 648T266 643Q217 593 217 525Q217 497 227 484Q236 499 262 499Q284 499 297 486Z" />
<glyph unicode="&#x201d;" glyph-name="quotedblright" horiz-adv-x="327" d="M272 627T291 602T310 529Q310 485 291 448T233 374Q232 373 230 373Q227 373 225 376T225 381Q274 431 274 499Q274 527 264 540Q255 525 229 525Q207 525 194 538T181 575Q181 600
196 613T239 627Q272 627 291 602ZM108 627T127 602T146 529Q146 485 127 448T69 374Q68 373 66 373Q63 373 61 376T61 381Q110 431 110 499Q110 527 100 540Q91 525 65 525Q43 525 30 538T17 575Q17 600 32 613T75 627Q108 627 127 602Z" />
<glyph unicode="&#x201e;" glyph-name="quotedblbase" horiz-adv-x="336" d="M272 94T291 69T310 -4Q310 -48 291 -85T233 -159Q232 -160 230 -160Q227 -160 225 -157T225 -152Q274 -102 274 -34Q274 -6 264 7Q255 -8 229 -8Q207 -8 194 5T181 42Q181 67 196 80T239
94Q272 94 291 69ZM364 94T383 69T402 -4Q402 -48 383 -85T325 -159Q324 -160 322 -160Q319 -160 317 -157T317 -152Q366 -102 366 -34Q366 -6 356 7Q347 -8 321 -8Q299 -8 286 5T273 42Q273 67 288 80T331 94Q364 94 383 69Z" />
<glyph unicode="&#x2022;" glyph-name="bullet" horiz-adv-x="318" d="M113 138T81 170T48 248Q48 293 81 325T160 358Q205 358 237 326T270 248Q270 202 238 170T160 138Q113 138 81 170Z" />
<glyph unicode="&#x2039;" glyph-name="guilsinglleft" horiz-adv-x="304" d="M55 189Q51 193 51 201Q51 208 55 212L239 361Q239 362 241 362Q243 362 245 360T246 356L144 201L246 46Q247 44 244 41T239 40L55 189Z" />
<glyph unicode="&#x203a;" glyph-name="guilsinglright" horiz-adv-x="304" d="M249 212Q254 207 254 201Q254 194 249 189L65 40Q65 39 63 39Q61 39 59 41T58 46L160 200L58 356Q57 358 60 361T65 361L249 212Z" />
</font>
</defs>
</svg>
