<?xml version="1.0" standalone="no"?>
<!DOCTYPE svg PUBLIC "-//W3C//DTD SVG 1.1//EN" "http://www.w3.org/Graphics/SVG/1.1/DTD/svg11.dtd">
<svg xmlns="http://www.w3.org/2000/svg">
<defs >
<font id="Cormorant" horiz-adv-x="503" ><font-face
    font-family="Cormorant Medium"
    units-per-em="1000"
    panose-1="0 0 6 0 0 0 0 0 0 0"
    ascent="924"
    descent="-287"
    alphabetic="0" />
<glyph unicode=" " glyph-name="space" horiz-adv-x="234" />
<glyph unicode="!" glyph-name="exclam" horiz-adv-x="219" d="M112 186T107 186T102 192Q133 483 136 621Q136 625 152 629T186 633Q204 633 220 629T234 621Q179 469 113 191Q112 186 107 186ZM61 -10T49 3T36 38Q36 58 48 70T83 82Q105 82 117 71T129 38Q129
15 117 3T83 -10Q61 -10 49 3Z" />
<glyph unicode="&quot;" glyph-name="quotedbl" horiz-adv-x="325" d="M121 609Q122 620 152 630T202 640Q212 640 210 637L99 303Q98 300 92 300T86 301L121 609ZM272 609Q273 620 303 630T353 640Q363 640 361 637L250 303Q249 300 243 300T237 301L272 609Z" />
<glyph unicode="#" glyph-name="numbersign" horiz-adv-x="438" d="M418 315T418 298Q418 274 414 274H339L286 117H348Q351 117 351 99Q351 75 347 75H272L219 -82Q219 -84 214 -84Q207 -84 197 -80T187 -73L236 75H121L68 -82Q68 -84 63 -84Q56 -84 46 -80T36
-73L85 75H25Q22 75 22 96Q22 117 25 117H99L152 274H92Q90 274 89 280T88 295Q88 302 89 308T92 315H166L222 484Q223 489 239 483T254 472L201 315H317L373 484Q374 489 390 483T405 472L352 315H415Q418 315 418 298ZM250 117L303 274H188L135 117H250Z" />
<glyph unicode="$" glyph-name="dollar" horiz-adv-x="384" d="M352 451T354 448T356 437L344 347Q343 343 339 343T334 349Q335 367 326 391T298 434T254 460L221 274Q226 270 236 264Q281 236 304 211T328 145Q328 106 308 72T252 16T171 -11L155 -103Q154 -109
145 -109Q140 -109 137 -107T134 -100L150 -12Q117 -12 88 -2T40 25Q33 30 34 45L44 149Q45 153 49 153T55 148Q60 97 86 56T153 7L189 214L174 224Q132 251 110 276T88 339Q88 400 131 437T236 479L251 563Q251 566 254 567T260 569Q265 569 268 567T271 560L257
480Q302 479 344 456Q352 451 354 448ZM149 377T149 367Q149 341 162 323T202 286L233 462Q200 461 178 439T150 383Q149 377 149 367ZM262 107T262 113Q262 140 248 160T208 200L174 6Q204 9 228 30T260 93Q262 107 262 113Z" />
<glyph unicode="%" glyph-name="percent" horiz-adv-x="522" d="M117 303T93 331T69 404Q69 444 87 480T137 538T203 560Q243 560 266 532T289 460Q289 445 286 430Q276 376 240 340T157 303Q117 303 93 331ZM64 -8Q59 -8 50 -2T42 7L472 551Q472 552 474 552Q479
552 487 545T494 535L65 -8H64ZM192 317T205 344T226 423Q231 458 231 477Q231 510 222 527T195 545Q167 545 153 516T130 436Q126 412 126 385Q126 317 165 317Q192 317 205 344ZM312 -5T288 23T263 96Q263 136 281 172T331 230T397 252Q437 252 460 225T483 153Q483
138 480 123Q470 68 434 32T352 -5Q312 -5 288 23ZM387 10T400 37T421 116Q426 149 426 170Q426 237 389 237Q362 237 348 208T325 128Q320 98 320 77Q320 46 330 28T360 10Q387 10 400 37Z" />
<glyph unicode="&amp;" glyph-name="ampersand" horiz-adv-x="755" d="M746 386T753 379T761 352Q761 326 746 301T707 259T654 243Q624 243 584 263Q565 129 492 59T311 -12Q241 -12 187 20T102 107T71 225Q71 251 77 278Q89 332 123 374T204 441T300 465Q350
465 382 440Q439 504 439 551Q439 570 433 580T414 599Q404 607 399 614T394 635Q394 652 404 662T432 673Q456 673 470 652T485 597Q485 540 445 483T348 376T201 257L144 213Q153 159 182 118T254 55T345 33Q431 33 491 95T566 272L538 286Q501 305 477 315T431
325Q416 325 408 319T399 304Q399 292 409 276Q413 269 416 263T419 250Q419 239 412 231T391 223Q378 223 370 231T362 258Q362 285 379 310T425 351T483 367Q508 367 534 357T601 326Q639 307 659 299T699 290Q711 290 719 295T728 309Q728 318 717 331Q703 347
703 361Q703 373 710 379T732 386Q746 386 753 379ZM140 282T140 260Q140 250 142 232L194 274Q277 340 324 382Q300 437 248 437Q211 437 184 401T145 310Q140 282 140 260Z" />
<glyph unicode="&apos;" glyph-name="quotesingle" horiz-adv-x="132" d="M103 609Q104 620 134 630T184 640Q194 640 192 637L81 303Q80 300 74 300T68 301L103 609Z" />
<glyph unicode="(" glyph-name="parenleft" horiz-adv-x="283" d="M132 -76T100 1T67 180Q67 245 78 304Q103 445 174 558T345 725H346Q349 725 351 722T351 717Q276 646 229 545T157 304Q142 219 142 144Q142 -3 204 -109V-110Q204 -113 202 -115T197 -117Q132
-76 100 1Z" />
<glyph unicode=")" glyph-name="parenright" horiz-adv-x="283" d="M191 684T223 607T256 428Q256 363 245 304Q220 163 149 50T-22 -117H-23Q-26 -117 -28 -114T-28 -109Q47 -38 94 63T166 304Q181 390 181 464Q181 611 119 717V718Q119 721 121 723T126 725Q191
684 223 607Z" />
<glyph unicode="*" glyph-name="asterisk" horiz-adv-x="448" d="M253 659Q252 670 283 680T335 690Q345 690 343 687L276 529Q275 526 271 526T265 529L253 659ZM117 539Q107 542 107 577Q107 598 110 617T118 633L247 521Q248 520 248 518Q248 515 247 513T243
511L117 539ZM291 503Q289 503 288 507T288 513L407 564Q415 568 430 549T456 509T461 488L291 503ZM185 369T176 369Q164 369 144 376T110 392T99 404L245 491Q246 492 248 492Q250 492 252 489T254 485L188 374Q185 369 176 369ZM273 481V482Q273 484 276 486T281
488L367 390Q373 383 360 363T330 326T311 315L273 481Z" />
<glyph unicode="+" glyph-name="plus" horiz-adv-x="398" d="M366 210T367 204T369 190Q369 182 368 176T364 169H220V25Q220 23 212 22T196 20Q178 20 178 23V169H34Q32 169 31 176T29 191Q29 198 30 204T33 210H178V354Q178 356 184 357T199 359Q207 359 213
358T220 354V210H364Q366 210 367 204Z" />
<glyph unicode="," glyph-name="comma" horiz-adv-x="227" d="M102 82T117 64T133 15Q133 1 130 -14Q123 -52 94 -89T19 -159Q18 -160 16 -160Q13 -160 11 -156T12 -150Q84 -93 94 -30Q95 -24 95 -13Q95 -3 93 1Q86 -8 67 -8Q45 -8 34 7T24 41Q26 60 39 71T75
82Q102 82 117 64Z" />
<glyph unicode="-" glyph-name="hyphen" horiz-adv-x="305" d="M28 165T28 195Q28 212 30 213L279 259Q281 260 282 251T284 232Q284 213 281 213L33 166Q28 165 28 195Z" />
<glyph unicode="." glyph-name="period" horiz-adv-x="200" d="M49 -10T37 3T24 38Q24 58 36 70T71 82Q93 82 105 71T117 38Q117 15 105 3T71 -10Q49 -10 37 3Z" />
<glyph unicode="/" glyph-name="slash" horiz-adv-x="305" d="M-10 -171T-19 -169T-37 -163T-44 -155L340 732Q342 736 351 734T368 727T374 718L-8 -168Q-10 -171 -19 -169Z" />
<glyph unicode="0" glyph-name="zero" horiz-adv-x="441" d="M115 -13T72 32T28 151Q28 175 32 196Q43 255 76 301T157 373T259 399Q329 399 371 356T414 240Q414 221 409 193Q398 133 366 87T286 14T185 -13Q115 -13 72 32ZM251 3T285 52T332 181Q337 211 337
246Q337 312 313 347T247 383Q197 383 160 334T109 204Q104 169 104 145Q104 81 128 42T200 3Q251 3 285 52Z" />
<glyph unicode="1" glyph-name="one" horiz-adv-x="291" d="M7 0T7 6T11 12Q47 12 65 17T92 36T107 81L142 271Q147 298 147 310Q147 321 144 326T131 331Q117 331 62 306L60 305Q56 305 55 310T57 317L220 397Q222 399 225 397T227 392L171 81Q168 63 168 51Q168
27 184 20T245 12Q248 12 248 6T245 0Q214 0 196 1L129 2L61 1Q43 0 11 0Q7 0 7 6Z" />
<glyph unicode="2" glyph-name="two" horiz-adv-x="366" d="M103 96T153 143T227 228T251 308Q251 337 235 355T191 374Q158 374 129 344T73 254Q71 252 70 252Q67 252 64 254T62 259L120 410Q122 412 124 412Q127 412 129 410T130 406Q127 396 127 390Q127 379
137 379Q145 379 166 386Q205 399 234 399Q274 399 297 378T320 321Q320 284 301 253T250 192T155 114Q116 84 89 62Q86 61 87 60T90 59Q179 59 220 62T283 79T316 122Q318 125 321 125Q324 125 326 123T328 119L293 8Q289 0 284 0H10Q5 0 3 5T4 15Q103 96 153
143Z" />
<glyph unicode="3" glyph-name="three" horiz-adv-x="346" d="M309 253T275 204T185 131Q234 123 259 92T284 16Q284 2 281 -15Q273 -62 235 -111T130 -204T-31 -276Q-34 -277 -36 -272T-36 -264Q76 -225 134 -156T206 -17Q209 -1 209 15Q209 57 189 82T127 107Q111
107 85 100H84Q80 100 78 106T80 114Q152 133 188 170T236 272Q240 291 240 310Q240 375 186 375Q107 375 52 257Q51 256 48 256Q45 256 42 258T40 262L99 406Q101 408 102 408Q105 408 107 406T109 401Q106 392 106 387Q106 377 118 377Q129 377 148 385Q170 392
185 395T218 399Q262 399 285 373T309 306Q309 253 275 204Z" />
<glyph unicode="4" glyph-name="four" horiz-adv-x="426" d="M367 54T363 29T355 3L285 7L256 -158Q254 -169 247 -172L197 -188L191 -190Q187 -190 188 -182L222 8Q160 10 -10 10Q-14 10 -15 13T-13 21L341 400Q343 402 346 402Q349 402 352 401T354 396L293
52L363 54Q367 54 363 29ZM125 48T229 50L272 296L45 55Q42 52 43 50T49 48Q125 48 229 50Z" />
<glyph unicode="5" glyph-name="five" horiz-adv-x="374" d="M354 425T355 425Q358 425 360 423T362 419L330 341Q324 329 319 326T301 323L127 319Q116 319 110 304L75 196Q186 195 239 155T292 46Q292 29 289 9Q274 -74 202 -139T-23 -275H-24Q-28 -275 -30
-271T-28 -264Q90 -203 145 -141T212 -8Q215 12 215 29Q215 94 174 130T54 167Q50 167 48 170T48 179L108 357Q110 364 112 365T122 368Q239 383 279 389T332 401T352 423Q354 425 355 425Z" />
<glyph unicode="6" glyph-name="six" horiz-adv-x="422" d="M119 -13T77 28T34 145Q34 168 41 208Q58 300 113 390T254 552T445 661Q449 662 450 656T448 649Q357 606 287 537T173 387T116 226Q110 192 110 160Q110 91 139 50T223 8Q258 8 281 35T314 116Q317
137 317 157Q317 201 300 227T246 253Q227 253 208 245T165 217L163 216Q160 216 158 219T157 224Q212 282 285 282Q340 282 366 251T392 174Q392 159 389 142Q381 99 353 64T282 8T193 -13Q119 -13 77 28Z" />
<glyph unicode="7" glyph-name="seven" horiz-adv-x="389" d="M-5 -275Q-8 -275 -9 -273T-9 -268L338 322Q344 329 336 329Q205 329 152 325T80 307T45 260Q45 258 41 258Q38 258 35 260T33 264L93 415Q93 417 96 417Q99 417 102 415T105 412Q101 400 101 398Q101
391 110 389T142 386H381Q385 386 386 382T386 373L88 -220Q79 -237 64 -244L-4 -275H-5Z" />
<glyph unicode="8" glyph-name="eight" horiz-adv-x="440" d="M335 320T357 301T396 255T412 191Q412 178 409 161Q399 110 367 71T288 9T193 -13Q116 -13 72 26T27 124Q27 189 79 248T201 338Q168 361 151 383T133 437Q133 442 135 456Q144 512 191 543T291 574Q328
574 354 559T393 522T407 475Q407 470 405 460Q400 431 371 401T297 345Q335 320 357 301ZM198 433T221 407T287 352Q315 378 329 406T343 469Q343 506 324 531T273 557Q241 557 220 533T198 469Q198 433 221 407ZM340 150T340 165Q340 206 322 235T283 280T213
330Q169 305 141 265T105 175Q102 159 102 143Q102 85 133 46T221 7Q263 7 295 41T337 132Q340 150 340 165Z" />
<glyph unicode="9" glyph-name="nine" horiz-adv-x="422" d="M-26 -276T-28 -270T-26 -263Q64 -221 134 -151T247 1T306 160Q312 190 312 221Q312 288 283 333T200 378Q166 378 142 355T109 282Q106 264 106 246Q106 197 127 166T186 134Q204 134 220 142T258
170Q259 171 261 171Q264 171 266 169T267 164Q217 104 149 104Q92 104 61 141T30 229Q30 275 58 314T132 376T230 399Q302 399 343 355T385 234Q385 203 380 178Q364 86 309 -4T168 -165T-22 -275Q-26 -276 -28 -270Z" />
<glyph unicode=":" glyph-name="colon" horiz-adv-x="200" d="M49 -10T37 3T24 38Q24 58 36 70T71 82Q93 82 105 71T117 38Q117 15 105 3T71 -10Q49 -10 37 3ZM86 271T74 284T61 319Q61 339 73 351T108 363Q130 363 142 352T154 319Q154 296 142 284T108 271Q86
271 74 284Z" />
<glyph unicode=";" glyph-name="semicolon" horiz-adv-x="222" d="M102 82T117 64T133 15Q133 1 130 -14Q123 -52 94 -89T19 -159Q18 -160 16 -160Q13 -160 11 -156T12 -150Q84 -93 94 -30Q95 -24 95 -13Q95 -3 93 1Q86 -8 67 -8Q45 -8 34 7T24 41Q26 60 39 71T75
82Q102 82 117 64ZM86 271T74 284T61 319Q61 339 73 351T108 363Q130 363 142 352T154 319Q154 296 142 284T108 271Q86 271 74 284Z" />
<glyph unicode="&lt;" glyph-name="less" horiz-adv-x="407" d="M377 66T377 43Q377 22 370 25L36 173Q31 176 31 190Q31 205 36 207L370 354Q373 356 375 351T377 336Q377 315 370 311L86 190L370 69Q377 66 377 43Z" />
<glyph unicode="=" glyph-name="equal" horiz-adv-x="468" d="M32 239T31 246T29 261Q29 268 30 274T33 280H434Q436 280 437 274T439 260Q439 252 438 246T434 239H34Q32 239 31 246ZM32 99T31 106T29 121Q29 128 30 134T33 140H434Q436 140 437 134T439 120Q439
112 438 106T434 99H34Q32 99 31 106Z" />
<glyph unicode="&gt;" glyph-name="greater" horiz-adv-x="407" d="M376 204T376 189Q376 175 371 172L37 25Q34 24 32 29T30 43Q30 51 32 59T37 68L321 189L37 310Q34 312 32 320T30 336Q30 345 32 350T37 354L371 206Q376 204 376 189Z" />
<glyph unicode="?" glyph-name="question" horiz-adv-x="295" d="M128 210T123 236T117 285Q117 326 134 351T188 406Q221 433 239 456T265 517Q267 533 267 541Q267 571 253 590T213 609Q190 609 181 598T165 565Q161 544 152 530T121 516Q105 516 97 525T88
548Q88 555 89 558Q93 588 132 606T221 625Q274 625 306 601T338 531Q338 519 335 505Q329 474 314 451T283 413T235 372Q193 338 175 311T151 248Q149 239 149 218Q149 200 150 191Q150 187 144 186T137 189Q128 210 123 236ZM93 -10T81 3T68 38Q68 58 80 70T115
82Q137 82 149 71T161 38Q161 15 149 3T115 -10Q93 -10 81 3Z" />
<glyph unicode="@" glyph-name="at" horiz-adv-x="722" d="M437 53T422 68T407 111Q407 119 411 141L418 177Q384 120 343 86T264 51Q240 51 226 66T211 113Q211 126 212 133Q220 187 253 239T332 324T417 357Q431 357 444 352T466 335Q474 340 480 347T488 364Q490
366 494 366Q498 366 501 365T506 363L465 139Q462 124 462 111Q462 93 470 84T499 74Q525 74 551 93T596 149T614 236Q614 301 582 355T493 441T367 473Q290 473 234 437T148 338T119 199Q119 119 153 59T250 -35T395 -68Q441 -68 478 -58T561 -20H562Q565 -20
567 -23T567 -28Q478 -100 361 -100Q279 -100 213 -68T109 27T70 175Q70 268 115 341T237 455T399 496Q476 496 534 465T624 381T656 266Q656 210 630 161T561 83T466 53Q437 53 422 68ZM322 98T350 124T402 190T435 272Q437 284 437 289Q437 309 428 321T401 334Q376
334 350 312T303 252T276 172Q272 146 272 137Q272 98 299 98Q322 98 350 124Z" />
<glyph unicode="A" glyph-name="A" horiz-adv-x="602" d="M570 12T570 6T566 0Q551 0 519 2Q483 4 462 4Q440 4 408 2Q376 0 362 0Q359 0 359 6T362 12Q397 12 411 21T425 54Q425 68 422 84L382 319H232L129 131Q100 79 100 51Q100 29 117 21T169 12Q173 12 173
6T168 0Q156 0 120 2Q80 4 58 4Q37 4 9 2Q-19 0 -34 0Q-38 0 -38 6T-34 12Q-5 12 29 39T98 127L382 635Q384 638 389 638Q398 638 400 633L495 84Q500 53 505 39T524 19T566 12Q570 12 570 6ZM245 342H378L346 527L245 342Z" />
<glyph unicode="B" glyph-name="B" horiz-adv-x="534" d="M415 344T453 306T492 209Q492 195 489 178Q479 128 445 87T360 21T252 -4Q224 -4 189 -1Q176 0 159 1T121 2L57 1Q41 0 12 0Q9 0 9 6T12 12Q57 12 74 26T100 83L182 546Q185 564 185 575Q185 598 172
605T121 613Q118 613 118 619T121 625L168 624Q206 622 228 622Q245 622 259 623T285 625Q314 628 338 628Q414 628 453 600T492 521Q492 507 489 492Q478 444 442 408T347 351Q415 344 453 306ZM219 352L257 351Q324 351 365 390T418 493Q422 509 422 527Q422
567 397 589T319 612Q287 612 273 598T252 539L219 352ZM413 184T413 205Q413 263 379 295T277 328Q252 329 214 326L170 79Q167 66 167 55Q167 33 182 24T239 15Q312 15 354 54T409 164Q413 184 413 205Z" />
<glyph unicode="C" glyph-name="C" horiz-adv-x="586" d="M183 -13T120 60T57 244Q57 274 64 316Q81 411 137 484T273 596T434 636Q475 636 516 627T581 603Q587 599 588 595T589 579L577 461Q576 457 571 457T566 461Q556 537 512 574T396 612Q334 612 282 580T196
487T149 346Q142 305 142 262Q142 188 164 129T227 37T324 3Q379 3 432 40T534 154Q536 156 538 156Q541 156 543 154T544 150L515 40Q512 28 509 24T497 17Q410 -13 318 -13Q183 -13 120 60Z" />
<glyph unicode="D" glyph-name="D" horiz-adv-x="620" d="M217 -4T185 -1Q173 0 156 1T116 2L54 1Q39 0 12 0Q9 0 9 6T12 12Q43 12 58 17T81 36T94 81L176 544Q180 561 180 576Q180 598 167 605T119 613Q117 613 117 619T119 625L163 624Q201 622 225 622Q254
622 286 625Q324 627 339 627Q420 627 480 596T573 510T606 382Q606 348 601 323Q584 227 529 153T398 37T241 -4Q217 -4 185 -1ZM303 12T361 46T459 145T516 301Q523 339 523 380Q523 482 476 546T338 611Q292 611 273 597T246 542L167 92Q164 76 164 62Q164 36
180 24T236 12Q303 12 361 46Z" />
<glyph unicode="E" glyph-name="E" horiz-adv-x="520" d="M518 625T516 616L508 562L496 489Q496 486 491 486Q489 486 487 487T484 490Q488 543 463 575T392 608H330Q299 608 285 603T263 585T251 543L215 337H347Q388 337 409 353T437 409Q437 412 443 412Q445
412 447 411T449 407Q446 385 440 361Q436 346 433 325L428 294Q425 263 418 229Q417 225 411 225T406 230Q409 245 409 257Q409 287 392 300T340 314H211L170 85Q167 67 167 55Q167 34 179 27T226 19H309Q353 19 395 55T463 152Q465 155 470 154T474 150Q456 92
442 15Q440 6 437 3T426 0H17Q15 0 15 6T17 12Q48 12 63 17T85 36T99 81L180 544Q184 561 184 577Q184 598 171 605T124 613Q121 613 121 619T124 625H510Q518 625 516 616Z" />
<glyph unicode="F" glyph-name="F" horiz-adv-x="484" d="M516 625T513 616L501 535L494 489Q493 485 487 486T482 490Q485 543 460 575T389 608H327Q296 608 282 603T260 585T248 543L209 325H327Q368 325 389 341T417 397Q418 401 424 401T429 396Q425 372 413
313L398 217Q397 213 391 213T386 218Q388 228 388 244Q388 275 372 288T320 302H205L167 85Q164 69 164 56Q164 30 183 21T259 12Q261 12 261 6T259 0Q231 0 213 1L116 2L56 1Q41 0 14 0Q11 0 11 6T14 12Q45 12 60 17T82 36T96 81L177 544Q181 561 181 577Q181
598 168 605T121 613Q118 613 118 619T121 625H508Q516 625 513 616Z" />
<glyph unicode="G" glyph-name="G" horiz-adv-x="631" d="M244 -12T183 20T91 109T59 242Q59 278 66 313Q83 406 140 480T280 595T458 636Q500 636 539 627T600 602Q607 597 607 590L606 579L595 461Q594 457 589 457T583 461Q574 534 532 573T418 613Q313 613
243 542T151 349Q144 307 144 264Q144 146 201 77T358 7Q398 7 421 16T458 51T479 126Q485 164 485 185Q485 206 477 216T451 229T397 233Q395 233 394 235T392 241Q392 244 393 246T397 249Q465 244 510 244Q552 244 599 247Q603 247 603 240T599 233Q581 234
573 227T559 197T544 116Q537 72 537 54T535 28Q534 22 532 21T523 16Q413 -12 330 -12Q244 -12 183 20Z" />
<glyph unicode="H" glyph-name="H" horiz-adv-x="672" d="M703 625T703 619T700 613Q670 613 655 608T633 588T619 544L537 81Q534 62 534 50Q534 27 547 20T595 12Q598 12 598 6T595 0Q569 0 554 1L492 2L430 1Q414 0 385 0Q383 0 383 6T385 12Q417 12 432 17T454
36T467 81L508 314H205L164 81Q160 55 160 48Q160 27 173 20T221 12Q224 12 224 6T221 0Q194 0 178 1L114 2L54 1Q39 0 12 0Q9 0 9 6T12 12Q43 12 58 17T81 36T94 81L176 544Q180 570 180 576Q180 598 167 605T119 613Q117 613 117 619T119 625L162 624Q198 622
221 622Q244 622 284 624L328 625Q330 625 330 619T328 613Q298 613 283 607T260 587T246 542L210 337H512L548 542Q552 568 552 576Q552 598 539 605T492 613Q489 613 489 619T492 625L535 624Q573 622 596 622Q618 622 658 624L700 625Q703 625 703 619Z" />
<glyph unicode="I" glyph-name="I" horiz-adv-x="317" d="M19 0T19 6T22 12Q53 12 67 17T89 36T102 81L184 544Q188 570 188 576Q188 598 175 605T127 613Q124 613 124 619T127 625L170 624Q208 622 230 622Q259 622 297 624L337 625Q340 625 340 619T337 613Q307
613 292 607T270 587T256 542L174 81Q170 55 170 49Q170 27 183 20T232 12Q234 12 234 6T232 0Q206 0 190 1L126 2L66 1Q50 0 22 0Q19 0 19 6Z" />
<glyph unicode="J" glyph-name="J" horiz-adv-x="292" d="M-23 -193Q-26 -193 -28 -189T-27 -182Q18 -155 44 -101T86 40L175 544Q178 562 178 575Q178 598 165 605T117 613Q115 613 115 619T117 625L160 624Q198 622 221 622Q249 622 287 624L328 625Q331 625
331 619T328 613Q297 613 282 607T260 587T247 542L163 67Q148 -11 126 -59T70 -138T-22 -193H-23Z" />
<glyph unicode="K" glyph-name="K" horiz-adv-x="604" d="M634 625T634 619T631 613Q594 613 549 593T460 532L300 389L397 207Q448 113 474 74T517 23T562 12Q565 12 565 6T562 0H474Q433 0 423 5T386 65T343 152L243 338L203 303L164 81Q159 51 159 40Q159 23
170 18T215 12Q217 12 217 6T215 0Q188 0 174 1L114 2L54 1Q39 0 12 0Q9 0 9 6T12 12Q43 12 58 17T81 36T94 81L176 544Q180 570 180 576Q180 598 167 605T119 613Q117 613 117 619T119 625L162 624Q198 622 221 622Q244 622 284 624L328 625Q330 625 330 619T328
613Q298 613 283 607T260 587T246 542L208 327L438 538Q473 570 473 591Q473 613 429 613Q427 613 427 619T429 625L470 624Q510 622 540 622Q568 622 600 624L631 625Q634 625 634 619Z" />
<glyph unicode="L" glyph-name="L" horiz-adv-x="499" d="M10 0T10 6T13 12Q44 12 59 17T81 36T94 81L176 544Q180 570 180 576Q180 598 167 605T119 613Q117 613 117 619T119 625L162 624Q198 622 221 622Q244 622 284 624L328 625Q330 625 330 619T328 613Q297
613 282 608T260 588T246 543L165 85Q162 67 162 54Q162 33 173 26T215 19H292Q353 19 396 54T470 158Q471 161 476 160T481 156Q461 88 448 15Q446 7 443 4T432 0H13Q10 0 10 6Z" />
<glyph unicode="M" glyph-name="M" horiz-adv-x="735" d="M769 625T769 619T767 613Q728 613 710 600T685 546L616 81Q613 63 613 51Q613 28 625 20T673 12Q676 12 676 6T673 0Q647 0 632 1L569 2L508 1Q492 0 464 0Q461 0 461 6T464 12Q496 12 511 17T533 36T545
81L616 556L332 7Q330 3 325 3Q319 3 317 8L205 542V543L128 116Q124 95 124 74Q124 12 177 12Q180 12 180 6T177 0Q156 0 145 1L96 2L52 1Q40 0 16 0Q13 0 13 6T16 12Q51 12 73 37T105 115L191 579Q170 613 125 613Q122 613 122 619T125 625Q141 625 151 624L183
623Q204 623 218 624T240 625Q251 625 257 615T270 573L368 116L617 600Q623 611 632 618T651 625Q658 625 671 624T701 623L740 624Q749 625 767 625Q769 625 769 619Z" />
<glyph unicode="N" glyph-name="N" horiz-adv-x="652" d="M696 625T696 619T694 613Q619 613 603 515L509 -9Q509 -11 506 -12T499 -14Q491 -14 490 -10L197 543L122 109Q118 83 118 74Q118 12 177 12Q179 12 179 6T177 0Q155 0 142 1L93 2L45 1Q32 0 7 0Q5 0
5 6T7 12Q82 12 98 109L180 571Q164 594 148 603T114 613Q111 613 111 619T114 625L153 624Q165 623 186 623Q205 623 218 624T237 625Q243 625 246 622T253 606Q260 586 267 573L508 116L579 515Q583 541 583 551Q583 613 524 613Q522 613 522 619T524 625L558
624Q588 622 609 622Q625 622 655 624L694 625Q696 625 696 619Z" />
<glyph unicode="O" glyph-name="O" horiz-adv-x="652" d="M213 -12T163 20T86 110T60 240Q60 276 66 313Q82 406 132 479T255 594T410 636Q481 636 532 604T611 515T638 386Q638 348 631 313Q614 218 562 144T436 29T283 -12Q213 -12 163 20ZM408 14T467 79T549
260Q559 309 559 358Q559 431 537 488T471 579T370 612Q287 612 228 546T147 366Q138 318 138 273Q138 200 160 141T224 48T326 14Q408 14 467 79Z" />
<glyph unicode="P" glyph-name="P" horiz-adv-x="512" d="M11 0T11 6T13 12Q44 12 59 17T82 36T96 81L177 544Q181 561 181 577Q181 598 168 605T121 613Q118 613 118 619T121 625L163 624Q199 622 223 622L271 624Q317 628 345 628Q423 628 472 593T521 490Q521
479 517 453Q505 390 465 347T372 283T270 262Q245 262 229 267Q228 267 228 270Q228 274 230 279T234 283Q247 279 264 279Q323 279 372 318T435 433Q439 453 439 476Q439 539 406 575T325 611Q295 611 282 607T261 588T247 542L166 81Q162 55 162 48Q162 27 175
20T223 12Q225 12 225 6T223 0Q196 0 180 1L116 2L56 1Q40 0 13 0Q11 0 11 6Z" />
<glyph unicode="Q" glyph-name="Q" horiz-adv-x="652" d="M689 -172T690 -177T690 -184Q643 -197 610 -197Q546 -197 480 -146T367 0Q327 -12 283 -12Q213 -12 163 20T86 110T60 240Q60 276 66 313Q82 406 132 479T255 594T410 636Q481 636 532 604T611 515T638
386Q638 348 631 313Q614 219 564 146T441 31Q465 -28 502 -75T579 -150T652 -177Q674 -177 686 -173Q689 -172 690 -177ZM138 318T138 273Q138 200 160 141T224 48T326 14Q408 14 467 79T549 260Q559 309 559 358Q559 431 537 488T471 579T370 612Q287 612 228
546T147 366Q138 318 138 273Z" />
<glyph unicode="R" glyph-name="R" horiz-adv-x="620" d="M599 12T599 6T595 0H474Q450 0 405 84T305 325Q273 317 244 317Q233 317 219 319L176 81Q172 62 172 48Q172 27 185 20T235 12Q239 12 239 6T236 0Q207 0 190 1L127 2L63 1Q46 0 16 0Q12 0 12 6T16 12Q49
12 66 17T91 37T106 81L187 544Q191 561 191 577Q191 598 178 605T127 613Q123 613 123 619T127 625L173 624Q211 622 235 622Q252 622 266 623T292 625Q320 628 342 628Q412 628 449 603T486 531Q486 477 452 428T362 349Q415 220 453 148T525 44T595 12Q599 12
599 6ZM249 341T264 341Q327 341 359 371T403 469Q407 492 407 516Q407 565 385 588T325 611Q300 611 289 608T271 590T258 542L223 345Q249 341 264 341Z" />
<glyph unicode="S" glyph-name="S" horiz-adv-x="465" d="M150 -12T117 -5T48 22Q40 27 42 41L62 176Q62 181 67 181T74 176Q81 99 115 53T211 7Q258 7 293 35T337 119Q340 134 340 147Q340 195 312 228T230 300Q193 327 172 346T135 391T120 451Q120 466 123
481Q137 555 197 595T332 636Q387 636 443 612Q456 605 455 595L441 478Q441 474 436 474T430 478Q422 541 394 580T312 619Q272 619 246 599T208 548T195 489Q195 458 209 434T244 393T302 348Q360 307 390 272T420 186Q420 168 418 158Q405 84 344 36T186 -12Q150
-12 117 -5Z" />
<glyph unicode="T" glyph-name="T" horiz-adv-x="553" d="M130 0T130 6T133 12Q168 12 185 17T210 36T225 81L306 544Q309 562 309 574Q309 593 299 599T262 606H241Q186 606 147 569T87 458Q87 456 83 456Q80 456 77 457T75 460Q84 487 99 550T120 647Q121 650
127 650T132 646Q129 625 171 625Q245 622 354 622Q405 622 467 624L530 625Q560 625 575 630T596 650Q598 653 603 653T607 648Q599 619 585 552T566 460Q565 457 560 457T555 462Q559 483 559 507Q559 606 460 606H441Q407 606 395 594T377 542L296 81Q292 55
292 49Q292 27 307 20T365 12Q367 12 367 6T365 0Q335 0 318 1L248 2L181 1Q164 0 133 0Q130 0 130 6Z" />
<glyph unicode="U" glyph-name="U" horiz-adv-x="619" d="M565 530T565 544Q565 613 500 613Q497 613 497 619T500 625L542 624Q574 622 592 622Q609 622 641 624L677 625Q681 625 681 619T677 613Q641 613 618 586T585 508L533 214Q515 107 445 47T276 -13Q189
-13 139 34T89 163Q89 185 94 215L153 546Q156 564 156 577Q156 599 143 606T93 613Q90 613 90 619T92 625L139 624Q177 622 200 622Q228 622 268 624L309 625Q313 625 313 619T309 613Q277 613 261 607T236 585T223 539L170 245Q163 209 163 175Q163 97 200 58T304
19Q384 19 438 72T509 218L562 512Q565 530 565 544Z" />
<glyph unicode="V" glyph-name="V" horiz-adv-x="595" d="M668 625T668 619T664 613Q633 613 608 596T556 527L284 1Q281 -3 272 -3Q261 -3 260 1L139 542Q130 582 117 597T77 613Q75 613 75 619T77 625L118 624Q146 622 160 622Q190 622 228 624L268 625Q271
625 271 619T268 613Q239 613 224 604T209 572Q209 564 212 552L313 104L533 531Q546 556 546 574Q546 613 483 613Q480 613 480 619T483 625L522 624Q554 622 583 622Q599 622 625 624L664 625Q668 625 668 619Z" />
<glyph unicode="W" glyph-name="W" horiz-adv-x="826" d="M899 625T899 619T895 613Q864 613 839 596T788 527L514 1Q513 -3 503 -3Q493 -3 492 1L428 281L284 1Q281 -3 272 -3Q261 -3 260 1L139 542Q130 582 117 597T77 613Q74 613 74 619T77 625L118 624Q146
622 160 622Q187 622 221 624L257 625Q261 625 261 619T257 613Q233 613 221 604T208 572Q208 560 210 552L313 99L422 311L369 542Q361 582 349 597T313 613Q310 613 310 619T313 625L351 624Q379 622 391 622Q412 622 436 624L461 625Q466 625 466 619T461 613Q446
613 440 609T434 594Q434 585 441 552L476 396L545 531Q564 568 564 588Q564 613 531 613Q528 613 528 619T531 625L556 624Q576 622 594 622Q611 622 633 624L668 625Q672 625 672 619T668 613Q639 613 617 596T567 527L483 364L543 99L764 531Q778 557 778 576Q778
613 723 613Q719 613 719 619T723 625L759 624Q789 622 814 622Q832 622 856 624L895 625Q899 625 899 619Z" />
<glyph unicode="X" glyph-name="X" horiz-adv-x="579" d="M625 625T625 619T620 613Q558 613 478 513L343 343L443 83Q457 44 477 28T531 12Q535 12 535 6T531 0Q508 0 494 1L444 2L372 1Q354 0 326 0Q322 0 322 6T326 12Q376 12 376 37Q376 44 373 51L285 281L141
97Q113 62 113 40Q113 12 163 12Q167 12 167 6T163 0Q135 0 119 1L53 2L16 1Q5 0 -19 0Q-23 0 -23 6T-19 12Q11 12 47 35T121 106L276 302L184 542Q170 580 152 596T106 613Q102 613 102 619T106 625L140 624Q162 622 173 622Q204 622 248 624L294 625Q298 625
298 619T294 613Q250 613 250 589Q250 581 254 573L334 364L458 523Q488 562 488 584Q488 613 439 613Q435 613 435 619T439 625L482 624Q524 622 550 622Q565 622 587 624L620 625Q625 625 625 619Z" />
<glyph unicode="Y" glyph-name="Y" horiz-adv-x="531" d="M605 625T605 619T602 613Q538 613 469 514L326 311L285 81Q281 62 281 47Q281 26 295 19T347 12Q350 12 350 6T347 0Q318 0 302 1L238 2L171 1Q155 0 127 0Q123 0 123 6T127 12Q160 12 176 17T201 37T214
81L252 301L150 542Q133 580 116 596T73 613Q69 613 69 619T73 625L111 624Q139 622 151 622Q177 622 221 624L266 625Q269 625 269 620Q269 613 265 613Q239 613 227 608T215 592Q215 585 220 573L320 334L449 525Q472 557 472 581Q472 613 429 613Q426 613 426
619T429 625L473 624Q511 622 535 622Q550 622 570 624L602 625Q605 625 605 619Z" />
<glyph unicode="Z" glyph-name="Z" horiz-adv-x="550" d="M327 0T17 0Q13 0 12 4T13 13L480 600Q485 605 485 606T478 608Q335 608 273 600T180 569T115 485Q113 481 108 482T105 488L172 655Q173 656 176 656Q179 656 182 655T184 651Q182 646 182 639Q182 630
191 628T229 625H569Q573 625 574 620T574 612L112 27Q108 22 108 21T114 19H290Q370 19 417 46T498 142Q500 145 503 145Q506 145 508 144T510 140L473 8Q473 5 471 2T464 -2Q327 0 17 0Z" />
<glyph unicode="[" glyph-name="bracketleft" horiz-adv-x="250" d="M21 -117T20 -115T21 -106L166 715Q167 722 168 723T175 725H311Q315 725 315 719T311 713Q276 713 258 707T232 687T218 642L99 -34Q95 -58 95 -65Q95 -88 110 -96T165 -105Q170 -105 170 -111T165
-117H26Q21 -117 20 -115Z" />
<glyph unicode="\" glyph-name="backslash" horiz-adv-x="305" d="M113 723Q112 727 120 730T138 733Q149 733 151 728L223 -159Q224 -163 216 -165T198 -168Q185 -168 185 -163L113 723Z" />
<glyph unicode="]" glyph-name="bracketright" horiz-adv-x="249" d="M268 725T269 723T268 714L123 -107Q122 -114 121 -115T114 -117H-22Q-26 -117 -26 -111T-22 -105Q13 -105 31 -99T57 -79T71 -34L190 642Q194 666 194 673Q194 696 179 704T124 713Q120 713
120 719T124 725H263Q268 725 269 723Z" />
<glyph unicode="^" glyph-name="asciicircum" horiz-adv-x="353" d="M95 374T93 374Q90 374 87 376T85 380L243 629Q246 634 254 634Q263 634 263 629L333 380Q333 378 329 376T323 377L235 525L96 375Q95 374 93 374Z" />
<glyph unicode="_" glyph-name="underscore" horiz-adv-x="363" d="M-9 -77T-10 -70T-12 -55Q-12 -48 -11 -42T-8 -35H311Q313 -35 314 -41T316 -56Q316 -64 315 -70T311 -77H-7Q-9 -77 -10 -70Z" />
<glyph unicode="`" glyph-name="grave" horiz-adv-x="166" d="M124 727Q123 732 137 732Q153 732 172 727T192 716L181 476Q181 474 177 473T172 475L124 727Z" />
<glyph unicode="a" glyph-name="a" horiz-adv-x="437" d="M412 78T414 78Q417 78 419 75T419 69Q386 30 359 11T307 -9Q287 -9 278 3T268 41Q268 57 273 89L289 184Q246 93 190 40T81 -13Q51 -13 35 5T18 62Q18 71 20 91Q30 160 73 232T176 352T287 399Q329 399
355 372Q374 388 381 407Q383 409 385 409Q388 409 391 408T393 405L335 89Q332 74 332 62Q332 34 349 34Q370 34 411 77Q412 78 414 78ZM160 44T197 79T264 167T304 269Q307 283 307 296Q307 325 292 342T249 359Q215 359 181 332T122 256T88 148Q84 116 84 106Q84
44 126 44Q160 44 197 79Z" />
<glyph unicode="b" glyph-name="b" horiz-adv-x="440" d="M379 399T401 370T423 293Q423 271 419 251Q403 170 358 110T255 19T149 -13Q102 -13 74 7T46 62Q46 68 48 80L147 610Q149 619 149 633Q149 661 128 661Q112 661 81 646H80Q76 646 75 651T77 658L214
725H216Q220 725 223 722T226 717L137 222Q171 301 226 350T341 399Q379 399 401 370ZM349 247T349 272Q349 307 336 327T294 347Q254 347 218 316T155 227T114 96Q113 91 113 82Q113 51 134 32T189 13Q221 13 252 38T308 110T343 220Q349 247 349 272Z" />
<glyph unicode="c" glyph-name="c" horiz-adv-x="346" d="M92 -13T60 32T27 144Q27 174 33 202Q44 261 78 306T159 375T250 399Q286 399 312 384T339 342Q339 325 329 313T300 301Q269 301 260 337Q249 375 212 375Q170 375 143 337T105 234Q98 194 98 168Q98
104 125 65T206 26Q255 26 306 67L308 68Q311 68 313 64T314 58Q237 -13 158 -13Q92 -13 60 32Z" />
<glyph unicode="d" glyph-name="d" horiz-adv-x="446" d="M346 89Q343 74 343 63Q343 34 361 34Q371 34 386 45T423 77Q425 79 427 79Q430 79 432 76T431 69Q396 29 370 10T318 -9Q298 -9 289 2T279 39Q279 59 285 89L302 178Q258 89 208 38T106 -13Q70 -13 46
10T22 84Q22 106 26 126Q39 197 81 260T181 361T295 399Q322 399 341 388L382 610Q384 619 384 633Q384 661 363 661Q348 661 316 646H315Q311 646 310 651T312 658L450 725H452Q456 725 459 722T461 717L346 89ZM187 42T228 88T295 196T321 293Q321 325 303 342T255
359Q194 359 150 311T91 171Q87 148 87 125Q87 84 102 63T144 42Q187 42 228 88Z" />
<glyph unicode="e" glyph-name="e" horiz-adv-x="347" d="M298 399T317 387T336 353Q336 306 268 268T102 212Q98 188 98 160Q98 99 124 62T202 25Q257 25 299 58H300Q303 58 305 55T306 49Q235 -12 157 -12Q91 -12 58 29T25 135Q25 157 30 185Q40 237 73 286T157
367T263 399Q298 399 317 387ZM259 334T259 337Q259 354 247 363T216 372Q175 372 146 332T104 226Q242 252 257 324Q259 334 259 337Z" />
<glyph unicode="f" glyph-name="f" horiz-adv-x="264" d="M359 726T380 711T398 672Q395 656 384 648T359 639Q340 639 333 648T319 677Q313 694 308 701T289 709Q253 709 227 642T180 439L171 377Q201 378 238 382L271 384Q278 384 278 376Q278 368 267 355T246
341Q240 341 233 342T218 344Q201 347 167 351L113 -21Q99 -118 80 -172T33 -251T-38 -275Q-75 -275 -94 -261T-110 -227Q-109 -212 -98 -203T-70 -194Q-52 -194 -45 -203T-33 -230Q-29 -244 -25 -250T-11 -256Q1 -256 8 -241T25 -182T47 -47L98 306Q100 326 100
332Q100 350 89 355T44 360Q41 360 41 365Q41 368 42 371T45 374Q80 374 95 383T114 418Q134 541 159 606T221 699T321 726Q359 726 380 711Z" />
<glyph unicode="g" glyph-name="g" horiz-adv-x="382" d="M392 394T392 381Q392 367 388 353T379 340Q350 358 304 356Q325 326 325 284Q325 263 321 246Q312 202 286 169T225 117T152 98Q143 98 129 100Q118 84 118 66Q118 43 139 27T205 -13Q261 -40 291 -66T322
-133Q322 -173 293 -207T214 -261T108 -281Q37 -281 -4 -252T-45 -181Q-45 -138 -9 -103T96 -31Q60 -6 60 24Q60 31 61 34Q65 51 78 67T114 104Q82 115 65 143T48 210Q48 222 52 246Q64 309 112 350T222 392Q263 392 290 370Q343 394 387 394Q392 394 392 381ZM259
236T259 259Q259 306 244 339T198 373Q170 373 147 342T117 265Q114 246 114 227Q114 181 131 150T177 118Q205 118 227 147T257 225Q259 236 259 259ZM263 -136T236 -114T154 -63Q124 -49 107 -38Q67 -63 45 -88T22 -151Q22 -195 59 -223T157 -252Q208 -252 235
-229T263 -172Q263 -136 236 -114Z" />
<glyph unicode="h" glyph-name="h" horiz-adv-x="448" d="M425 79T426 79Q429 79 431 76T431 69Q397 29 370 10T317 -9Q297 -9 288 2T279 40Q279 57 284 89L313 248Q319 278 319 300Q319 354 280 354Q248 354 214 313T150 194T101 9Q99 1 89 -3T62 -8Q35 -8 35
-1L39 19Q48 62 50 74L150 610Q152 619 152 633Q152 661 131 661Q115 661 85 646H84Q80 646 78 651T80 658L218 725H220Q224 725 227 722T229 717L134 194Q170 291 217 345T318 399Q351 399 367 381T383 322Q383 293 378 267L345 89Q342 74 342 64Q342 34 361 34Q371
34 386 45T423 77Q425 79 426 79Z" />
<glyph unicode="i" glyph-name="i" horiz-adv-x="247" d="M68 -9T68 40Q68 61 74 89L115 297Q118 312 118 323Q118 353 99 353Q88 353 71 342T34 309Q33 308 31 308Q28 308 26 311T26 317Q92 395 143 395Q163 395 172 384T182 348Q182 325 177 302L136 89Q133
74 133 63Q133 34 151 34Q174 34 214 76Q215 77 217 77Q221 77 223 74T222 68Q189 29 162 10T108 -9Q68 -9 68 40ZM150 509T138 521T125 556Q125 577 137 589T172 601Q194 601 206 589T219 556Q219 534 207 522T172 509Q150 509 138 521Z" />
<glyph unicode="j" glyph-name="j" horiz-adv-x="242" d="M-58 -275T-77 -261T-93 -227Q-90 -211 -80 -203T-55 -194Q-38 -194 -32 -203T-22 -230Q-18 -245 -14 -251T-1 -258Q12 -258 21 -240T40 -182T64 -56L125 297Q128 312 128 322Q128 353 109 353Q85 353
43 309Q42 308 40 308Q37 308 35 311T35 317Q70 358 98 376T154 395Q174 395 183 384T192 347Q192 332 187 302L129 -32Q113 -127 94 -179T48 -253T-22 -275Q-58 -275 -77 -261ZM163 509T151 521T138 556Q138 577 150 589T185 601Q207 601 219 589T232 556Q232
534 220 522T185 509Q163 509 151 521Z" />
<glyph unicode="k" glyph-name="k" horiz-adv-x="415" d="M408 76T410 76Q414 76 416 73T416 67Q349 -9 310 -9Q286 -9 268 5T228 58L170 157Q161 173 154 178T133 182L101 9Q99 1 89 -3T62 -8Q35 -8 35 -1L39 19Q48 62 50 74L150 610Q152 619 152 633Q152 661
131 661Q115 661 85 646H84Q80 646 78 651T80 658L218 725H220Q224 725 227 722T229 717L156 315Q193 354 238 376T327 399Q359 399 372 384T386 350Q386 311 341 274T216 207L281 95Q301 62 315 51T345 39Q371 39 407 75Q408 76 410 76ZM229 365T191 322T137 207L135
198Q221 218 259 245T305 318Q306 322 306 329Q306 346 298 355T276 365Q229 365 191 322Z" />
<glyph unicode="l" glyph-name="l" horiz-adv-x="240" d="M72 -9T62 3T52 40Q52 59 58 89L154 610Q157 625 157 635Q157 661 137 661Q121 661 91 646H90Q85 646 84 651T86 658L224 725H226Q230 725 233 722T235 717L120 89Q117 74 117 63Q117 34 135 34Q145 34
160 45T197 77Q199 79 201 79Q204 79 206 76T205 69Q171 29 145 10T92 -9Q72 -9 62 3Z" />
<glyph unicode="m" glyph-name="m" horiz-adv-x="679" d="M655 79T657 79Q660 79 662 76T661 69Q627 29 601 10T548 -9Q528 -9 519 2T510 39Q510 56 515 89L544 248Q549 281 549 300Q549 354 514 354Q485 354 454 317T393 206T345 31L341 9Q340 1 330 -3T302 -8Q276
-8 276 -1Q277 5 282 30T291 74L324 249Q328 273 328 297Q328 354 293 354Q264 354 232 314T170 198T123 20L121 9Q116 -8 81 -8Q55 -8 55 -1L60 22L70 71L111 297Q114 312 114 322Q114 353 95 353Q71 353 29 309Q28 308 26 308Q23 308 21 311T21 317Q55 357 84
376T140 395Q160 395 169 384T178 347Q178 332 173 302L155 198Q189 293 235 346T332 399Q394 399 394 322Q394 300 388 268L375 197Q410 293 456 346T553 399Q614 399 614 323Q614 299 608 267L576 89Q573 74 573 63Q573 34 591 34Q601 34 616 45T653 77Q655 79
657 79Z" />
<glyph unicode="n" glyph-name="n" horiz-adv-x="468" d="M445 79T446 79Q449 79 451 76T451 69Q417 29 390 10T337 -9Q317 -9 308 2T299 40Q299 57 304 89L333 248Q339 278 339 300Q339 354 300 354Q268 354 234 313T170 194T121 9Q119 1 109 -3T82 -8Q55 -8
55 -1L59 19Q68 62 70 74L111 297Q114 312 114 322Q114 353 95 353Q71 353 29 309Q28 308 26 308Q23 308 21 311T21 317Q55 357 84 376T140 395Q160 395 169 384T178 347Q178 332 173 302L153 192Q189 290 237 344T338 399Q371 399 387 380T404 322Q404 299 398
267L365 89Q362 74 362 64Q362 34 381 34Q391 34 406 45T443 77Q445 79 446 79Z" />
<glyph unicode="o" glyph-name="o" horiz-adv-x="401" d="M93 -14T60 28T26 139Q26 161 31 193Q42 252 73 299T150 372T245 399Q309 399 343 358T378 248Q378 222 372 193Q359 130 326 83T247 11T155 -14Q93 -14 60 28ZM229 11T259 48T302 149Q308 181 308 212Q308
280 284 327T214 375Q176 375 145 338T102 236Q95 198 95 169Q95 102 120 57T190 11Q229 11 259 48Z" />
<glyph unicode="p" glyph-name="p" horiz-adv-x="406" d="M334 393T359 367T385 289Q385 273 382 253Q373 186 337 128T249 34T145 -1Q114 -1 93 2L61 -178Q58 -195 58 -206Q58 -223 66 -230T91 -238Q97 -238 115 -236Q119 -235 120 -240T118 -247L-60 -275Q-64
-276 -65 -270T-62 -263Q-40 -259 -30 -253T-15 -232T-4 -185L81 291Q75 287 35 257L33 256Q29 256 27 260T28 267Q55 291 85 312L98 386Q98 388 115 400T145 428T163 461Q164 465 169 464T174 459L156 356Q225 393 285 393Q334 393 359 367ZM317 244T317 255Q317
353 234 353Q195 353 152 333L100 44Q137 28 176 28Q235 28 269 80T315 220Q317 244 317 255Z" />
<glyph unicode="q" glyph-name="q" horiz-adv-x="417" d="M289 -178Q286 -193 286 -204Q286 -223 295 -232T327 -241Q333 -241 349 -239H350Q353 -239 354 -244T351 -250L165 -275Q161 -276 160 -270T163 -263Q187 -259 197 -253T214 -233T226 -185L284 144Q247
70 197 29T98 -13Q63 -13 42 11T21 78Q21 85 23 103Q33 180 72 248T169 358T289 399Q308 399 326 393T356 372Q373 386 383 407Q385 409 387 409Q390 409 393 408T395 405L289 -178ZM176 44T210 71T268 145T302 246Q306 266 306 287Q306 359 247 359Q189 359 146
308T90 156Q89 146 89 126Q89 44 139 44Q176 44 210 71Z" />
<glyph unicode="r" glyph-name="r" horiz-adv-x="345" d="M313 395T332 380T351 345Q351 330 341 319T314 307Q303 307 296 311T281 325Q276 330 271 334T258 339Q238 339 210 283T156 148T118 9Q116 1 106 -3T79 -8Q53 -8 53 -1Q54 5 59 30T68 74L104 271Q108
294 108 313Q108 353 86 353Q65 353 27 315Q26 314 24 314Q21 314 19 317T19 323Q51 360 78 377T131 395Q152 395 162 382T172 338Q172 314 166 276L145 159Q177 262 215 328T292 395Q313 395 332 380Z" />
<glyph unicode="s" glyph-name="s" horiz-adv-x="306" d="M65 -11T37 6T8 48Q8 66 18 76T44 86Q55 86 62 80T79 57Q90 37 103 26T139 15Q187 15 194 69Q195 73 195 82Q195 111 179 132T128 181Q95 208 78 229T61 279Q61 311 80 338T132 380T201 396Q240 396 265
381T287 343Q284 328 274 320T252 311Q237 311 229 318T212 339Q202 355 192 363T162 372Q143 372 131 362T116 335Q115 331 115 322Q115 295 131 274T180 226Q215 196 232 174T250 121Q250 91 231 60T178 9T103 -11Q65 -11 37 6Z" />
<glyph unicode="t" glyph-name="t" horiz-adv-x="297" d="M299 384T301 381T302 374Q299 364 289 352T269 340Q264 340 232 345T165 351L121 106Q118 91 118 79Q118 54 130 43T168 31Q192 31 213 41T261 73H262Q265 73 268 70T269 65Q224 24 190 6T123 -12Q91
-12 71 3T51 56Q51 62 53 80L95 306Q99 323 99 337Q99 351 91 355T61 360Q58 360 58 365Q58 368 59 371T62 374Q99 374 126 396T166 454Q166 457 173 457Q177 457 180 456T183 453L169 376Q193 377 215 378T255 381Q284 384 295 384Q299 384 301 381Z" />
<glyph unicode="u" glyph-name="u" horiz-adv-x="468" d="M440 78T442 78Q445 78 447 75T447 69Q412 28 384 10T329 -9Q309 -9 300 2T291 38Q291 54 296 84L316 198Q280 98 232 43T130 -13Q63 -13 63 63Q63 82 70 119L106 297Q109 312 109 322Q109 352 90 352Q80
352 66 341T29 309Q27 307 25 307Q22 307 20 310T21 317Q56 357 82 376T134 395Q173 395 173 346Q173 327 167 297L135 138Q129 108 129 87Q129 32 169 32Q201 32 235 73T298 192T347 377Q349 385 359 389T387 394Q413 394 413 387L409 367Q400 324 398 312L357
89Q355 80 355 64Q355 33 373 33Q385 33 402 44T439 77Q440 78 442 78Z" />
<glyph unicode="v" glyph-name="v" horiz-adv-x="437" d="M143 -13T117 21T91 102Q91 135 105 171T145 259L166 301Q171 313 171 318Q171 327 158 327H108Q71 327 57 318T33 278Q32 275 27 275Q24 275 23 277T22 282Q38 328 49 349T76 378T123 387H213Q224 387
224 383Q224 381 221 375Q163 242 153 167Q151 156 151 137Q151 94 170 70T222 45Q266 45 306 87T362 196Q368 223 368 242Q368 269 360 284T337 315Q335 317 328 324T317 340T313 357Q313 376 326 386T357 396Q382 396 393 372T405 304Q405 280 402 253Q392 178
357 117T276 22T186 -13Q143 -13 117 21Z" />
<glyph unicode="w" glyph-name="w" horiz-adv-x="621" d="M566 396T577 372T589 306Q589 291 585 253Q576 178 545 117T471 22T389 -13Q362 -13 341 4T307 54Q279 22 247 5T186 -13Q143 -13 119 18T95 98Q95 114 98 130Q104 167 121 207T166 301Q171 311 171 318Q171
327 158 327H108Q71 327 57 318T33 278Q32 275 27 275Q24 275 23 277T22 282Q38 328 49 349T76 378T123 387H213Q224 387 224 383Q224 381 221 375Q197 320 179 264T155 167Q153 145 153 137Q153 93 171 68T222 43Q260 43 297 82Q288 120 288 164Q288 205 295 243Q306
312 327 352T376 392Q394 392 404 375T414 328Q414 317 410 287Q393 181 340 98Q372 43 424 43Q449 43 474 62T520 116T547 196Q550 217 550 233Q550 263 542 281T518 318Q507 330 502 338T497 357Q497 377 510 386T542 396Q566 396 577 372ZM313 240T313 212Q313
161 329 122Q368 181 378 253Q380 271 380 278Q380 299 373 310T353 321Q339 321 330 305T317 261Q313 240 313 212Z" />
<glyph unicode="x" glyph-name="x" horiz-adv-x="424" d="M385 395T402 381T419 346Q419 332 410 323T385 313Q369 313 356 326Q344 336 334 336Q315 336 296 309L238 223L279 87Q288 57 299 48T326 38Q353 38 387 75Q388 76 390 76Q394 76 396 73T396 66Q359
27 333 9T283 -10Q260 -10 246 4T220 55L189 154L132 63Q103 17 88 4T51 -10Q29 -10 12 7T-4 45Q-2 57 7 64T30 72Q40 72 46 69T59 60Q64 56 69 53T82 50Q101 50 119 76L184 173L147 292Q138 326 126 337T98 348Q73 348 36 311Q35 310 33 310Q30 310 28 313T28
319Q64 358 91 376T141 395Q164 395 179 380T207 325L232 242L284 323Q312 368 327 381T364 395Q385 395 402 381Z" />
<glyph unicode="y" glyph-name="y" horiz-adv-x="446" d="M389 396T400 380T411 336Q411 257 333 106T152 -163T-17 -281Q-38 -281 -51 -272T-64 -242L-63 -233Q-55 -200 -17 -200Q-7 -200 15 -202Q35 -204 45 -204Q78 -204 100 -187Q129 -168 176 -104L177 -52Q177
138 148 242T67 347Q54 347 41 338T19 312Q18 309 13 309Q6 309 7 315Q25 353 52 374T107 395Q148 395 177 348T222 220T238 37Q238 2 237 -16Q278 48 309 110T350 205Q355 230 355 245Q355 266 350 283T336 320Q332 330 329 339T325 357Q325 374 337 385T368 396Q389
396 400 380Z" />
<glyph unicode="z" glyph-name="z" horiz-adv-x="344" d="M348 397Q351 397 354 393T356 387L83 78Q95 80 103 80Q128 80 199 67Q257 57 272 57Q288 57 298 67T317 101Q318 102 321 102Q324 102 326 101T328 97Q314 50 304 30T284 2T254 -5Q230 -5 198 0T155 8Q93
21 56 22Q40 22 28 16T1 -7H0Q-3 -7 -7 -3T-9 3L265 311Q253 309 245 309Q224 309 163 322Q117 333 99 333Q82 333 72 323T51 288Q50 285 46 285Q43 285 41 287T40 293Q57 342 67 362T89 389T125 394Q146 393 202 381Q261 369 291 367Q307 367 319 373T346 396L348
397Z" />
<glyph unicode="{" glyph-name="braceleft" horiz-adv-x="261" d="M133 -117T110 -110T75 -85T64 -33Q64 2 77 80Q93 171 93 208Q93 247 80 269T39 298Q36 298 36 304T39 311Q88 318 113 369T157 529Q172 615 190 655T237 710T322 725Q325 725 325 719T322 713Q257
713 238 607Q215 488 200 437T158 358T78 305Q122 285 139 261T157 194Q157 169 151 125T136 30L131 1Q128 -19 128 -35Q128 -69 140 -87T176 -105Q178 -105 178 -111T176 -117Q133 -117 110 -110Z" />
<glyph unicode="|" glyph-name="bar" horiz-adv-x="152" d="M34 -160T19 -160Q11 -160 4 -158T-2 -151L152 731Q153 736 168 736Q177 736 184 734T190 727L35 -154Q34 -160 19 -160Z" />
<glyph unicode="}" glyph-name="braceright" horiz-adv-x="262" d="M168 725T191 718T226 693T237 641Q237 606 224 528Q208 437 208 400Q208 361 221 339T262 310Q265 310 265 304T262 297Q213 290 188 239T144 79Q129 -7 111 -47T64 -102T-21 -117Q-24 -117
-24 -111T-21 -105Q44 -105 63 1Q86 120 101 171T143 250T223 303Q179 323 162 347T144 414Q144 439 150 483T165 578L170 607Q173 627 173 643Q173 677 161 695T125 713Q123 713 123 719T125 725Q168 725 191 718Z" />
<glyph unicode="~" glyph-name="asciitilde" horiz-adv-x="443" d="M49 149Q47 149 45 151T43 156Q73 195 99 215T156 235Q180 235 233 218Q262 209 280 205T316 200Q344 200 361 210T394 238H395Q398 238 400 236T401 231Q365 185 342 169T289 152Q261 152 210
169Q183 178 164 182T125 187Q98 187 85 179T50 149H49Z" />
<glyph unicode="&#xa0;" glyph-name="uni00A0" horiz-adv-x="234" />
<glyph unicode="&#xa1;" glyph-name="exclamdown" horiz-adv-x="219" d="M161 364T173 351T186 316Q186 296 174 284T139 272Q117 272 105 283T93 316Q93 339 105 351T139 364Q161 364 173 351ZM110 168T115 168T120 162Q89 -129 86 -267Q86 -271 70 -275T36 -279Q18
-279 2 -275T-12 -267Q43 -115 109 163Q110 168 115 168Z" />
<glyph unicode="&#xa2;" glyph-name="cent" horiz-adv-x="492" d="M470 445T471 443T472 432L461 330Q460 326 456 326T451 330Q445 391 412 425T326 463L245 4H254Q307 4 348 36T423 140Q425 143 429 143Q432 143 434 142T436 137L406 31Q404 22 402 20T392 14Q315
-12 244 -12H242L226 -104Q226 -109 217 -109Q212 -109 208 -107T205 -101L221 -11Q126 -4 83 53T39 190Q39 220 43 241Q54 305 91 357T185 441T307 479L322 564Q322 569 330 569Q336 569 340 567T343 560L329 480H332Q365 480 402 472T463 450Q470 445 471 443ZM116
212T116 185Q116 115 142 67T224 7L304 463Q239 458 189 398T121 247Q116 212 116 185Z" />
<glyph unicode="&#xa3;" glyph-name="sterling" horiz-adv-x="388" d="M370 457T369 444L357 342Q357 340 355 339T351 338Q345 338 345 344Q335 464 265 464Q223 464 199 434T165 359Q161 338 161 314Q161 295 163 273T166 242H260Q267 242 267 229Q267 225 266
222T261 218H168Q169 209 169 191Q169 167 165 144Q158 107 143 85T105 44H207Q247 44 267 50T299 72T326 126Q328 129 330 129Q333 129 335 127T337 122Q315 47 309 11Q308 4 305 2T294 0H-2Q-7 0 -7 6Q-7 8 -6 10T-2 13Q48 26 69 50T96 116Q101 142 101 172Q101
197 98 218H56Q49 218 49 231Q49 235 50 238T55 242H95Q92 266 92 290Q92 314 96 335Q109 409 160 444T278 480Q319 480 356 463Q370 457 369 444Z" />
<glyph unicode="&#xa4;" glyph-name="currency" horiz-adv-x="378" d="M302 290Q320 263 320 224Q320 158 273 113L308 65L275 35L241 88Q201 65 160 65Q124 65 97 85L48 35L28 61L77 108Q58 137 58 178Q58 215 71 244T109 293L74 341L106 370L142 316Q179 335
216 335Q256 335 282 312L338 367L356 341L302 290ZM206 85T228 111T260 185Q263 203 263 220Q263 261 246 288T196 315Q167 315 146 291T116 219Q112 193 112 179Q112 139 128 112T176 85Q206 85 228 111Z" />
<glyph unicode="&#xa5;" glyph-name="yen" horiz-adv-x="438" d="M485 468T485 462T481 456Q423 456 358 365L260 228L258 213H347Q353 213 353 201Q353 190 347 190H94Q88 190 88 202Q88 206 89 209T94 213H190L191 217L122 386Q106 425 90 440T49 456Q45 456
45 462T49 468Q60 468 82 466L110 465Q139 465 187 467L234 468Q237 468 237 462T234 456Q186 456 186 428Q186 420 191 407L257 250L338 369Q362 405 362 428Q362 456 329 456Q325 456 325 462T329 468L370 467Q400 465 426 465Q439 465 457 467L481 468Q485 468
485 462ZM342 148T342 136Q342 125 336 125H242L234 79Q230 62 230 46Q230 25 243 19T295 12Q299 12 299 6T295 0Q267 0 251 1L187 2L124 1Q107 0 79 0Q75 0 75 6T79 12Q111 12 128 18T153 38T167 83L175 125H84Q77 125 77 137Q77 148 83 148H335Q342 148 342 136Z"
/>
<glyph unicode="&#xa6;" glyph-name="brokenbar" horiz-adv-x="152" d="M125 351T111 351Q102 351 95 353T88 360L152 731Q153 736 167 736Q176 736 183 734T190 727L125 357Q125 351 111 351ZM33 -163T19 -163Q10 -163 3 -161T-3 -154L61 216Q61 222 76 222Q85
222 92 220T99 213L34 -158Q33 -163 19 -163Z" />
<glyph unicode="&#xa7;" glyph-name="section" horiz-adv-x="396" d="M379 550T378 540L363 432Q363 430 358 430T353 432Q351 456 339 483T304 529T253 548Q229 548 212 531T188 479Q186 465 186 459Q186 424 205 398T264 339Q308 302 330 271T353 194Q353 149
332 111T264 31Q290 0 290 -39Q290 -52 287 -65Q276 -126 230 -157T124 -188Q76 -188 46 -172Q38 -167 39 -156L53 -49Q54 -46 59 -46T64 -49Q67 -73 79 -99T113 -145T163 -164Q188 -164 206 -148T230 -95Q232 -81 232 -76Q232 -40 213 -15T153 45Q109 83 87 113T64
190Q64 236 85 274T153 352Q126 386 126 423Q126 436 129 449Q140 510 186 541T293 572Q341 572 371 556Q379 550 378 540ZM292 143T292 158Q292 207 270 238T203 304Q173 330 161 342Q135 310 127 259Q124 241 124 227Q124 178 146 147T213 80Q243 56 255 42Q281
73 289 125Q292 143 292 158Z" />
<glyph unicode="&#xa8;" glyph-name="dieresis" horiz-adv-x="275" d="M96 473T84 485T72 519Q72 540 84 551T118 563Q139 563 150 552T162 519Q162 497 151 485T118 473Q96 473 84 485ZM249 473T237 485T225 519Q225 540 237 551T271 563Q292 563 304 552T316
519Q316 497 304 485T271 473Q249 473 237 485Z" />
<glyph unicode="&#xa9;" glyph-name="copyright" horiz-adv-x="725" d="M297 -103T228 -69T115 31T71 189Q71 278 117 349T240 460T403 500Q479 500 537 469T626 385T657 269Q657 209 624 156T534 71T405 39Q344 39 304 61T244 119T225 195Q225 247 250 285T315
343T398 364Q437 364 467 350T498 311Q498 296 489 287T464 277Q443 277 426 307Q414 326 403 335T370 345Q330 345 314 315T297 224Q297 155 332 111T445 66Q488 66 526 86T587 145T610 239Q610 304 579 358T492 445T370 477Q294 477 239 442T155 346T126 213Q126
124 165 60T269 -38T404 -71Q461 -71 504 -61T597 -23Q599 -22 602 -25T603 -31Q548 -73 493 -88T373 -103Q297 -103 228 -69Z" />
<glyph unicode="&#xaa;" glyph-name="ordfeminine" horiz-adv-x="276" d="M308 425Q311 425 314 422T316 417Q293 390 275 377T239 364Q214 364 214 397Q214 409 217 427L225 477Q198 422 163 392T94 361Q75 361 65 373T54 410Q54 456 81 508T150 597T227 633Q254
633 271 616Q282 627 286 638Q287 640 291 639T295 636L257 427Q255 413 255 410Q255 392 266 392Q273 392 282 400T307 425H308ZM142 397T166 421T211 481T238 549Q240 561 240 566Q240 585 231 596T204 607Q182 607 160 589T121 539T99 470Q96 452 96 438Q96
397 122 397Q142 397 166 421ZM271 313T272 309T274 300Q274 295 273 291T269 286H44Q40 286 40 301Q40 313 43 313H269Q271 313 272 309Z" />
<glyph unicode="&#xab;" glyph-name="guillemotleft" horiz-adv-x="427" d="M246 364Q249 364 252 361T253 356L125 201L199 47V46Q199 43 196 40T191 40L50 189Q47 194 47 199Q47 206 53 212L245 364H246ZM394 364Q397 364 400 361T400 356L272 201L347 47V46Q347
43 344 40T338 40L197 189Q194 192 194 198Q194 206 201 212L392 364H394Z" />
<glyph unicode="&#xac;" glyph-name="logicalnot" horiz-adv-x="400" d="M367 79Q367 77 360 76T345 74Q338 74 332 75T325 78V227H37Q35 227 34 234T32 249Q32 256 33 262T36 269H367V79Z" />
<glyph unicode="&#xad;" glyph-name="uni00AD" horiz-adv-x="305" d="M28 165T28 195Q28 212 30 213L279 259Q281 260 282 251T284 232Q284 213 281 213L33 166Q28 165 28 195Z" />
<glyph unicode="&#xae;" glyph-name="registered" horiz-adv-x="759" d="M523 725T588 689T688 590T723 451Q723 365 681 293T566 180T409 138Q334 138 266 172T156 272T113 425Q113 512 158 580T278 687T438 725Q523 725 588 689ZM550 166T613 235T676 421Q676
503 641 567T544 666T404 702Q326 702 271 668T189 578T162 454Q162 367 201 302T305 201T439 166Q550 166 613 235ZM585 286T585 282T582 278H497Q480 278 429 440Q408 436 379 436L361 334Q358 321 358 312Q358 298 367 294T401 290Q402 290 402 287Q402 284
401 282T399 278L326 279L255 278Q254 278 254 280Q254 283 255 286T257 290Q286 290 295 297T309 334L347 550Q350 564 350 571Q350 584 342 589T311 594Q310 594 310 596Q310 599 311 602T313 606L384 605Q397 605 427 607L467 608Q551 608 551 556Q551 551 549
541Q539 482 478 455Q499 393 512 361T542 310T583 286Q585 286 585 282ZM404 452T411 452Q446 452 465 467T491 519Q494 534 494 546Q494 595 448 595Q430 595 422 593T408 580T398 547L382 454Q404 452 411 452Z" />
<glyph unicode="&#xaf;" glyph-name="overscore" horiz-adv-x="333" d="M95 477T95 493Q95 509 102 509H336Q340 509 342 504T344 493Q344 487 342 482T336 477H102Q95 477 95 493Z" />
<glyph unicode="&#xb0;" glyph-name="degree" horiz-adv-x="299" d="M127 373T98 407T68 487Q68 502 71 515Q81 562 124 596T226 630Q282 630 310 598T339 518Q339 477 318 444T262 392T184 373Q127 373 98 407ZM230 389T246 413T271 482Q276 517 276 537Q276
615 218 615Q182 615 164 589T136 518Q131 490 131 468Q131 389 194 389Q230 389 246 413Z" />
<glyph unicode="&#xb1;" glyph-name="plusminus" horiz-adv-x="398" d="M32 232T31 239T29 254Q29 261 30 267T33 273H178V418Q178 422 199 422Q220 422 220 418V273H364Q366 273 367 267T369 253Q369 245 368 239T364 232H220V88Q220 86 213 85T198 83Q191 83
185 84T178 87V232H34Q32 232 31 239ZM366 39T367 33T369 20Q369 13 368 7T364 1H34Q32 1 31 7T29 21Q29 28 30 33T33 39H364Q366 39 367 33Z" />
<glyph unicode="&#xb2;" glyph-name="uni00B2" horiz-adv-x="230" d="M267 623T245 597T180 530Q148 500 132 483T106 447H107Q165 447 189 450T224 464T244 499Q246 502 249 502Q252 502 254 501T256 496L238 405Q238 403 236 403H70Q67 403 67 405T68 412Q80
441 98 466T147 527Q182 568 200 595T222 652Q223 656 223 664Q223 683 214 694T188 705Q167 705 148 689T119 648Q118 645 114 645Q111 645 109 647T107 652Q144 729 209 729Q241 729 257 713T274 670Q274 664 272 652Q267 623 245 597Z" />
<glyph unicode="&#xb3;" glyph-name="uni00B3" horiz-adv-x="230" d="M270 637T249 611T197 573Q253 559 253 507Q253 483 240 457T200 414T141 397Q77 397 69 464Q68 468 73 469T80 466Q84 446 97 432T134 418Q158 418 176 436T200 492Q202 506 202 512Q202 539
187 552T146 565Q143 565 143 571T146 577Q173 577 192 599T217 652Q218 657 218 666Q218 684 209 694T183 704Q163 704 145 689T117 651Q116 649 113 649Q110 649 108 651T107 655Q122 688 147 708T206 729Q237 729 253 713T270 669Q270 637 249 611Z" />
<glyph unicode="&#xb4;" glyph-name="acute" horiz-adv-x="212" d="M118 470T113 472T109 476L196 716Q198 721 220 726T260 731Q273 731 272 727L119 473Q118 470 113 472Z" />
<glyph unicode="&#xb6;" glyph-name="paragraph" horiz-adv-x="594" d="M217 -193T200 -180T185 -146Q188 -129 198 -121T224 -112Q239 -112 245 -119T256 -140Q260 -155 266 -162T288 -169Q306 -169 316 -156T335 -108T358 8L379 125Q343 122 300 122Q207 122
142 170T76 324Q76 353 82 386Q105 505 185 566T386 628Q414 628 445 625Q511 622 519 622Q538 622 572 624L619 625Q624 625 624 619T619 613Q580 613 555 592T522 532L439 55Q416 -73 370 -133T251 -193Q217 -193 200 -180Z" />
<glyph unicode="&#xb7;" glyph-name="middot" horiz-adv-x="203" d="M82 162T70 175T57 210Q57 230 69 242T104 254Q126 254 138 243T150 210Q150 187 138 175T104 162Q82 162 70 175Z" />
<glyph unicode="&#xb8;" glyph-name="cedilla" horiz-adv-x="196" d="M-25 -275T-43 -264T-62 -233Q-62 -217 -53 -209T-28 -201Q-15 -201 -8 -209T5 -231Q11 -244 16 -250T31 -256Q44 -256 52 -248T64 -223Q67 -193 22 -138Q10 -125 10 -104Q10 -84 22 -60L51
0H64Q52 -27 52 -45Q52 -60 58 -73T79 -104Q111 -146 111 -175Q111 -184 110 -188Q106 -219 77 -247T2 -275Q-25 -275 -43 -264Z" />
<glyph unicode="&#xb9;" glyph-name="uni00B9" horiz-adv-x="239" d="M77 403T77 408T80 414Q109 414 121 418T140 435T153 483L174 601Q181 643 181 654Q181 674 168 674Q156 674 119 657H117Q114 657 113 661T114 668L236 729Q237 730 239 730Q241 730 243 728T244
723L203 483Q197 447 197 441Q197 424 207 419T247 414Q250 414 250 409T247 403Q225 403 213 404L167 405L116 404Q103 403 80 403Q77 403 77 408Z" />
<glyph unicode="&#xba;" glyph-name="ordmasculine" horiz-adv-x="269" d="M110 359T87 388T64 462Q64 474 68 498Q78 558 119 594T209 630Q252 630 275 601T298 526Q298 512 295 495Q288 455 266 424T213 376T151 359Q110 359 87 388ZM198 377T218 401T247 472Q251
492 251 515Q251 559 235 586T188 613Q161 613 142 590T115 520Q111 499 111 475Q111 431 127 404T171 377Q198 377 218 401ZM47 286T46 290T44 300Q44 305 45 309T48 313H269Q271 313 272 309T274 300Q274 295 273 291T269 286H49Q47 286 46 290Z" />
<glyph unicode="&#xbb;" glyph-name="guillemotright" horiz-adv-x="426" d="M35 37Q32 37 29 40T28 46L157 200L82 354V355Q82 358 85 361T90 361L232 212Q235 208 235 202Q235 195 229 189L36 37H35ZM182 37Q179 37 176 40T176 46L305 200L229 354V355Q229 358
232 361T238 361L379 212Q382 208 382 202Q382 195 376 189L184 37H182Z" />
<glyph unicode="&#xbc;" glyph-name="onequarter" horiz-adv-x="552" d="M59 309T59 314T62 320Q91 320 103 324T122 341T135 389L156 507Q163 549 163 560Q163 580 150 580Q138 580 101 563H99Q96 563 95 567T96 574L218 635Q219 636 221 636Q223 636 225 634T226
629L185 389Q179 353 179 347Q179 330 189 325T229 320Q232 320 232 315T229 309Q207 309 195 310L149 311L98 310Q85 309 62 309Q59 309 59 314ZM154 -4Q149 -4 139 1T130 8L468 626Q468 627 470 627Q476 627 485 622T493 613L155 -4H154ZM516 119T516 114Q516
106 514 97T510 87L472 90L464 41L462 25Q462 16 469 13T496 10Q501 10 501 4T496 -2Q481 -2 473 -1L438 0L395 -1Q384 -2 364 -2Q360 -2 360 4T364 10Q395 10 404 15T418 41L427 92Q396 93 316 93Q315 93 314 95T315 99L500 326Q501 327 504 327Q507 327 510 325T512
320L477 117L515 119Q516 119 516 114ZM389 113T431 115L453 245L357 117Q356 116 356 115T359 113Q389 113 431 115Z" />
<glyph unicode="&#xbd;" glyph-name="onehalf" horiz-adv-x="566" d="M59 309T59 314T62 320Q91 320 103 324T122 341T135 389L156 507Q163 549 163 560Q163 580 150 580Q138 580 101 563H99Q96 563 95 567T96 574L218 635Q219 636 221 636Q223 636 225 634T226
629L185 389Q179 353 179 347Q179 330 189 325T229 320Q232 320 232 315T229 309Q207 309 195 310L149 311L98 310Q85 309 62 309Q59 309 59 314ZM154 -4Q149 -4 139 1T130 8L468 626Q468 627 470 627Q476 627 485 622T493 613L155 -4H154ZM533 220T511 194T446
127Q414 97 398 80T372 44H373Q431 44 455 47T490 61T510 96Q512 99 515 99Q518 99 520 98T522 93L504 2Q504 0 502 0H336Q333 0 333 2T334 9Q346 38 364 63T413 124Q448 165 466 192T488 249Q489 253 489 261Q489 280 480 291T454 302Q433 302 414 286T385 245Q384
242 380 242Q377 242 375 244T373 249Q410 326 475 326Q507 326 523 310T540 267Q540 261 538 249Q533 220 511 194Z" />
<glyph unicode="&#xbe;" glyph-name="threequarters" horiz-adv-x="543" d="M252 543T231 517T179 479Q235 465 235 413Q235 389 222 363T182 320T123 303Q59 303 51 370Q50 374 55 375T62 372Q66 352 79 338T116 324Q140 324 158 342T182 398Q184 412 184 418Q184
445 169 458T128 471Q125 471 125 477T128 483Q155 483 174 505T199 558Q200 563 200 572Q200 590 191 600T165 610Q145 610 127 595T99 557Q98 555 95 555Q92 555 90 557T89 561Q104 594 129 614T188 635Q219 635 235 619T252 575Q252 543 231 517ZM145 -4Q140
-4 130 1T121 8L459 626Q459 627 461 627Q467 627 476 622T484 613L146 -4H145ZM507 119T507 114Q507 106 505 97T501 87L463 90L455 41L453 25Q453 16 460 13T487 10Q492 10 492 4T487 -2Q472 -2 464 -1L429 0L386 -1Q375 -2 355 -2Q351 -2 351 4T355 10Q386 10
395 15T409 41L418 92Q387 93 307 93Q306 93 305 95T306 99L491 326Q492 327 495 327Q498 327 501 325T503 320L468 117L506 119Q507 119 507 114ZM380 113T422 115L444 245L348 117Q347 116 347 115T350 113Q380 113 422 115Z" />
<glyph unicode="&#xbf;" glyph-name="questiondown" horiz-adv-x="311" d="M228 360T240 347T253 312Q253 292 241 280T206 268Q184 268 172 279T160 312Q160 335 172 347T206 360Q228 360 240 347ZM193 140T198 114T204 65Q204 24 187 -1T133 -56Q100 -83 82
-106T56 -167Q54 -183 54 -191Q54 -221 68 -240T108 -259Q131 -259 140 -248T156 -215Q160 -194 169 -180T200 -166Q216 -166 224 -175T233 -198Q233 -205 232 -208Q228 -238 189 -256T100 -275Q47 -275 15 -251T-17 -181Q-17 -169 -14 -155Q-8 -124 7 -101T38
-63T86 -22Q128 12 146 39T170 102Q172 111 172 132Q172 150 171 159Q171 163 177 164T184 161Q193 140 198 114Z" />
<glyph unicode="&#xc0;" glyph-name="Agrave" horiz-adv-x="602" d="M570 12T570 6T566 0Q551 0 519 2Q483 4 462 4Q440 4 408 2Q376 0 362 0Q359 0 359 6T362 12Q397 12 411 21T425 54Q425 68 422 84L382 319H232L129 131Q100 79 100 51Q100 29 117 21T169 12Q173
12 173 6T168 0Q156 0 120 2Q80 4 58 4Q37 4 9 2Q-19 0 -34 0Q-38 0 -38 6T-34 12Q-5 12 29 39T98 127L382 635Q384 638 389 638Q398 638 400 633L495 84Q500 53 505 39T524 19T566 12Q570 12 570 6ZM245 342H378L346 527L245 342ZM428 708T386 724T290 756Q280
758 299 767T345 783T376 787Q419 748 486 694Q488 694 488 691Q488 688 485 686T479 685Q428 708 386 724Z" />
<glyph unicode="&#xc1;" glyph-name="Aacute" horiz-adv-x="602" d="M570 12T570 6T566 0Q551 0 519 2Q483 4 462 4Q440 4 408 2Q376 0 362 0Q359 0 359 6T362 12Q397 12 411 21T425 54Q425 68 422 84L382 319H232L129 131Q100 79 100 51Q100 29 117 21T169 12Q173
12 173 6T168 0Q156 0 120 2Q80 4 58 4Q37 4 9 2Q-19 0 -34 0Q-38 0 -38 6T-34 12Q-5 12 29 39T98 127L382 635Q384 638 389 638Q398 638 400 633L495 84Q500 53 505 39T524 19T566 12Q570 12 570 6ZM245 342H378L346 527L245 342ZM335 678Q331 678 330 682T332
689Q365 707 397 729T439 757L482 787Q487 790 510 783T550 767T559 756Q497 741 446 723T337 679L335 678Z" />
<glyph unicode="&#xc2;" glyph-name="Acircumflex" horiz-adv-x="602" d="M570 12T570 6T566 0Q551 0 519 2Q483 4 462 4Q440 4 408 2Q376 0 362 0Q359 0 359 6T362 12Q397 12 411 21T425 54Q425 68 422 84L382 319H232L129 131Q100 79 100 51Q100 29 117 21T169
12Q173 12 173 6T168 0Q156 0 120 2Q80 4 58 4Q37 4 9 2Q-19 0 -34 0Q-38 0 -38 6T-34 12Q-5 12 29 39T98 127L382 635Q384 638 389 638Q398 638 400 633L495 84Q500 53 505 39T524 19T566 12Q570 12 570 6ZM245 342H378L346 527L245 342ZM298 660Q295 660 293
662T293 667L403 770Q406 775 412 775Q418 775 421 770L498 667L499 665Q499 663 496 661T491 660L403 711L299 660H298Z" />
<glyph unicode="&#xc3;" glyph-name="Atilde" horiz-adv-x="602" d="M570 12T570 6T566 0Q551 0 519 2Q483 4 462 4Q440 4 408 2Q376 0 362 0Q359 0 359 6T362 12Q397 12 411 21T425 54Q425 68 422 84L382 319H232L129 131Q100 79 100 51Q100 29 117 21T169 12Q173
12 173 6T168 0Q156 0 120 2Q80 4 58 4Q37 4 9 2Q-19 0 -34 0Q-38 0 -38 6T-34 12Q-5 12 29 39T98 127L382 635Q384 638 389 638Q398 638 400 633L495 84Q500 53 505 39T524 19T566 12Q570 12 570 6ZM245 342H378L346 527L245 342ZM279 692Q276 692 274 694T273
699Q291 725 314 746T364 767Q380 767 415 756Q459 742 487 742Q506 742 518 748T543 769H545Q548 769 550 767T550 762Q522 722 505 709T465 695Q448 695 429 700T405 706Q364 719 336 719Q317 719 307 714T290 702T280 692H279Z" />
<glyph unicode="&#xc4;" glyph-name="Adieresis" horiz-adv-x="602" d="M570 12T570 6T566 0Q551 0 519 2Q483 4 462 4Q440 4 408 2Q376 0 362 0Q359 0 359 6T362 12Q397 12 411 21T425 54Q425 68 422 84L382 319H232L129 131Q100 79 100 51Q100 29 117 21T169
12Q173 12 173 6T168 0Q156 0 120 2Q80 4 58 4Q37 4 9 2Q-19 0 -34 0Q-38 0 -38 6T-34 12Q-5 12 29 39T98 127L382 635Q384 638 389 638Q398 638 400 633L495 84Q500 53 505 39T524 19T566 12Q570 12 570 6ZM245 342H378L346 527L245 342ZM312 712T300 724T288
758Q288 779 300 790T334 802Q355 802 366 791T378 758Q378 736 367 724T334 712Q312 712 300 724ZM465 712T453 724T441 758Q441 779 453 790T487 802Q508 802 520 791T532 758Q532 736 520 724T487 712Q465 712 453 724Z" />
<glyph unicode="&#xc5;" glyph-name="Aring" horiz-adv-x="602" d="M570 12T570 6T566 0Q551 0 519 2Q483 4 462 4Q440 4 408 2Q376 0 362 0Q359 0 359 6T362 12Q397 12 411 21T425 54Q425 68 422 84L382 319H232L129 131Q100 79 100 51Q100 29 117 21T169 12Q173
12 173 6T168 0Q156 0 120 2Q80 4 58 4Q37 4 9 2Q-19 0 -34 0Q-38 0 -38 6T-34 12Q-5 12 29 39T98 127L382 635Q384 638 389 638Q398 638 400 633L495 84Q500 53 505 39T524 19T566 12Q570 12 570 6ZM245 342H378L346 527L245 342ZM354 668T331 691T307 748Q307
784 336 804T403 825Q440 825 465 802T491 745Q491 710 462 689T394 668Q354 668 331 691ZM438 679T438 728Q438 762 422 787T384 813Q358 813 358 767Q358 734 372 707T409 679Q438 679 438 728Z" />
<glyph unicode="&#xc6;" glyph-name="AE" horiz-adv-x="770" d="M767 625T765 616L756 555Q754 540 752 523T746 489Q745 485 739 486T734 490Q736 545 710 578T633 611H602Q555 611 538 597T515 543L489 337H595Q638 337 659 354T689 410Q689 413 693 413Q696
413 698 412T700 409Q695 376 690 354L685 325Q679 287 677 272L670 229Q670 227 666 227Q663 227 661 228T658 231Q660 240 660 256Q660 286 643 300T588 314H486L457 85Q455 63 455 56Q455 33 467 26T515 18H566Q609 18 649 54T713 152Q715 155 720 154T724 150Q706
92 692 15Q690 6 687 3T676 0H303Q299 0 299 6T303 12Q334 12 350 17T373 37T385 81L415 314H269L130 123Q99 80 99 53Q99 12 167 12Q171 12 171 6T167 0Q152 0 110 2Q66 4 40 4Q17 4 -13 2Q-39 0 -56 0Q-61 0 -61 6T-56 12Q-16 12 19 37T107 133L426 575Q440 595
440 602Q440 610 427 611T371 613Q367 613 367 619T371 625H759Q767 625 765 616ZM286 337H418L447 558L286 337Z" />
<glyph unicode="&#xc7;" glyph-name="Ccedilla" horiz-adv-x="586" d="M587 599T588 595T589 579L577 461Q576 457 571 457T566 461Q556 537 512 574T396 612Q334 612 282 580T196 487T149 346Q142 305 142 262Q142 188 164 129T227 37T324 3Q379 3 432 40T534
154Q536 156 538 156Q541 156 543 154T544 150L515 40Q512 28 509 24T497 17Q410 -13 319 -13Q312 -31 312 -46Q312 -61 319 -74T339 -104Q371 -146 371 -175Q371 -184 370 -188Q366 -219 337 -247T262 -275Q235 -275 217 -264T198 -233Q198 -217 207 -209T232
-201Q245 -201 252 -209T265 -231Q271 -244 276 -250T291 -256Q304 -256 312 -248T324 -223Q327 -193 282 -138Q270 -125 270 -104Q270 -84 282 -60L305 -13Q177 -9 118 64T58 244Q58 280 64 316Q81 411 137 484T273 596T434 636Q475 636 516 627T581 603Q587 599
588 595Z" />
<glyph unicode="&#xc8;" glyph-name="Egrave" horiz-adv-x="520" d="M518 625T516 616L508 562L496 489Q496 486 491 486Q489 486 487 487T484 490Q488 543 463 575T392 608H330Q299 608 285 603T263 585T251 543L215 337H347Q388 337 409 353T437 409Q437 412
443 412Q445 412 447 411T449 407Q446 385 440 361Q436 346 433 325L428 294Q425 263 418 229Q417 225 411 225T406 230Q409 245 409 257Q409 287 392 300T340 314H211L170 85Q167 67 167 55Q167 34 179 27T226 19H309Q353 19 395 55T463 152Q465 155 470 154T474
150Q456 92 442 15Q440 6 437 3T426 0H17Q15 0 15 6T17 12Q48 12 63 17T85 36T99 81L180 544Q184 561 184 577Q184 598 171 605T124 613Q121 613 121 619T124 625H510Q518 625 516 616ZM381 708T339 724T243 756Q233 758 252 767T298 783T329 787Q372 748 439 694Q441
694 441 691Q441 688 438 686T432 685Q381 708 339 724Z" />
<glyph unicode="&#xc9;" glyph-name="Eacute" horiz-adv-x="520" d="M518 625T516 616L508 562L496 489Q496 486 491 486Q489 486 487 487T484 490Q488 543 463 575T392 608H330Q299 608 285 603T263 585T251 543L215 337H347Q388 337 409 353T437 409Q437 412
443 412Q445 412 447 411T449 407Q446 385 440 361Q436 346 433 325L428 294Q425 263 418 229Q417 225 411 225T406 230Q409 245 409 257Q409 287 392 300T340 314H211L170 85Q167 67 167 55Q167 34 179 27T226 19H309Q353 19 395 55T463 152Q465 155 470 154T474
150Q456 92 442 15Q440 6 437 3T426 0H17Q15 0 15 6T17 12Q48 12 63 17T85 36T99 81L180 544Q184 561 184 577Q184 598 171 605T124 613Q121 613 121 619T124 625H510Q518 625 516 616ZM288 678Q284 678 283 682T285 689Q318 707 350 729T392 757L435 787Q440 790
463 783T503 767T512 756Q450 741 399 723T290 679L288 678Z" />
<glyph unicode="&#xca;" glyph-name="Ecircumflex" horiz-adv-x="520" d="M518 625T516 616L508 562L496 489Q496 486 491 486Q489 486 487 487T484 490Q488 543 463 575T392 608H330Q299 608 285 603T263 585T251 543L215 337H347Q388 337 409 353T437 409Q437
412 443 412Q445 412 447 411T449 407Q446 385 440 361Q436 346 433 325L428 294Q425 263 418 229Q417 225 411 225T406 230Q409 245 409 257Q409 287 392 300T340 314H211L170 85Q167 67 167 55Q167 34 179 27T226 19H309Q353 19 395 55T463 152Q465 155 470 154T474
150Q456 92 442 15Q440 6 437 3T426 0H17Q15 0 15 6T17 12Q48 12 63 17T85 36T99 81L180 544Q184 561 184 577Q184 598 171 605T124 613Q121 613 121 619T124 625H510Q518 625 516 616ZM251 660Q248 660 246 662T246 667L356 770Q359 775 365 775Q371 775 374 770L451
667L452 665Q452 663 449 661T444 660L356 711L252 660H251Z" />
<glyph unicode="&#xcb;" glyph-name="Edieresis" horiz-adv-x="520" d="M518 625T516 616L508 562L496 489Q496 486 491 486Q489 486 487 487T484 490Q488 543 463 575T392 608H330Q299 608 285 603T263 585T251 543L215 337H347Q388 337 409 353T437 409Q437
412 443 412Q445 412 447 411T449 407Q446 385 440 361Q436 346 433 325L428 294Q425 263 418 229Q417 225 411 225T406 230Q409 245 409 257Q409 287 392 300T340 314H211L170 85Q167 67 167 55Q167 34 179 27T226 19H309Q353 19 395 55T463 152Q465 155 470 154T474
150Q456 92 442 15Q440 6 437 3T426 0H17Q15 0 15 6T17 12Q48 12 63 17T85 36T99 81L180 544Q184 561 184 577Q184 598 171 605T124 613Q121 613 121 619T124 625H510Q518 625 516 616ZM265 712T253 724T241 758Q241 779 253 790T287 802Q308 802 319 791T331 758Q331
736 320 724T287 712Q265 712 253 724ZM418 712T406 724T394 758Q394 779 406 790T440 802Q461 802 473 791T485 758Q485 736 473 724T440 712Q418 712 406 724Z" />
<glyph unicode="&#xcc;" glyph-name="Igrave" horiz-adv-x="317" d="M19 0T19 6T22 12Q53 12 67 17T89 36T102 81L184 544Q188 570 188 576Q188 598 175 605T127 613Q124 613 124 619T127 625L170 624Q208 622 230 622Q259 622 297 624L337 625Q340 625 340 619T337
613Q307 613 292 607T270 587T256 542L174 81Q170 55 170 49Q170 27 183 20T232 12Q234 12 234 6T232 0Q206 0 190 1L126 2L66 1Q50 0 22 0Q19 0 19 6ZM272 708T230 724T134 756Q124 758 143 767T189 783T220 787Q263 748 330 694Q332 694 332 691Q332 688 329
686T323 685Q272 708 230 724Z" />
<glyph unicode="&#xcd;" glyph-name="Iacute" horiz-adv-x="317" d="M19 0T19 6T22 12Q53 12 67 17T89 36T102 81L184 544Q188 570 188 576Q188 598 175 605T127 613Q124 613 124 619T127 625L170 624Q208 622 230 622Q259 622 297 624L337 625Q340 625 340 619T337
613Q307 613 292 607T270 587T256 542L174 81Q170 55 170 49Q170 27 183 20T232 12Q234 12 234 6T232 0Q206 0 190 1L126 2L66 1Q50 0 22 0Q19 0 19 6ZM179 678Q175 678 174 682T176 689Q209 707 241 729T283 757L326 787Q331 790 354 783T394 767T403 756Q341
741 290 723T181 679L179 678Z" />
<glyph unicode="&#xce;" glyph-name="Icircumflex" horiz-adv-x="317" d="M19 0T19 6T22 12Q53 12 67 17T89 36T102 81L184 544Q188 570 188 576Q188 598 175 605T127 613Q124 613 124 619T127 625L170 624Q208 622 230 622Q259 622 297 624L337 625Q340 625 340
619T337 613Q307 613 292 607T270 587T256 542L174 81Q170 55 170 49Q170 27 183 20T232 12Q234 12 234 6T232 0Q206 0 190 1L126 2L66 1Q50 0 22 0Q19 0 19 6ZM142 660Q139 660 137 662T137 667L247 770Q250 775 256 775Q262 775 265 770L342 667L343 665Q343
663 340 661T335 660L247 711L143 660H142Z" />
<glyph unicode="&#xcf;" glyph-name="Idieresis" horiz-adv-x="317" d="M19 0T19 6T22 12Q53 12 67 17T89 36T102 81L184 544Q188 570 188 576Q188 598 175 605T127 613Q124 613 124 619T127 625L170 624Q208 622 230 622Q259 622 297 624L337 625Q340 625 340
619T337 613Q307 613 292 607T270 587T256 542L174 81Q170 55 170 49Q170 27 183 20T232 12Q234 12 234 6T232 0Q206 0 190 1L126 2L66 1Q50 0 22 0Q19 0 19 6ZM164 712T152 724T139 758Q139 779 151 790T186 802Q208 802 219 791T230 758Q230 736 219 724T186
712Q164 712 152 724ZM303 712T292 724T280 758Q280 779 291 790T325 802Q346 802 357 791T369 758Q369 736 358 724T325 712Q303 712 292 724Z" />
<glyph unicode="&#xd0;" glyph-name="Eth" horiz-adv-x="620" d="M420 627T480 596T573 510T606 382Q606 348 601 323Q584 227 529 153T398 37T241 -4Q217 -4 185 -1Q173 0 156 1T116 2L54 1Q39 0 12 0Q9 0 9 6T12 12Q43 12 58 17T81 36T94 81L133 300H60Q56 300
56 311Q56 322 60 322H137L176 544Q180 561 180 576Q180 598 167 605T119 613Q117 613 117 619T119 625L163 624Q201 622 225 622Q254 622 286 625Q324 627 339 627Q420 627 480 596ZM523 339T523 380Q523 482 476 546T338 611Q292 611 273 597T246 542L207 322H322Q327
322 327 311Q327 307 326 304T322 300H204L167 92Q164 76 164 62Q164 36 180 24T236 12Q303 12 361 46T459 145T516 301Q523 339 523 380Z" />
<glyph unicode="&#xd1;" glyph-name="Ntilde" horiz-adv-x="652" d="M696 625T696 619T694 613Q619 613 603 515L509 -9Q509 -11 506 -12T499 -14Q491 -14 490 -10L197 543L122 109Q118 83 118 74Q118 12 177 12Q179 12 179 6T177 0Q155 0 142 1L93 2L45 1Q32
0 7 0Q5 0 5 6T7 12Q82 12 98 109L180 571Q164 594 148 603T114 613Q111 613 111 619T114 625L153 624Q165 623 186 623Q205 623 218 624T237 625Q243 625 246 622T253 606Q260 586 267 573L508 116L579 515Q583 541 583 551Q583 613 524 613Q522 613 522 619T524
625L558 624Q588 622 609 622Q625 622 655 624L694 625Q696 625 696 619ZM286 692Q283 692 281 694T280 699Q298 725 321 746T371 767Q387 767 422 756Q466 742 494 742Q513 742 525 748T550 769H552Q555 769 557 767T557 762Q529 722 512 709T472 695Q455 695
436 700T412 706Q371 719 343 719Q324 719 314 714T297 702T287 692H286Z" />
<glyph unicode="&#xd2;" glyph-name="Ograve" horiz-adv-x="652" d="M213 -12T163 20T86 110T60 240Q60 276 66 313Q82 406 132 479T255 594T410 636Q481 636 532 604T611 515T638 386Q638 348 631 313Q614 218 562 144T436 29T283 -12Q213 -12 163 20ZM408 14T467
79T549 260Q559 309 559 358Q559 431 537 488T471 579T370 612Q287 612 228 546T147 366Q138 318 138 273Q138 200 160 141T224 48T326 14Q408 14 467 79ZM440 708T398 724T302 756Q292 758 311 767T357 783T388 787Q431 748 498 694Q500 694 500 691Q500 688 497
686T491 685Q440 708 398 724Z" />
<glyph unicode="&#xd3;" glyph-name="Oacute" horiz-adv-x="652" d="M213 -12T163 20T86 110T60 240Q60 276 66 313Q82 406 132 479T255 594T410 636Q481 636 532 604T611 515T638 386Q638 348 631 313Q614 218 562 144T436 29T283 -12Q213 -12 163 20ZM408 14T467
79T549 260Q559 309 559 358Q559 431 537 488T471 579T370 612Q287 612 228 546T147 366Q138 318 138 273Q138 200 160 141T224 48T326 14Q408 14 467 79ZM347 678Q343 678 342 682T344 689Q377 707 409 729T451 757L494 787Q499 790 522 783T562 767T571 756Q509
741 458 723T349 679L347 678Z" />
<glyph unicode="&#xd4;" glyph-name="Ocircumflex" horiz-adv-x="652" d="M213 -12T163 20T86 110T60 240Q60 276 66 313Q82 406 132 479T255 594T410 636Q481 636 532 604T611 515T638 386Q638 348 631 313Q614 218 562 144T436 29T283 -12Q213 -12 163 20ZM408
14T467 79T549 260Q559 309 559 358Q559 431 537 488T471 579T370 612Q287 612 228 546T147 366Q138 318 138 273Q138 200 160 141T224 48T326 14Q408 14 467 79ZM310 660Q307 660 305 662T305 667L415 770Q418 775 424 775Q430 775 433 770L510 667L511 665Q511
663 508 661T503 660L415 711L311 660H310Z" />
<glyph unicode="&#xd5;" glyph-name="Otilde" horiz-adv-x="652" d="M213 -12T163 20T86 110T60 240Q60 276 66 313Q82 406 132 479T255 594T410 636Q481 636 532 604T611 515T638 386Q638 348 631 313Q614 218 562 144T436 29T283 -12Q213 -12 163 20ZM408 14T467
79T549 260Q559 309 559 358Q559 431 537 488T471 579T370 612Q287 612 228 546T147 366Q138 318 138 273Q138 200 160 141T224 48T326 14Q408 14 467 79ZM291 692Q288 692 286 694T285 699Q303 725 326 746T376 767Q392 767 427 756Q471 742 499 742Q518 742 530
748T555 769H557Q560 769 562 767T562 762Q534 722 517 709T477 695Q460 695 441 700T417 706Q376 719 348 719Q329 719 319 714T302 702T292 692H291Z" />
<glyph unicode="&#xd6;" glyph-name="Odieresis" horiz-adv-x="652" d="M213 -12T163 20T86 110T60 240Q60 276 66 313Q82 406 132 479T255 594T410 636Q481 636 532 604T611 515T638 386Q638 348 631 313Q614 218 562 144T436 29T283 -12Q213 -12 163 20ZM408
14T467 79T549 260Q559 309 559 358Q559 431 537 488T471 579T370 612Q287 612 228 546T147 366Q138 318 138 273Q138 200 160 141T224 48T326 14Q408 14 467 79ZM324 712T312 724T300 758Q300 779 312 790T346 802Q367 802 378 791T390 758Q390 736 379 724T346
712Q324 712 312 724ZM477 712T465 724T453 758Q453 779 465 790T499 802Q520 802 532 791T544 758Q544 736 532 724T499 712Q477 712 465 724Z" />
<glyph unicode="&#xd7;" glyph-name="multiply" horiz-adv-x="398" d="M330 88Q333 84 319 70T300 59L199 160L96 58Q94 54 79 69T66 86L169 190L67 292Q64 295 79 309T96 322L199 219L300 321Q304 323 318 309T330 291L228 190L330 88Z" />
<glyph unicode="&#xd8;" glyph-name="Oslash" horiz-adv-x="652" d="M650 633Q654 633 661 627T665 617L594 545Q638 480 638 386Q638 357 631 313Q614 218 562 144T436 29T283 -12Q230 -12 188 6T117 60L48 -10L46 -11Q41 -11 35 -4T31 7L103 80Q60 146 60 241Q60
276 66 313Q82 406 132 479T255 594T410 636Q518 636 580 563L648 632L650 633ZM139 323T139 273Q139 196 161 139L527 509Q503 558 463 585T370 612Q287 612 228 546T147 366Q139 323 139 273ZM559 307T559 357Q559 427 537 487L171 115Q195 68 234 41T326 14Q408
14 467 79T549 260Q559 307 559 357Z" />
<glyph unicode="&#xd9;" glyph-name="Ugrave" horiz-adv-x="619" d="M565 530T565 544Q565 613 500 613Q497 613 497 619T500 625L542 624Q574 622 592 622Q609 622 641 624L677 625Q681 625 681 619T677 613Q641 613 618 586T585 508L533 214Q515 107 445 47T276
-13Q189 -13 139 34T89 163Q89 185 94 215L153 546Q156 564 156 577Q156 599 143 606T93 613Q90 613 90 619T92 625L139 624Q177 622 200 622Q228 622 268 624L309 625Q313 625 313 619T309 613Q277 613 261 607T236 585T223 539L170 245Q163 209 163 175Q163 97
200 58T304 19Q384 19 438 72T509 218L562 512Q565 530 565 544ZM394 729T284 756Q275 758 292 767T332 783T360 787Q394 765 411 753Q477 708 510 689Q513 688 513 685Q513 682 511 680T506 679Q394 729 284 756Z" />
<glyph unicode="&#xda;" glyph-name="Uacute" horiz-adv-x="619" d="M565 530T565 544Q565 613 500 613Q497 613 497 619T500 625L542 624Q574 622 592 622Q609 622 641 624L677 625Q681 625 681 619T677 613Q641 613 618 586T585 508L533 214Q515 107 445 47T276
-13Q189 -13 139 34T89 163Q89 185 94 215L153 546Q156 564 156 577Q156 599 143 606T93 613Q90 613 90 619T92 625L139 624Q177 622 200 622Q228 622 268 624L309 625Q313 625 313 619T309 613Q277 613 261 607T236 585T223 539L170 245Q163 209 163 175Q163 97
200 58T304 19Q384 19 438 72T509 218L562 512Q565 530 565 544ZM309 678Q305 678 304 682T305 689Q351 714 403 751Q450 782 456 786Q461 789 483 782T523 766T532 756Q414 726 310 678H309Z" />
<glyph unicode="&#xdb;" glyph-name="Ucircumflex" horiz-adv-x="619" d="M565 530T565 544Q565 613 500 613Q497 613 497 619T500 625L542 624Q574 622 592 622Q609 622 641 624L677 625Q681 625 681 619T677 613Q641 613 618 586T585 508L533 214Q515 107 445
47T276 -13Q189 -13 139 34T89 163Q89 185 94 215L153 546Q156 564 156 577Q156 599 143 606T93 613Q90 613 90 619T92 625L139 624Q177 622 200 622Q228 622 268 624L309 625Q313 625 313 619T309 613Q277 613 261 607T236 585T223 539L170 245Q163 209 163 175Q163
97 200 58T304 19Q384 19 438 72T509 218L562 512Q565 530 565 544ZM318 660Q315 660 313 662T313 667L423 770Q426 775 432 775Q438 775 441 770L518 667L519 665Q519 663 516 661T511 660L423 711L319 660H318Z" />
<glyph unicode="&#xdc;" glyph-name="Udieresis" horiz-adv-x="619" d="M565 530T565 544Q565 613 500 613Q497 613 497 619T500 625L542 624Q574 622 592 622Q609 622 641 624L677 625Q681 625 681 619T677 613Q641 613 618 586T585 508L533 214Q515 107 445
47T276 -13Q189 -13 139 34T89 163Q89 185 94 215L153 546Q156 564 156 577Q156 599 143 606T93 613Q90 613 90 619T92 625L139 624Q177 622 200 622Q228 622 268 624L309 625Q313 625 313 619T309 613Q277 613 261 607T236 585T223 539L170 245Q163 209 163 175Q163
97 200 58T304 19Q384 19 438 72T509 218L562 512Q565 530 565 544ZM323 712T310 724T297 758Q297 779 310 790T344 802Q366 802 377 791T389 758Q389 736 378 724T344 712Q323 712 310 724ZM497 712T485 724T473 758Q473 779 485 790T519 802Q540 802 552 791T564
758Q564 736 552 724T519 712Q497 712 485 724Z" />
<glyph unicode="&#xdd;" glyph-name="Yacute" horiz-adv-x="531" d="M605 625T605 619T602 613Q538 613 469 514L326 311L285 81Q281 62 281 47Q281 26 295 19T347 12Q350 12 350 6T347 0Q318 0 302 1L238 2L171 1Q155 0 127 0Q123 0 123 6T127 12Q160 12 176
17T201 37T214 81L252 301L150 542Q133 580 116 596T73 613Q69 613 69 619T73 625L111 624Q139 622 151 622Q177 622 221 624L266 625Q269 625 269 620Q269 613 265 613Q239 613 227 608T215 592Q215 585 220 573L320 334L449 525Q472 557 472 581Q472 613 429
613Q426 613 426 619T429 625L473 624Q511 622 535 622Q550 622 570 624L602 625Q605 625 605 619ZM294 678Q290 678 289 682T291 689Q324 707 356 729T398 757L441 787Q446 790 469 783T509 767T518 756Q456 741 405 723T296 679L294 678Z" />
<glyph unicode="&#xde;" glyph-name="Thorn" horiz-adv-x="538" d="M413 499T470 462T528 353Q528 335 523 312Q510 251 466 209T364 147T252 127Q228 127 211 131Q210 131 210 134Q210 138 212 143T216 147Q231 144 246 144Q312 144 368 181T440 292Q445 317
445 336Q445 402 404 442T293 483Q268 483 236 479L166 81Q162 55 162 49Q162 26 179 19T246 12Q248 12 248 6T246 0Q213 0 194 1L116 2L56 1Q40 0 13 0Q11 0 11 6T13 12Q44 12 59 17T82 36T96 81L177 544Q181 561 181 577Q181 598 168 605T121 613Q118 613 118
619T121 625L163 624Q199 622 223 622Q256 622 304 624L354 625Q356 625 356 619T354 613Q309 613 290 609T262 590T247 542L239 494Q273 499 321 499Q413 499 470 462Z" />
<glyph unicode="&#xdf;" glyph-name="germandbls" horiz-adv-x="457" d="M-83 -275T-101 -262T-117 -227Q-116 -213 -105 -204T-77 -194Q-60 -194 -53 -203T-41 -229Q-37 -243 -33 -249T-18 -256Q-8 -256 0 -239T17 -178T40 -47L115 434Q136 569 197 647T349 726Q397
726 421 703T445 645Q445 635 444 630Q439 597 421 570T371 509Q340 476 325 453T309 401Q309 375 320 350T356 289Q383 247 397 217T411 151Q411 114 394 76T344 14T270 -11Q234 -11 214 6T193 44Q193 60 203 71T230 82Q246 82 253 74T268 49Q274 33 281 25T305
16Q348 16 357 78Q358 83 358 94Q358 124 346 151T308 217Q282 258 270 286T257 345Q257 352 259 366Q264 395 277 419T314 476Q345 519 360 552T376 633Q376 708 320 708Q271 708 234 640T177 443L105 -21Q90 -118 72 -172T25 -251T-46 -275Q-83 -275 -101 -262Z"
/>
<glyph unicode="&#xe0;" glyph-name="agrave" horiz-adv-x="437" d="M412 78T414 78Q417 78 419 75T419 69Q386 30 359 11T307 -9Q287 -9 278 3T268 41Q268 57 273 89L289 184Q246 93 190 40T81 -13Q51 -13 35 5T18 62Q18 71 20 91Q30 160 73 232T176 352T287
399Q329 399 355 372Q374 388 381 407Q383 409 385 409Q388 409 391 408T393 405L335 89Q332 74 332 62Q332 34 349 34Q370 34 411 77Q412 78 414 78ZM160 44T197 79T264 167T304 269Q307 283 307 296Q307 325 292 342T249 359Q215 359 181 332T122 256T88 148Q84
116 84 106Q84 44 126 44Q160 44 197 79ZM246 727Q245 732 259 732Q275 732 294 727T314 716L303 476Q303 474 299 473T294 475L246 727Z" />
<glyph unicode="&#xe1;" glyph-name="aacute" horiz-adv-x="437" d="M412 78T414 78Q417 78 419 75T419 69Q386 30 359 11T307 -9Q287 -9 278 3T268 41Q268 57 273 89L289 184Q246 93 190 40T81 -13Q51 -13 35 5T18 62Q18 71 20 91Q30 160 73 232T176 352T287
399Q329 399 355 372Q374 388 381 407Q383 409 385 409Q388 409 391 408T393 405L335 89Q332 74 332 62Q332 34 349 34Q370 34 411 77Q412 78 414 78ZM160 44T197 79T264 167T304 269Q307 283 307 296Q307 325 292 342T249 359Q215 359 181 332T122 256T88 148Q84
116 84 106Q84 44 126 44Q160 44 197 79ZM282 470T277 472T273 476L360 716Q362 721 384 726T424 731Q437 731 436 727L283 473Q282 470 277 472Z" />
<glyph unicode="&#xe2;" glyph-name="acircumflex" horiz-adv-x="437" d="M412 78T414 78Q417 78 419 75T419 69Q386 30 359 11T307 -9Q287 -9 278 3T268 41Q268 57 273 89L289 184Q246 93 190 40T81 -13Q51 -13 35 5T18 62Q18 71 20 91Q30 160 73 232T176 352T287
399Q329 399 355 372Q374 388 381 407Q383 409 385 409Q388 409 391 408T393 405L335 89Q332 74 332 62Q332 34 349 34Q370 34 411 77Q412 78 414 78ZM160 44T197 79T264 167T304 269Q307 283 307 296Q307 325 292 342T249 359Q215 359 181 332T122 256T88 148Q84
116 84 106Q84 44 126 44Q160 44 197 79ZM370 477Q370 475 365 475T359 476L320 615L230 474Q228 472 227 472Q224 472 222 473T220 477L330 726Q331 731 340 731Q348 731 348 726L370 477Z" />
<glyph unicode="&#xe3;" glyph-name="atilde" horiz-adv-x="437" d="M412 78T414 78Q417 78 419 75T419 69Q386 30 359 11T307 -9Q287 -9 278 3T268 41Q268 57 273 89L289 184Q246 93 190 40T81 -13Q51 -13 35 5T18 62Q18 71 20 91Q30 160 73 232T176 352T287
399Q329 399 355 372Q374 388 381 407Q383 409 385 409Q388 409 391 408T393 405L335 89Q332 74 332 62Q332 34 349 34Q370 34 411 77Q412 78 414 78ZM160 44T197 79T264 167T304 269Q307 283 307 296Q307 325 292 342T249 359Q215 359 181 332T122 256T88 148Q84
116 84 106Q84 44 126 44Q160 44 197 79ZM165 477Q162 477 160 479T160 484Q207 551 250 551Q264 551 300 541Q346 527 374 527Q393 527 404 533T429 554H430Q433 554 435 552T436 547Q408 507 391 493T351 479Q331 479 291 491Q287 492 266 498T222 504Q204 504
194 499T177 487T167 477H165Z" />
<glyph unicode="&#xe4;" glyph-name="adieresis" horiz-adv-x="437" d="M412 78T414 78Q417 78 419 75T419 69Q386 30 359 11T307 -9Q287 -9 278 3T268 41Q268 57 273 89L289 184Q246 93 190 40T81 -13Q51 -13 35 5T18 62Q18 71 20 91Q30 160 73 232T176 352T287
399Q329 399 355 372Q374 388 381 407Q383 409 385 409Q388 409 391 408T393 405L335 89Q332 74 332 62Q332 34 349 34Q370 34 411 77Q412 78 414 78ZM160 44T197 79T264 167T304 269Q307 283 307 296Q307 325 292 342T249 359Q215 359 181 332T122 256T88 148Q84
116 84 106Q84 44 126 44Q160 44 197 79ZM201 473T189 485T177 519Q177 540 189 551T223 563Q244 563 255 552T267 519Q267 497 256 485T223 473Q201 473 189 485ZM354 473T342 485T330 519Q330 540 342 551T376 563Q397 563 409 552T421 519Q421 497 409 485T376
473Q354 473 342 485Z" />
<glyph unicode="&#xe5;" glyph-name="aring" horiz-adv-x="437" d="M412 78T414 78Q417 78 419 75T419 69Q386 30 359 11T307 -9Q287 -9 278 3T268 41Q268 57 273 89L289 184Q246 93 190 40T81 -13Q51 -13 35 5T18 62Q18 71 20 91Q30 160 73 232T176 352T287 399Q329
399 355 372Q374 388 381 407Q383 409 385 409Q388 409 391 408T393 405L335 89Q332 74 332 62Q332 34 349 34Q370 34 411 77Q412 78 414 78ZM160 44T197 79T264 167T304 269Q307 283 307 296Q307 325 292 342T249 359Q215 359 181 332T122 256T88 148Q84 116 84
106Q84 44 126 44Q160 44 197 79ZM253 468T230 491T206 547Q206 583 236 604T303 625Q339 625 364 602T390 545Q390 510 361 489T293 468Q253 468 230 491ZM338 479T338 527Q338 561 322 587T283 613Q258 613 258 567Q258 534 272 507T309 479Q338 479 338 527Z"
/>
<glyph unicode="&#xe6;" glyph-name="ae" horiz-adv-x="556" d="M525 399T542 385T559 348Q559 310 512 277T340 205Q337 178 337 156Q337 92 358 59T416 26Q461 26 497 58L499 59Q502 59 504 55T505 49Q470 17 438 3T372 -12Q322 -12 295 23T268 122Q268 151
274 185Q233 95 183 41T84 -13Q53 -13 36 6T18 64Q18 71 20 91Q29 160 69 232T165 351T276 399Q304 399 324 385T350 343Q412 399 488 399Q525 399 542 385ZM485 352T476 364T447 377Q410 377 381 333T341 218Q405 241 445 268T485 335Q485 352 476 364ZM155 46T188
81T250 168T287 270Q290 285 290 298Q290 329 277 348T239 367Q210 367 179 338T124 259T91 147Q88 125 88 108Q88 46 129 46Q155 46 188 81Z" />
<glyph unicode="&#xe7;" glyph-name="ccedilla" horiz-adv-x="346" d="M286 399T312 384T339 342Q339 325 329 313T300 301Q269 301 260 337Q249 375 212 375Q170 375 143 337T105 234Q98 194 98 168Q98 104 125 65T206 26Q255 26 306 67L308 68Q311 68 313 64T314
58Q240 -10 165 -13Q158 -30 158 -46Q158 -61 165 -74T185 -104Q217 -146 217 -175Q217 -184 216 -188Q212 -219 183 -247T108 -275Q81 -275 63 -264T44 -233Q44 -217 53 -209T78 -201Q91 -201 98 -209T111 -231Q117 -244 122 -250T137 -256Q150 -256 158 -248T170
-223Q173 -193 128 -138Q116 -125 116 -104Q116 -84 128 -60L151 -13Q88 -10 58 34T27 144Q27 174 33 202Q44 261 78 306T159 375T250 399Q286 399 312 384Z" />
<glyph unicode="&#xe8;" glyph-name="egrave" horiz-adv-x="347" d="M298 399T317 387T336 353Q336 306 268 268T102 212Q98 188 98 160Q98 99 124 62T202 25Q257 25 299 58H300Q303 58 305 55T306 49Q235 -12 157 -12Q91 -12 58 29T25 135Q25 157 30 185Q40 237
73 286T157 367T263 399Q298 399 317 387ZM259 334T259 337Q259 354 247 363T216 372Q175 372 146 332T104 226Q242 252 257 324Q259 334 259 337ZM200 727Q199 732 213 732Q229 732 248 727T268 716L257 476Q257 474 253 473T248 475L200 727Z" />
<glyph unicode="&#xe9;" glyph-name="eacute" horiz-adv-x="347" d="M298 399T317 387T336 353Q336 306 268 268T102 212Q98 188 98 160Q98 99 124 62T202 25Q257 25 299 58H300Q303 58 305 55T306 49Q235 -12 157 -12Q91 -12 58 29T25 135Q25 157 30 185Q40 237
73 286T157 367T263 399Q298 399 317 387ZM259 334T259 337Q259 354 247 363T216 372Q175 372 146 332T104 226Q242 252 257 324Q259 334 259 337ZM236 470T231 472T227 476L314 716Q316 721 338 726T378 731Q391 731 390 727L237 473Q236 470 231 472Z" />
<glyph unicode="&#xea;" glyph-name="ecircumflex" horiz-adv-x="347" d="M298 399T317 387T336 353Q336 306 268 268T102 212Q98 188 98 160Q98 99 124 62T202 25Q257 25 299 58H300Q303 58 305 55T306 49Q235 -12 157 -12Q91 -12 58 29T25 135Q25 157 30 185Q40
237 73 286T157 367T263 399Q298 399 317 387ZM259 334T259 337Q259 354 247 363T216 372Q175 372 146 332T104 226Q242 252 257 324Q259 334 259 337ZM317 478Q317 475 312 475T305 477L267 616L177 474Q176 473 174 473Q171 473 169 474T167 478L276 727Q279
732 287 732Q295 732 295 727L317 478Z" />
<glyph unicode="&#xeb;" glyph-name="edieresis" horiz-adv-x="347" d="M298 399T317 387T336 353Q336 306 268 268T102 212Q98 188 98 160Q98 99 124 62T202 25Q257 25 299 58H300Q303 58 305 55T306 49Q235 -12 157 -12Q91 -12 58 29T25 135Q25 157 30 185Q40
237 73 286T157 367T263 399Q298 399 317 387ZM259 334T259 337Q259 354 247 363T216 372Q175 372 146 332T104 226Q242 252 257 324Q259 334 259 337ZM155 473T143 485T131 519Q131 540 143 551T177 563Q198 563 209 552T221 519Q221 497 210 485T177 473Q155
473 143 485ZM308 473T296 485T284 519Q284 540 296 551T330 563Q351 563 363 552T375 519Q375 497 363 485T330 473Q308 473 296 485Z" />
<glyph unicode="&#xec;" glyph-name="igrave" horiz-adv-x="247" d="M68 -9T68 40Q68 61 74 89L115 297Q118 312 118 323Q118 353 99 353Q88 353 71 342T34 309Q33 308 31 308Q28 308 26 311T26 317Q92 395 143 395Q163 395 172 384T182 348Q182 325 177 302L136
89Q133 74 133 63Q133 34 151 34Q174 34 214 76Q215 77 217 77Q221 77 223 74T222 68Q189 29 162 10T108 -9Q68 -9 68 40ZM366 727Q365 732 379 732Q395 732 414 727T434 716L423 476Q423 474 419 473T414 475L366 727Z" />
<glyph unicode="&#xed;" glyph-name="iacute" horiz-adv-x="247" d="M68 -9T68 40Q68 61 74 89L115 297Q118 312 118 323Q118 353 99 353Q88 353 71 342T34 309Q33 308 31 308Q28 308 26 311T26 317Q92 395 143 395Q163 395 172 384T182 348Q182 325 177 302L136
89Q133 74 133 63Q133 34 151 34Q174 34 214 76Q215 77 217 77Q221 77 223 74T222 68Q189 29 162 10T108 -9Q68 -9 68 40ZM146 470T141 472T137 476L224 716Q226 721 248 726T288 731Q301 731 300 727L147 473Q146 470 141 472Z" />
<glyph unicode="&#xee;" glyph-name="icircumflex" horiz-adv-x="247" d="M68 -9T68 40Q68 61 74 89L115 297Q118 312 118 323Q118 353 99 353Q88 353 71 342T34 309Q33 308 31 308Q28 308 26 311T26 317Q92 395 143 395Q163 395 172 384T182 348Q182 325 177
302L136 89Q133 74 133 63Q133 34 151 34Q174 34 214 76Q215 77 217 77Q221 77 223 74T222 68Q189 29 162 10T108 -9Q68 -9 68 40ZM234 477Q234 475 229 475T223 476L184 615L94 474Q92 472 91 472Q88 472 86 473T84 477L194 726Q195 731 204 731Q212 731 212 726L234
477Z" />
<glyph unicode="&#xef;" glyph-name="idieresis" horiz-adv-x="247" d="M68 -9T68 40Q68 61 74 89L115 297Q118 312 118 323Q118 353 99 353Q88 353 71 342T34 309Q33 308 31 308Q28 308 26 311T26 317Q92 395 143 395Q163 395 172 384T182 348Q182 325 177 302L136
89Q133 74 133 63Q133 34 151 34Q174 34 214 76Q215 77 217 77Q221 77 223 74T222 68Q189 29 162 10T108 -9Q68 -9 68 40ZM329 473T317 485T304 519Q304 540 316 551T351 563Q373 563 384 552T395 519Q395 497 384 485T351 473Q329 473 317 485ZM468 473T457 485T445
519Q445 540 456 551T490 563Q511 563 522 552T534 519Q534 497 523 485T490 473Q468 473 457 485Z" />
<glyph unicode="&#xf0;" glyph-name="eth" horiz-adv-x="401" d="M406 644Q410 644 414 636T414 626L318 580Q351 522 368 452T386 311Q386 257 378 216Q365 142 331 91T251 13T154 -13Q92 -13 57 29T22 138Q22 159 27 186Q39 255 74 303T155 375T242 399Q281
399 311 378Q300 475 268 556L141 496H140Q135 496 131 504T131 514L260 575Q219 669 160 712L159 714Q159 719 170 723T186 725Q259 681 308 598L405 644H406ZM225 8T258 55T307 204Q313 242 313 273Q313 326 293 353T228 380Q185 380 149 336T100 215Q95 182
95 156Q95 91 118 50T181 8Q225 8 258 55Z" />
<glyph unicode="&#xf1;" glyph-name="ntilde" horiz-adv-x="468" d="M445 79T446 79Q449 79 451 76T451 69Q417 29 390 10T337 -9Q317 -9 308 2T299 40Q299 57 304 89L333 248Q339 278 339 300Q339 354 300 354Q268 354 234 313T170 194T121 9Q119 1 109 -3T82
-8Q55 -8 55 -1L59 19Q68 62 70 74L111 297Q114 312 114 322Q114 353 95 353Q71 353 29 309Q28 308 26 308Q23 308 21 311T21 317Q55 357 84 376T140 395Q160 395 169 384T178 347Q178 332 173 302L153 192Q189 290 237 344T338 399Q371 399 387 380T404 322Q404
299 398 267L365 89Q362 74 362 64Q362 34 381 34Q391 34 406 45T443 77Q445 79 446 79ZM151 477Q148 477 146 479T146 484Q193 551 236 551Q250 551 286 541Q332 527 360 527Q379 527 390 533T415 554H416Q419 554 421 552T422 547Q394 507 377 493T337 479Q317
479 277 491Q273 492 252 498T208 504Q190 504 180 499T163 487T153 477H151Z" />
<glyph unicode="&#xf2;" glyph-name="ograve" horiz-adv-x="401" d="M93 -14T60 28T26 139Q26 161 31 193Q42 252 73 299T150 372T245 399Q309 399 343 358T378 248Q378 222 372 193Q359 130 326 83T247 11T155 -14Q93 -14 60 28ZM229 11T259 48T302 149Q308 181
308 212Q308 280 284 327T214 375Q176 375 145 338T102 236Q95 198 95 169Q95 102 120 57T190 11Q229 11 259 48ZM199 727Q198 732 212 732Q228 732 247 727T267 716L256 476Q256 474 252 473T247 475L199 727Z" />
<glyph unicode="&#xf3;" glyph-name="oacute" horiz-adv-x="401" d="M93 -14T60 28T26 139Q26 161 31 193Q42 252 73 299T150 372T245 399Q309 399 343 358T378 248Q378 222 372 193Q359 130 326 83T247 11T155 -14Q93 -14 60 28ZM229 11T259 48T302 149Q308 181
308 212Q308 280 284 327T214 375Q176 375 145 338T102 236Q95 198 95 169Q95 102 120 57T190 11Q229 11 259 48ZM235 470T230 472T226 476L313 716Q315 721 337 726T377 731Q390 731 389 727L236 473Q235 470 230 472Z" />
<glyph unicode="&#xf4;" glyph-name="ocircumflex" horiz-adv-x="401" d="M93 -14T60 28T26 139Q26 161 31 193Q42 252 73 299T150 372T245 399Q309 399 343 358T378 248Q378 222 372 193Q359 130 326 83T247 11T155 -14Q93 -14 60 28ZM229 11T259 48T302 149Q308
181 308 212Q308 280 284 327T214 375Q176 375 145 338T102 236Q95 198 95 169Q95 102 120 57T190 11Q229 11 259 48ZM316 478Q316 475 311 475T304 477L266 616L176 474Q175 473 173 473Q170 473 168 474T166 478L275 727Q278 732 286 732Q294 732 294 727L316
478Z" />
<glyph unicode="&#xf5;" glyph-name="otilde" horiz-adv-x="401" d="M93 -14T60 28T26 139Q26 161 31 193Q42 252 73 299T150 372T245 399Q309 399 343 358T378 248Q378 222 372 193Q359 130 326 83T247 11T155 -14Q93 -14 60 28ZM229 11T259 48T302 149Q308 181
308 212Q308 280 284 327T214 375Q176 375 145 338T102 236Q95 198 95 169Q95 102 120 57T190 11Q229 11 259 48ZM118 477Q115 477 113 479T113 484Q160 551 203 551Q217 551 253 541Q299 527 327 527Q346 527 357 533T382 554H383Q386 554 388 552T389 547Q361
507 344 493T304 479Q284 479 244 491Q240 492 219 498T175 504Q157 504 147 499T130 487T120 477H118Z" />
<glyph unicode="&#xf6;" glyph-name="odieresis" horiz-adv-x="401" d="M93 -14T60 28T26 139Q26 161 31 193Q42 252 73 299T150 372T245 399Q309 399 343 358T378 248Q378 222 372 193Q359 130 326 83T247 11T155 -14Q93 -14 60 28ZM229 11T259 48T302 149Q308
181 308 212Q308 280 284 327T214 375Q176 375 145 338T102 236Q95 198 95 169Q95 102 120 57T190 11Q229 11 259 48ZM154 473T142 485T130 519Q130 540 142 551T176 563Q197 563 208 552T220 519Q220 497 209 485T176 473Q154 473 142 485ZM307 473T295 485T283
519Q283 540 295 551T329 563Q350 563 362 552T374 519Q374 497 362 485T329 473Q307 473 295 485Z" />
<glyph unicode="&#xf7;" glyph-name="divide" horiz-adv-x="389" d="M175 315T163 327T150 362Q150 383 162 395T197 407Q219 407 231 395T244 362Q244 340 232 328T197 315Q175 315 163 327ZM32 174T31 181T29 196Q29 203 30 209T33 216H364Q366 216 367 210T369
195Q369 187 368 181T364 174H34Q32 174 31 181ZM177 -10T164 3T151 38Q151 58 164 70T199 82Q221 82 233 70T245 38Q245 15 233 3T199 -10Q177 -10 164 3Z" />
<glyph unicode="&#xf8;" glyph-name="oslash" horiz-adv-x="408" d="M387 400Q391 400 398 395T402 386L356 339Q378 302 378 249Q378 222 372 193Q359 130 326 83T247 11T155 -14Q93 -14 58 31L13 -16H12Q7 -16 1 -10T-2 0L46 49Q26 87 26 139Q26 161 31 193Q42
252 73 299T150 372T245 399Q308 399 344 357L386 400H387ZM95 198T95 169Q95 142 102 107L293 304Q281 337 261 356T214 375Q176 375 145 338T102 236Q95 198 95 169ZM307 175T307 211Q307 250 300 281L109 83Q121 49 141 30T190 11Q229 11 259 48T302 149Q307
175 307 211Z" />
<glyph unicode="&#xf9;" glyph-name="ugrave" horiz-adv-x="468" d="M440 78T442 78Q445 78 447 75T447 69Q412 28 384 10T329 -9Q309 -9 300 2T291 38Q291 54 296 84L316 198Q280 98 232 43T130 -13Q63 -13 63 63Q63 82 70 119L106 297Q109 312 109 322Q109 352
90 352Q80 352 66 341T29 309Q27 307 25 307Q22 307 20 310T21 317Q56 357 82 376T134 395Q173 395 173 346Q173 327 167 297L135 138Q129 108 129 87Q129 32 169 32Q201 32 235 73T298 192T347 377Q349 385 359 389T387 394Q413 394 413 387L409 367Q400 324 398
312L357 89Q355 80 355 64Q355 33 373 33Q385 33 402 44T439 77Q440 78 442 78ZM223 727Q222 732 236 732Q252 732 271 727T291 716L280 476Q280 474 276 473T271 475L223 727Z" />
<glyph unicode="&#xfa;" glyph-name="uacute" horiz-adv-x="468" d="M440 78T442 78Q445 78 447 75T447 69Q412 28 384 10T329 -9Q309 -9 300 2T291 38Q291 54 296 84L316 198Q280 98 232 43T130 -13Q63 -13 63 63Q63 82 70 119L106 297Q109 312 109 322Q109 352
90 352Q80 352 66 341T29 309Q27 307 25 307Q22 307 20 310T21 317Q56 357 82 376T134 395Q173 395 173 346Q173 327 167 297L135 138Q129 108 129 87Q129 32 169 32Q201 32 235 73T298 192T347 377Q349 385 359 389T387 394Q413 394 413 387L409 367Q400 324 398
312L357 89Q355 80 355 64Q355 33 373 33Q385 33 402 44T439 77Q440 78 442 78ZM259 470T254 472T250 476L337 716Q339 721 361 726T401 731Q414 731 413 727L260 473Q259 470 254 472Z" />
<glyph unicode="&#xfb;" glyph-name="ucircumflex" horiz-adv-x="468" d="M440 78T442 78Q445 78 447 75T447 69Q412 28 384 10T329 -9Q309 -9 300 2T291 38Q291 54 296 84L316 198Q280 98 232 43T130 -13Q63 -13 63 63Q63 82 70 119L106 297Q109 312 109 322Q109
352 90 352Q80 352 66 341T29 309Q27 307 25 307Q22 307 20 310T21 317Q56 357 82 376T134 395Q173 395 173 346Q173 327 167 297L135 138Q129 108 129 87Q129 32 169 32Q201 32 235 73T298 192T347 377Q349 385 359 389T387 394Q413 394 413 387L409 367Q400 324
398 312L357 89Q355 80 355 64Q355 33 373 33Q385 33 402 44T439 77Q440 78 442 78ZM340 478Q340 475 335 475T328 477L290 616L200 474Q199 473 197 473Q194 473 192 474T190 478L299 727Q302 732 310 732Q318 732 318 727L340 478Z" />
<glyph unicode="&#xfc;" glyph-name="udieresis" horiz-adv-x="468" d="M440 78T442 78Q445 78 447 75T447 69Q412 28 384 10T329 -9Q309 -9 300 2T291 38Q291 54 296 84L316 198Q280 98 232 43T130 -13Q63 -13 63 63Q63 82 70 119L106 297Q109 312 109 322Q109
352 90 352Q80 352 66 341T29 309Q27 307 25 307Q22 307 20 310T21 317Q56 357 82 376T134 395Q173 395 173 346Q173 327 167 297L135 138Q129 108 129 87Q129 32 169 32Q201 32 235 73T298 192T347 377Q349 385 359 389T387 394Q413 394 413 387L409 367Q400 324
398 312L357 89Q355 80 355 64Q355 33 373 33Q385 33 402 44T439 77Q440 78 442 78ZM178 473T166 485T154 519Q154 540 166 551T200 563Q221 563 232 552T244 519Q244 497 233 485T200 473Q178 473 166 485ZM331 473T319 485T307 519Q307 540 319 551T353 563Q374
563 386 552T398 519Q398 497 386 485T353 473Q331 473 319 485Z" />
<glyph unicode="&#xfd;" glyph-name="yacute" horiz-adv-x="446" d="M389 396T400 380T411 336Q411 257 333 106T152 -163T-17 -281Q-38 -281 -51 -272T-64 -242L-63 -233Q-55 -200 -17 -200Q-7 -200 15 -202Q35 -204 45 -204Q78 -204 100 -187Q129 -168 176 -104L177
-52Q177 138 148 242T67 347Q54 347 41 338T19 312Q18 309 13 309Q6 309 7 315Q25 353 52 374T107 395Q148 395 177 348T222 220T238 37Q238 2 237 -16Q278 48 309 110T350 205Q355 230 355 245Q355 266 350 283T336 320Q332 330 329 339T325 357Q325 374 337 385T368
396Q389 396 400 380ZM241 470T236 472T232 476L319 716Q321 721 343 726T383 731Q396 731 395 727L242 473Q241 470 236 472Z" />
<glyph unicode="&#xfe;" glyph-name="thorn" horiz-adv-x="409" d="M339 393T365 364T392 285Q392 270 389 252Q376 179 337 122T245 32T145 -1Q114 -1 93 2L61 -178Q58 -195 58 -206Q58 -223 66 -230T91 -238Q97 -238 115 -236Q119 -235 120 -240T118 -247L-60
-275Q-64 -276 -65 -270T-62 -263Q-40 -259 -30 -253T-15 -232T-4 -185L82 291Q53 272 35 257L33 256Q29 256 27 260T28 266Q66 298 86 312L140 610Q143 625 143 636Q143 661 123 661Q107 661 77 646H76Q71 646 70 651T72 658L210 725H212Q216 725 219 722T221
717L156 355Q227 393 291 393Q339 393 365 364ZM320 240T320 251Q320 296 300 324T238 353Q197 353 152 332L101 44Q133 28 176 28Q288 28 318 220Q320 240 320 251Z" />
<glyph unicode="&#xff;" glyph-name="ydieresis" horiz-adv-x="446" d="M389 396T400 380T411 336Q411 257 333 106T152 -163T-17 -281Q-38 -281 -51 -272T-64 -242L-63 -233Q-55 -200 -17 -200Q-7 -200 15 -202Q35 -204 45 -204Q78 -204 100 -187Q129 -168 176
-104L177 -52Q177 138 148 242T67 347Q54 347 41 338T19 312Q18 309 13 309Q6 309 7 315Q25 353 52 374T107 395Q148 395 177 348T222 220T238 37Q238 2 237 -16Q278 48 309 110T350 205Q355 230 355 245Q355 266 350 283T336 320Q332 330 329 339T325 357Q325
374 337 385T368 396Q389 396 400 380ZM160 473T148 485T136 519Q136 540 148 551T182 563Q203 563 214 552T226 519Q226 497 215 485T182 473Q160 473 148 485ZM313 473T301 485T289 519Q289 540 301 551T335 563Q356 563 368 552T380 519Q380 497 368 485T335
473Q313 473 301 485Z" />
<glyph unicode="&#x2013;" glyph-name="endash" horiz-adv-x="515" d="M32 169T31 176T29 191Q29 198 30 204T33 210H481Q483 210 484 204T486 190Q486 182 485 176T481 169H34Q32 169 31 176Z" />
<glyph unicode="&#x2014;" glyph-name="emdash" horiz-adv-x="830" d="M32 169T31 176T29 191Q29 198 30 204T33 210H796Q798 210 799 204T801 190Q801 182 800 176T796 169H34Q32 169 31 176Z" />
<glyph unicode="&#x2018;" glyph-name="quoteleft" horiz-adv-x="154" d="M177 639T179 639Q182 639 184 635T183 629Q111 572 101 509Q100 503 100 492Q100 482 102 478Q109 487 128 487Q150 487 161 472T171 438Q169 419 156 408T120 397Q93 397 78 415T62 464Q62
478 65 493Q72 531 101 568T176 638Q177 639 179 639Z" />
<glyph unicode="&#x2019;" glyph-name="quoteright" horiz-adv-x="146" d="M162 635T177 617T193 568Q193 554 190 539Q183 501 154 464T79 394Q78 393 76 393Q73 393 71 397T72 403Q144 460 154 523Q155 529 155 540Q155 550 153 554Q146 545 127 545Q105 545
94 560T84 594Q86 613 99 624T135 635Q162 635 177 617Z" />
<glyph unicode="&#x201a;" glyph-name="quotesinglbase" horiz-adv-x="143" d="M322 82T337 64T353 15Q353 1 350 -14Q343 -52 314 -89T239 -159Q238 -160 236 -160Q233 -160 231 -156T232 -150Q304 -93 314 -30Q315 -24 315 -13Q315 -3 313 1Q306 -8 287 -8Q265
-8 254 7T244 41Q246 60 259 71T295 82Q322 82 337 64Z" />
<glyph unicode="&#x201c;" glyph-name="quotedblleft" horiz-adv-x="296" d="M180 639T182 639Q185 639 187 635T186 629Q114 572 104 509Q103 503 103 492Q103 482 105 478Q113 487 131 487Q153 487 164 472T174 438Q172 419 159 408T123 397Q96 397 81 415T65
464Q65 478 68 493Q75 531 104 568T179 638Q180 639 182 639ZM331 639T333 639Q336 639 338 635T337 629Q265 572 255 509Q254 503 254 492Q254 482 256 478Q264 487 282 487Q304 487 315 472T325 438Q323 419 310 408T274 397Q247 397 232 415T216 464Q216 478
219 493Q226 531 255 568T330 638Q331 639 333 639Z" />
<glyph unicode="&#x201d;" glyph-name="quotedblright" horiz-adv-x="297" d="M314 635T329 617T345 568Q345 554 342 539Q335 501 306 464T231 394Q230 393 228 393Q225 393 223 397T224 403Q296 460 306 523Q307 529 307 540Q307 550 305 554Q298 545 279 545Q257
545 246 560T236 594Q238 613 251 624T287 635Q314 635 329 617ZM163 635T178 617T194 568Q194 554 191 539Q184 501 155 464T80 394Q79 393 77 393Q74 393 72 397T73 403Q145 460 155 523Q156 529 156 540Q156 550 154 554Q147 545 128 545Q106 545 95 560T85
594Q87 613 100 624T136 635Q163 635 178 617Z" />
<glyph unicode="&#x201e;" glyph-name="quotedblbase" horiz-adv-x="297" d="M217 82T232 64T248 15Q248 1 245 -14Q238 -52 209 -89T134 -159Q133 -160 131 -160Q128 -160 126 -156T127 -150Q199 -93 209 -30Q210 -24 210 -13Q210 -3 208 1Q201 -8 182 -8Q160
-8 149 7T139 41Q141 60 154 71T190 82Q217 82 232 64ZM322 82T337 64T353 15Q353 1 350 -14Q343 -52 314 -89T239 -159Q238 -160 236 -160Q233 -160 231 -156T232 -150Q304 -93 314 -30Q315 -24 315 -13Q315 -3 313 1Q306 -8 287 -8Q265 -8 254 7T244 41Q246 60
259 71T295 82Q322 82 337 64Z" />
<glyph unicode="&#x2022;" glyph-name="bullet" horiz-adv-x="309" d="M121 145T91 175T61 248Q61 290 91 320T164 351Q207 351 237 321T267 248Q267 205 237 175T164 145Q121 145 91 175Z" />
<glyph unicode="&#x2039;" glyph-name="guilsinglleft" horiz-adv-x="280" d="M246 364Q249 364 252 361T253 356L125 201L199 47V46Q199 43 196 40T191 40L50 189Q47 194 47 199Q47 206 53 212L245 364H246Z" />
<glyph unicode="&#x203a;" glyph-name="guilsinglright" horiz-adv-x="279" d="M36 37Q33 37 30 40T29 46L158 200L83 354V355Q83 358 86 361T91 361L233 212Q236 208 236 202Q236 195 230 189L37 37H36Z" />
</font>
</defs>
</svg>
