<?xml version="1.0" standalone="no"?>
<!DOCTYPE svg PUBLIC "-//W3C//DTD SVG 1.1//EN" "http://www.w3.org/Graphics/SVG/1.1/DTD/svg11.dtd">
<svg xmlns="http://www.w3.org/2000/svg">
<defs >
<font id="Cormorant" horiz-adv-x="538" ><font-face
    font-family="Cormorant"
    units-per-em="1000"
    panose-1="0 0 8 0 0 0 0 0 0 0"
    ascent="924"
    descent="-287"
    alphabetic="0" />
<glyph unicode=" " glyph-name="space" horiz-adv-x="234" />
<glyph unicode="!" glyph-name="exclam" horiz-adv-x="263" d="M59 622T82 625T131 629Q157 629 180 626T202 615Q180 539 170 449T148 221Q148 211 146 189Q146 187 141 186T129 184Q123 184 118 185T112 189Q103 337 93 434T61 615Q59 622 82 625ZM97 -11T81
5T64 50Q64 76 80 92T125 108Q153 108 168 93T184 50Q184 21 169 5T125 -11Q97 -11 81 5Z" />
<glyph unicode="&quot;" glyph-name="quotedbl" horiz-adv-x="302" d="M28 606Q27 618 60 629T119 641Q128 641 132 639T136 632L73 366Q71 364 64 363T57 365L28 606ZM180 606Q179 618 212 629T271 641Q280 641 284 639T288 632L225 366Q223 364 216 363T209
365L180 606Z" />
<glyph unicode="#" glyph-name="numbersign" horiz-adv-x="526" d="M465 320T466 313T468 297Q468 288 467 281T463 273H400L373 122H428Q430 122 431 115T433 98Q433 89 432 82T428 74H365L337 -83Q337 -87 311 -83T287 -75L313 74H178L150 -83Q150 -87 124 -83T99
-75L125 74H63Q61 74 60 82T58 100Q58 108 59 115T62 122H134L161 273H98Q96 273 95 281T93 298Q93 306 94 313T97 320H169L198 482Q198 487 223 481T248 471L221 320H356L385 482Q385 487 410 481T435 471L408 320H463Q465 320 466 313ZM322 122L348 273H213L186
122H322Z" />
<glyph unicode="$" glyph-name="dollar" horiz-adv-x="422" d="M391 75T347 35T234 -11V-102Q234 -109 220 -109Q205 -109 205 -102V-12Q161 -11 119 0T61 25Q53 30 53 46L48 159Q48 163 53 164T60 161Q95 101 128 62T205 13V203L175 219Q116 251 85 279T54 353Q54
406 97 439T205 479V561Q205 565 209 567T220 569Q226 569 230 567T234 561V480Q265 479 298 473T351 457Q360 454 363 450T366 437V342Q366 339 361 338T354 339Q338 373 309 409T234 455V287L258 275Q303 251 328 235T372 192T391 131Q391 75 347 35ZM137 363T155
342T205 302V457Q170 456 154 438T137 392Q137 363 155 342ZM263 13T282 32T302 85Q302 116 284 140T234 185V11Q263 13 282 32Z" />
<glyph unicode="%" glyph-name="percent" horiz-adv-x="574" d="M93 303T56 340T18 433Q18 486 55 523T150 560Q207 560 243 523T280 430Q280 376 243 340T150 303Q93 303 56 340ZM108 -11T93 -1T80 13L450 557Q453 560 468 549T481 535L110 -8Q108 -11 93 -1ZM182
319T190 345T198 423Q198 483 184 513T144 544Q118 544 109 516T99 436Q99 319 157 319Q182 319 190 345ZM370 -5T333 32T295 125Q295 178 332 215T427 253Q484 253 520 215T557 123Q557 69 521 32T427 -5Q370 -5 333 32ZM459 12T467 38T475 116Q475 175 461 205T421
236Q396 236 387 208T377 129Q377 74 389 43T434 12Q459 12 467 38Z" />
<glyph unicode="&amp;" glyph-name="ampersand" horiz-adv-x="716" d="M729 11T729 6T725 0H561Q533 0 465 49Q390 -12 274 -12Q205 -12 158 8T88 61T65 131Q65 179 98 217T198 305Q182 326 167 353Q153 381 146 406T138 461Q138 542 189 594T330 646Q392 646
428 620T464 546Q464 507 442 475T390 420T300 357Q372 250 501 147Q510 182 510 226Q510 284 491 310T429 337Q427 337 427 343T429 349L667 350Q670 350 670 344T667 338Q637 338 623 332T601 310T584 262Q573 222 561 189T530 125Q595 76 645 48T725 12Q729
11 729 6ZM232 469T287 378Q358 447 358 525Q358 569 338 594T284 619Q256 619 244 601T232 547Q232 469 287 378ZM409 37T447 63Q431 74 404 96Q353 137 302 187T211 287Q166 240 166 188Q166 149 188 115T253 59T351 37Q409 37 447 63Z" />
<glyph unicode="&apos;" glyph-name="quotesingle" horiz-adv-x="150" d="M28 606Q27 618 60 629T119 641Q128 641 132 639T136 632L73 366Q71 364 64 363T57 365L28 606Z" />
<glyph unicode="(" glyph-name="parenleft" horiz-adv-x="309" d="M44 446T104 559T274 725Q276 726 278 724T278 719Q215 648 186 545T156 304Q156 166 185 63T278 -111Q280 -112 278 -115T274 -117Q165 -63 105 49T44 304Q44 446 104 559Z" />
<glyph unicode=")" glyph-name="parenright" horiz-adv-x="309" d="M265 162T205 49T35 -117Q33 -118 31 -116T31 -111Q94 -40 123 63T153 304Q153 442 124 545T31 719Q29 720 31 723T35 725Q144 671 204 559T265 304Q265 162 205 49Z" />
<glyph unicode="*" glyph-name="asterisk" horiz-adv-x="448" d="M200 657Q198 668 237 678T304 689Q316 689 315 685L236 529Q235 526 231 526T226 529L200 657ZM73 526Q64 528 64 556Q64 584 70 616T82 644L207 520Q209 518 208 514T204 511L73 526ZM250 504Q248
504 247 508T248 513L361 578Q370 582 387 558T418 505T425 477L250 504ZM159 363T152 363Q139 363 113 373T66 396T50 411L206 491L208 492Q211 492 213 490T215 485L160 366Q159 363 152 363ZM232 481V482Q232 484 236 486T241 488L337 399Q344 393 326 369T285
324T261 309L232 481Z" />
<glyph unicode="+" glyph-name="plus" horiz-adv-x="398" d="M366 214T367 207T369 190Q369 181 368 173T364 165H223V25Q223 23 214 22T195 20Q174 20 174 23V165H34Q32 165 31 173T29 191Q29 200 30 207T33 214H174V354Q174 356 182 357T199 359Q208 359 215
358T223 354V214H364Q366 214 367 207Z" />
<glyph unicode="," glyph-name="comma" horiz-adv-x="222" d="M136 106T155 79T175 2Q175 -43 155 -81T95 -159Q94 -160 92 -160Q89 -160 87 -157T87 -152Q136 -102 136 -34Q136 -6 126 7Q117 -8 89 -8Q65 -8 51 7T36 48Q36 75 53 90T101 106Q136 106 155 79Z" />
<glyph unicode="-" glyph-name="hyphen" horiz-adv-x="323" d="M30 153T29 163T27 184Q27 208 30 208L291 255Q293 256 294 248T296 229Q296 219 295 211T291 201L32 154Q30 153 29 163Z" />
<glyph unicode="." glyph-name="period" horiz-adv-x="207" d="M77 -11T61 5T44 50Q44 76 60 92T105 108Q133 108 148 93T164 50Q164 21 149 5T105 -11Q77 -11 61 5Z" />
<glyph unicode="/" glyph-name="slash" horiz-adv-x="351" d="M72 -169T49 -163T26 -152L278 730Q280 734 303 728T325 716L74 -165Q72 -169 49 -163Z" />
<glyph unicode="0" glyph-name="zero" horiz-adv-x="477" d="M178 -13T130 14T54 88T26 195Q26 254 53 300T129 373T240 399Q302 399 350 373T424 299T451 193Q451 134 424 87T349 14T240 -13Q178 -13 130 14ZM296 8T319 53T343 179Q343 280 312 329T232 378Q185
378 159 332T133 206Q133 117 165 63T250 8Q296 8 319 53Z" />
<glyph unicode="1" glyph-name="one" horiz-adv-x="332" d="M38 0T38 6T41 12Q80 12 98 17T124 36T131 81V257Q131 289 125 302T101 316Q85 316 37 297H36Q33 297 31 302T33 309L215 395Q216 396 218 396Q221 396 223 394T225 388V81Q225 50 231 36T255 17T312
12Q315 12 315 6T312 0Q276 0 256 1L177 2L98 1Q77 0 41 0Q38 0 38 6Z" />
<glyph unicode="2" glyph-name="two" horiz-adv-x="402" d="M124 107T164 147T220 217T237 276Q237 313 218 340T164 368Q127 368 104 336T56 235Q56 234 52 234Q43 234 44 237L88 408Q88 410 92 410Q95 410 97 409T99 406Q98 401 98 394Q98 377 113 377Q122 377
143 384Q186 399 222 399Q277 399 308 373T339 304Q339 252 299 210T187 117L147 87Q144 84 145 82T152 80Q232 80 272 83T336 96T367 130Q368 133 373 133T379 130L358 11Q358 7 356 4T349 0H43Q39 0 37 6T34 18Q34 24 37 27Q124 107 164 147Z" />
<glyph unicode="3" glyph-name="three" horiz-adv-x="394" d="M292 120T327 80T363 -12Q363 -59 330 -108T227 -200T54 -275Q50 -276 48 -271T49 -264Q158 -220 206 -155T254 -25Q254 34 224 69T143 105Q123 105 102 99Q99 98 97 104T98 111Q168 129 200 165T232
268Q232 318 217 344T173 371Q131 371 97 342T40 258Q40 257 36 257Q27 257 28 261L65 407Q67 409 69 409Q72 409 75 408T77 405Q75 397 75 394Q75 377 92 377Q104 377 126 385Q150 392 167 395T206 399Q266 399 299 366T333 285Q333 237 304 195T222 131Q292 120
327 80Z" />
<glyph unicode="4" glyph-name="four" horiz-adv-x="456" d="M423 48T423 32Q423 21 422 11T418 1L352 4V-135Q352 -145 344 -149L265 -188Q259 -190 259 -190Q256 -190 256 -182V7Q196 8 34 8Q29 8 26 12T27 20L337 396Q339 398 343 398Q346 398 349 397T352
392V46Q372 46 420 48Q423 48 423 32ZM210 42T256 43V245L89 49Q83 42 94 42Q210 42 256 43Z" />
<glyph unicode="5" glyph-name="five" horiz-adv-x="409" d="M229 194T294 145T360 9Q360 -48 330 -94T237 -184T68 -275H67Q63 -275 61 -271T62 -264Q170 -203 213 -141T257 -8Q257 75 208 121T68 167Q63 167 60 170T58 179L90 357Q91 364 93 365T103 368Q229
383 272 389T327 401T345 423Q346 426 351 426T356 421L336 310Q333 299 327 296T308 292L118 288Q105 288 103 274L89 196Q229 194 294 145Z" />
<glyph unicode="6" glyph-name="six" horiz-adv-x="465" d="M374 288T407 250T440 159Q440 112 412 73T336 10T230 -13Q141 -13 89 45T37 207Q37 301 81 391T207 553T400 661Q404 662 406 657T405 650Q319 607 259 538T169 386T139 221Q139 163 153 115T195 39T257
11Q294 11 316 42T338 130Q338 183 317 214T255 246Q237 246 221 240T184 218Q183 217 181 217Q178 217 175 220T173 225Q231 288 309 288Q374 288 407 250Z" />
<glyph unicode="7" glyph-name="seven" horiz-adv-x="429" d="M170 -230T156 -236L74 -275H73Q70 -275 68 -273T67 -268L327 291Q331 298 323 298Q181 298 126 294T53 277T25 230Q23 228 20 228Q17 228 15 229T13 233L58 413Q59 415 65 415T70 412Q69 408 69 402Q69
392 78 389T117 386H382Q386 386 389 382T391 373L177 -212Q170 -230 156 -236Z" />
<glyph unicode="8" glyph-name="eight" horiz-adv-x="489" d="M364 316T393 293T443 238T463 164Q463 113 433 73T352 10T241 -13Q181 -13 135 9T63 70T37 153Q37 206 71 253T164 330Q98 384 98 448Q98 491 122 519T182 560T257 574Q302 574 336 559T389 519T407
470Q407 438 382 404T311 349L317 345Q364 316 393 293ZM219 553T203 535T186 488Q186 450 214 421T298 356Q322 415 322 453Q322 497 300 525T247 553Q219 553 203 535ZM315 9T343 43T371 124Q371 158 355 184T313 229T247 273L230 284Q209 297 186 313Q165 288
153 253T140 180Q140 135 156 96T202 33T268 9Q315 9 343 43Z" />
<glyph unicode="9" glyph-name="nine" horiz-adv-x="465" d="M117 104T86 125T40 177T26 243Q26 312 78 355T214 399Q313 399 370 338T428 172Q428 82 385 -8T259 -169T65 -275Q62 -276 60 -271T61 -264Q146 -225 206 -156T296 -5T326 154Q326 205 314 256T273
343T200 378Q127 378 127 268Q127 210 148 177T211 143Q229 143 245 150T282 174Q283 175 285 175Q288 175 290 172T292 167Q269 136 236 120T164 104Q117 104 86 125Z" />
<glyph unicode=":" glyph-name="colon" horiz-adv-x="207" d="M77 -11T61 5T44 50Q44 76 60 92T105 108Q133 108 148 93T164 50Q164 21 149 5T105 -11Q77 -11 61 5ZM77 270T61 286T44 331Q44 357 60 373T105 389Q133 389 148 374T164 331Q164 302 149 286T105
270Q77 270 61 286Z" />
<glyph unicode=";" glyph-name="semicolon" horiz-adv-x="232" d="M145 106T164 79T184 2Q184 -43 164 -81T104 -159Q103 -160 101 -160Q98 -160 96 -157T96 -152Q145 -102 145 -34Q145 -6 135 7Q126 -8 98 -8Q74 -8 60 7T45 48Q45 75 62 90T110 106Q145 106 164
79ZM79 270T63 286T46 331Q46 357 62 373T107 389Q135 389 150 374T166 331Q166 302 151 286T107 270Q79 270 63 286Z" />
<glyph unicode="&lt;" glyph-name="less" horiz-adv-x="407" d="M377 71T377 46Q377 22 370 25L36 173Q31 176 31 190Q31 205 36 207L370 354Q373 356 375 350T377 334Q377 310 370 306L98 190L370 74Q377 71 377 46Z" />
<glyph unicode="=" glyph-name="equal" horiz-adv-x="468" d="M32 236T31 244T29 261Q29 269 30 276T33 283H434Q436 283 437 276T439 260Q439 251 438 244T434 236H34Q32 236 31 244ZM32 96T31 104T29 121Q29 129 30 136T33 143H434Q436 143 437 136T439 120Q439
111 438 104T434 96H34Q32 96 31 104Z" />
<glyph unicode="&gt;" glyph-name="greater" horiz-adv-x="407" d="M376 204T376 189Q376 175 371 172L37 25Q34 24 32 30T30 45Q30 54 32 63T37 73L309 189L37 305Q34 307 32 315T30 333Q30 343 32 349T37 354L371 206Q376 204 376 189Z" />
<glyph unicode="?" glyph-name="question" horiz-adv-x="339" d="M151 606T145 595T137 565Q135 537 124 517T80 496Q54 496 42 510T30 543Q30 578 68 601T165 625Q230 625 274 594T319 506Q319 468 300 444T244 389L222 371Q191 344 177 315T163 248Q163 233
168 195Q170 192 162 190T152 191Q140 218 133 253T126 312Q126 342 135 361T164 405Q185 431 196 455T208 519Q208 557 197 581T165 606Q151 606 145 595ZM125 -11T109 5T92 50Q92 76 108 92T153 108Q181 108 196 93T212 50Q212 21 197 5T153 -11Q125 -11 109
5Z" />
<glyph unicode="@" glyph-name="at" horiz-adv-x="729" d="M402 56T402 115Q402 131 406 147L408 154Q374 108 336 81T263 54Q238 54 222 70T205 121Q205 127 207 143Q215 197 249 247T330 328T418 360Q433 360 446 354T468 336Q496 347 502 367Q504 369 508 369Q512
369 515 368T519 366L478 142Q476 134 476 119Q476 82 513 82Q537 82 562 99T604 152T621 236Q621 303 589 359T500 447T372 480Q296 480 241 443T156 341T126 201Q126 119 160 58T256 -37T401 -71Q448 -71 487 -60T568 -20H569Q572 -20 574 -23T574 -28Q522 -72
471 -89T365 -106Q281 -106 213 -73T104 24T64 175Q64 270 111 345T238 461T407 503Q487 503 548 471T642 385T676 268Q676 210 648 162T572 85T467 56Q402 56 402 115ZM332 118T356 141T402 202T430 275Q432 289 432 295Q432 314 426 325T407 337Q372 337 340
294T296 194Q291 172 291 155Q291 139 296 129T313 118Q332 118 356 141Z" />
<glyph unicode="A" glyph-name="A" horiz-adv-x="716" d="M722 12T722 6T717 0Q697 0 655 2Q611 4 592 4Q567 4 531 2Q497 0 477 0Q473 0 473 6T477 12Q503 12 514 17T526 37Q526 54 506 94L402 299H224L153 142Q140 113 140 88Q140 52 165 32T234 12Q239 12 239
6T234 0Q216 0 182 2Q144 4 116 4Q89 4 51 2Q17 0 -4 0Q-8 0 -8 6T-4 12Q24 12 43 23T81 64T126 152L343 629Q345 632 352 632Q360 632 361 629L611 137Q646 66 669 39T717 12Q722 12 722 6ZM237 327H388L308 485L237 327Z" />
<glyph unicode="B" glyph-name="B" horiz-adv-x="595" d="M444 341T493 295T543 181Q543 129 513 87T430 21T312 -4Q284 -4 248 -1Q234 0 214 1T168 2L95 1Q75 0 41 0Q38 0 38 6T41 12Q70 12 85 17T106 37T113 81V544Q113 586 99 599T42 613Q40 613 40 619T42
625L95 624Q141 622 168 622Q196 622 226 625Q236 626 256 627T291 628Q382 628 432 595T482 499Q482 451 451 412T360 351Q444 341 493 295ZM247 606T236 593T225 542V352L265 351Q317 351 345 390T373 490Q373 547 348 576T276 606Q247 606 236 593ZM426 21T426
157Q426 234 389 279T277 324Q248 324 225 322V81Q225 48 238 35T295 21Q426 21 426 157Z" />
<glyph unicode="C" glyph-name="C" horiz-adv-x="669" d="M465 636T513 629T588 609Q597 606 599 602T604 586L616 447Q616 444 611 443T605 446Q571 525 514 568T382 611Q283 611 229 538T175 342Q175 250 204 174T287 54T409 9Q473 9 523 51T614 181Q615 185
620 184T626 180L611 44Q609 32 607 29T595 21Q506 -12 412 -12Q290 -12 208 36T88 159T49 315Q49 410 100 483T237 596T421 636Q465 636 513 629Z" />
<glyph unicode="D" glyph-name="D" horiz-adv-x="705" d="M294 -4T250 -1Q234 0 211 1T158 2L84 1Q64 0 30 0Q28 0 28 6T30 12Q62 12 77 17T97 36T103 81V544Q103 574 98 588T78 607T32 613Q29 613 29 619T32 625L85 624Q131 622 158 622Q199 622 242 625Q294
627 312 627Q413 627 491 587T613 478T656 323Q656 226 612 152T492 37T326 -4Q294 -4 250 -1ZM380 19T429 51T505 148T533 301Q533 386 507 455T433 565T322 605Q260 605 237 593T214 542V92Q214 52 235 36T316 19Q380 19 429 51Z" />
<glyph unicode="E" glyph-name="E" horiz-adv-x="552" d="M496 161T500 161Q503 161 505 160T508 157Q498 79 498 15Q498 7 495 4T483 0H41Q38 0 38 6T41 12Q73 12 87 17T107 36T112 81V544Q112 574 107 588T87 607T41 613Q38 613 38 619T41 625H465Q475 625 475
616L477 483Q477 481 472 480T465 482Q449 540 411 568T311 596H281Q251 596 237 583T223 543V339H306Q364 339 395 359T426 415Q426 418 431 418T437 415L436 325L437 277Q439 243 439 223Q439 221 433 221T427 223Q427 264 396 287T305 311H223V85Q223 56 234
42T269 28H302Q380 28 427 60T496 159Q496 161 500 161Z" />
<glyph unicode="F" glyph-name="F" horiz-adv-x="522" d="M477 483Q477 481 472 480T465 482Q449 540 411 568T311 596H281Q251 596 237 583T223 543V327H295Q353 327 383 347T414 404Q414 406 420 406T426 404L425 313Q425 281 426 265L427 212Q427 209 421 209T415
212Q415 252 384 275T294 299H223V85Q223 54 231 39T261 18T330 12Q332 12 332 6T330 0Q289 0 266 1L164 2L89 1Q69 0 34 0Q31 0 31 6T34 12Q69 12 85 17T106 36T112 81V544Q112 574 107 588T87 607T41 613Q38 613 38 619T41 625H465Q475 625 475 616L477 483Z"
/>
<glyph unicode="G" glyph-name="G" horiz-adv-x="719" d="M299 -12T217 30T92 144T49 306Q49 402 98 477T234 594T428 636Q475 636 523 629T600 609Q609 606 611 602T615 586L628 447Q628 444 623 443T616 446Q581 523 520 566T379 609Q277 609 224 538T170 344Q170
245 204 168T298 48T434 5Q475 5 497 14T529 49T539 126Q539 178 533 198T508 226T440 233Q434 233 434 241Q434 244 435 246T439 249Q524 244 576 244Q627 244 682 247Q684 247 685 245T687 240Q687 233 682 233Q664 234 657 227T648 197T646 116Q646 71 649 52T653
28Q653 22 651 20T641 16Q512 -12 409 -12Q299 -12 217 30Z" />
<glyph unicode="H" glyph-name="H" horiz-adv-x="764" d="M735 12T735 6T732 0Q697 0 676 1L599 2L509 1Q491 0 460 0Q457 0 457 6T460 12Q497 12 514 17T537 36T543 81V311H220V81Q220 51 226 37T249 17T303 12Q305 12 305 6T303 0Q268 0 247 1L160 2L85 1Q65
0 30 0Q28 0 28 6T30 12Q65 12 81 17T103 36T109 81V544Q109 574 103 588T82 607T32 613Q29 613 29 619T32 625L86 624Q132 622 160 622Q198 622 248 624L303 625Q305 625 305 619T303 613Q267 613 250 607T227 587T220 542V339H543V542Q543 572 537 586T514 607T460
613Q457 613 457 619T460 625L509 624Q559 622 599 622Q626 622 676 624L732 625Q735 625 735 619T732 613Q698 613 682 608T660 588T654 544V81Q654 51 659 37T681 17T732 12Q735 12 735 6Z" />
<glyph unicode="I" glyph-name="I" horiz-adv-x="342" d="M227 50T232 36T251 17T298 12Q301 12 301 6T298 0Q265 0 246 1L170 2L96 1Q76 0 42 0Q40 0 40 6T42 12Q74 12 89 17T109 36T115 81V544Q115 574 110 588T89 607T42 613Q40 613 40 619T42 625L96 624Q142
622 170 622Q201 622 247 624L298 625Q301 625 301 619T298 613Q267 613 252 607T232 587T227 542V81Q227 50 232 36Z" />
<glyph unicode="J" glyph-name="J" horiz-adv-x="339" d="M301 625T301 619T298 613Q272 613 260 607T243 587T239 542V-4Q239 -116 184 -179T29 -242Q-9 -242 -33 -226T-57 -182Q-57 -162 -44 -147T-5 -131Q20 -131 33 -146T58 -188Q64 -204 70 -212T85 -221Q106
-221 116 -187T126 -74V544Q126 574 120 588T96 607T42 613Q40 613 40 619T42 625L104 624Q152 622 181 622Q209 622 251 624L298 625Q301 625 301 619Z" />
<glyph unicode="K" glyph-name="K" horiz-adv-x="655" d="M667 12T667 6T664 0H552Q536 0 525 -1T507 -2Q491 -2 480 5T452 33T393 110Q388 117 382 125T367 145L236 321L214 299V81Q214 50 219 36T238 17T285 12Q289 12 289 6T285 0Q252 0 233 1L158 2L84 1Q64
0 30 0Q28 0 28 6T30 12Q62 12 77 17T97 36T103 81V544Q103 574 98 588T78 607T32 613Q29 613 29 619T32 625L85 624Q131 622 158 622Q188 622 234 624L285 625Q288 625 288 619T285 613Q254 613 240 607T220 587T214 542V330L402 522Q431 551 431 575Q431 593
415 603T370 613Q367 613 367 619T370 625L417 624Q461 622 499 622Q540 622 584 624L629 625Q632 625 632 619T629 613Q583 613 528 587T428 516L315 401L463 201Q528 108 560 70T613 22T664 12Q667 12 667 6Z" />
<glyph unicode="L" glyph-name="L" horiz-adv-x="545" d="M213 85Q213 59 217 48T232 32T270 28H304Q382 28 439 69T515 182Q515 184 519 184Q521 184 523 183T526 180Q517 81 517 15Q517 7 514 4T502 0H30Q28 0 28 6T30 12Q62 12 76 17T96 36T102 81V544Q102
574 97 588T76 607T30 613Q28 613 28 619T30 625L81 624Q127 622 157 622Q187 622 233 624L284 625Q287 625 287 619T284 613Q253 613 238 608T218 588T213 543V85Z" />
<glyph unicode="M" glyph-name="M" horiz-adv-x="857" d="M835 12T835 6T833 0Q799 0 779 1L705 2L630 1Q611 0 578 0Q575 0 575 6T578 12Q620 12 635 22T650 64L649 81L628 490L422 7Q420 3 414 3Q408 3 406 7L153 488L145 127Q144 73 166 43T230 12Q233 12 233
6T230 0Q203 0 188 1L133 2L70 1Q54 0 27 0Q24 0 24 6T27 12Q68 12 92 43T117 127L126 541L125 542Q105 579 84 596T34 613Q31 613 31 619T34 625L81 624Q95 623 117 623L170 624Q179 625 193 625Q206 625 213 616T239 573L457 164L647 600Q653 614 659 619T677
625Q686 625 697 624T724 623L783 624Q797 625 823 625Q826 625 826 619T823 613Q776 613 755 594T736 535L760 81Q762 50 767 36T787 17T833 12Q835 12 835 6Z" />
<glyph unicode="N" glyph-name="N" horiz-adv-x="735" d="M725 625T725 619T723 613Q683 613 660 582T637 497V-15Q637 -18 633 -19T626 -18L157 516V127Q157 74 179 43T240 12Q242 12 242 6T240 0Q212 0 197 1L143 2L81 1Q64 0 32 0Q29 0 29 6T32 12Q76 12 101
43T127 127V550Q94 586 71 599T22 613Q20 613 20 619T22 625L64 624Q77 623 102 623L178 624Q192 625 212 625Q220 625 224 621T238 604Q255 581 262 573L608 174V497Q608 551 586 582T525 613Q523 613 523 619T525 625L568 624Q600 622 622 622Q642 622 678 624L723
625Q725 625 725 619Z" />
<glyph unicode="O" glyph-name="O" horiz-adv-x="766" d="M273 -12T201 31T89 149T49 312Q49 415 101 488T234 599T401 636Q496 636 568 592T678 474T717 319Q717 228 669 152T541 32T366 -12Q273 -12 201 31ZM455 13T499 45T569 140T594 290Q594 382 566 454T485
568T361 609Q270 609 221 541T172 349Q172 252 201 176T282 56T399 13Q455 13 499 45Z" />
<glyph unicode="P" glyph-name="P" horiz-adv-x="553" d="M216 53T223 39T249 18T312 12Q315 12 315 6T312 0Q271 0 248 1L161 2L88 1Q68 0 34 0Q31 0 31 6T34 12Q66 12 80 17T100 36T105 81V544Q105 574 100 588T80 607T34 613Q31 613 31 619T34 625L87 624Q133
622 160 622Q184 622 217 625Q230 626 250 627T296 628Q398 628 457 586T516 454Q516 392 484 349T402 284T298 262Q271 262 251 267Q249 267 249 272Q249 275 250 278T254 280Q269 276 288 276Q334 276 364 319T395 441Q395 520 362 563T264 606Q236 606 226 593T216
542V85Q216 53 223 39Z" />
<glyph unicode="Q" glyph-name="Q" horiz-adv-x="766" d="M748 -178T749 -183T749 -189Q708 -201 668 -201Q591 -201 509 -151T368 -12H366Q273 -12 201 31T89 149T49 312Q49 415 101 488T234 599T401 636Q496 636 568 592T678 474T717 319Q717 214 655 130T492
10Q531 -74 592 -127T710 -181Q727 -181 745 -179Q748 -178 749 -183ZM172 252T201 176T282 56T399 13Q455 13 499 45T569 140T594 290Q594 382 566 454T485 568T361 609Q270 609 221 541T172 349Q172 252 201 176Z" />
<glyph unicode="R" glyph-name="R" horiz-adv-x="698" d="M710 12T710 6T708 0H530Q508 0 448 82T303 313Q295 312 280 312Q241 312 225 313V81Q225 50 230 36T249 17T296 12Q298 12 298 6T296 0Q263 0 244 1L168 2L95 1Q75 0 41 0Q38 0 38 6T41 12Q73 12 87 17T107
36T113 81V544Q113 574 108 588T88 607T42 613Q40 613 40 619T42 625L95 624Q141 622 168 622Q197 622 232 625Q243 626 260 627T302 628Q394 628 444 595T495 501Q495 455 467 413T394 345Q474 219 528 148T625 45T708 12Q710 12 710 6ZM249 338T283 338Q319 338
340 349T370 387T380 463Q380 545 356 576T287 607Q253 607 239 592T225 542V342Q249 338 283 338Z" />
<glyph unicode="S" glyph-name="S" horiz-adv-x="515" d="M174 488T192 460T238 411T311 360Q361 328 391 304T442 246T463 166Q463 114 435 74T358 11T247 -12Q202 -12 153 0T87 28Q82 32 80 35T77 47L74 206V207Q74 211 79 211T85 208Q115 147 137 109T194 42T273
13Q313 13 339 34T365 108Q365 152 346 185T298 241T221 296Q173 327 147 349T101 402T82 475Q82 528 112 564T191 618T292 636Q327 636 363 630T421 614Q430 610 433 606T436 594V447Q436 444 431 443T425 444L417 463Q392 526 359 570T265 614Q225 614 200 591T174
524Q174 488 192 460Z" />
<glyph unicode="T" glyph-name="T" horiz-adv-x="643" d="M103 602T51 447Q50 444 45 444T40 448Q44 488 49 551T54 647Q54 652 59 652T65 647Q65 625 122 625Q208 622 323 622Q382 622 448 624L516 625Q554 625 571 630T594 650Q595 654 600 654T606 650Q603
620 600 554T596 448Q596 445 591 445T585 448Q570 525 529 563T428 602Q399 602 390 590T380 542V81Q380 50 386 36T409 17T463 12Q466 12 466 6T463 0Q427 0 406 1L323 2L242 1Q221 0 184 0Q181 0 181 6T184 12Q220 12 237 17T261 36T268 81V544Q268 578 259
590T222 602Q103 602 51 447Z" />
<glyph unicode="U" glyph-name="U" horiz-adv-x="703" d="M571 551T547 582T478 613Q476 613 476 619T478 625L526 624Q564 622 587 622Q606 622 642 624L688 625Q690 625 690 619T688 613Q649 613 627 582T605 497V219Q605 149 574 96T487 15T356 -14Q282 -14
225 14T136 95T103 221V544Q103 574 98 588T78 607T32 613Q29 613 29 619T32 625L85 624Q131 622 158 622Q188 622 234 624L285 625Q288 625 288 619T285 613Q254 613 240 607T220 587T214 542V256Q214 137 261 80T394 23Q477 23 524 73T571 218V497Q571 551 547
582Z" />
<glyph unicode="V" glyph-name="V" horiz-adv-x="660" d="M668 625T668 619T665 613Q629 613 596 581T543 495L358 1Q357 -3 347 -3Q337 -3 336 1L81 542Q63 578 45 595T5 613Q2 613 2 619T5 625Q20 625 26 624Q46 622 78 622Q164 622 224 624Q240 625 264 625Q267
625 267 619T264 613Q234 613 218 601T201 565Q201 548 212 524L385 155L515 498Q525 526 525 546Q525 577 507 595T453 613Q450 613 450 619T453 625L502 624Q544 622 577 622Q596 622 624 624L665 625Q668 625 668 619Z" />
<glyph unicode="W" glyph-name="W" horiz-adv-x="911" d="M919 625T919 619T917 613Q880 613 848 582T794 495L609 1Q608 -3 598 -3Q588 -3 587 1L459 272L358 1Q357 -3 347 -3Q337 -3 336 1L81 542Q66 574 57 588T36 607T5 613Q2 613 2 619T5 625Q20 625 26 624Q46
622 78 622Q145 622 191 624Q204 625 223 625Q226 625 226 619T223 613Q198 613 188 608T177 590Q177 573 200 524L380 142L443 307L332 542Q315 578 300 595T268 613Q265 613 265 619T268 625Q278 625 291 624T330 622Q387 622 425 624Q435 625 451 625Q454 625
454 619T451 613Q437 613 431 610T424 597Q424 580 451 524L495 431L520 498Q542 555 542 584Q542 613 517 613Q514 613 514 619T517 625Q525 625 534 624T582 622Q599 622 623 624L660 625Q662 625 662 619T660 613Q593 613 549 495L512 396L632 143L761 488Q773
520 773 546Q773 577 758 595T716 613Q713 613 713 619T716 625L762 624Q798 622 828 622Q848 622 874 624L917 625Q919 625 919 619Z" />
<glyph unicode="X" glyph-name="X" horiz-adv-x="647" d="M647 12T647 6T644 0Q615 0 599 1L539 2L457 1Q438 0 404 0Q401 0 401 6T404 12Q437 12 437 29Q437 38 428 51L291 263L205 140Q166 85 166 51Q166 12 218 12Q220 12 220 6T218 0Q185 0 168 1L94 2L47
1Q34 0 5 0Q2 0 2 6T5 12Q36 12 81 45T175 146L277 284L117 533Q90 576 65 594T12 613Q9 613 9 619T12 625L55 624Q83 622 97 622Q132 622 184 624L241 625Q243 625 243 619T241 613Q207 613 207 596Q207 588 216 573L348 370L428 484Q467 540 467 574Q467 613
415 613Q413 613 413 619T415 625L465 624Q505 622 539 622Q560 622 586 624L628 625Q631 625 631 619T628 613Q596 613 552 580T457 478L362 348L533 83Q558 46 584 29T644 12Q647 12 647 6Z" />
<glyph unicode="Y" glyph-name="Y" horiz-adv-x="619" d="M627 625T627 619T625 613Q594 613 549 575T469 478L365 304V81Q365 50 370 36T389 17T436 12Q439 12 439 6T436 0Q403 0 384 1L309 2L235 1Q215 0 181 0Q179 0 179 6T181 12Q213 12 228 17T248 36T254
81V283L108 510Q71 568 47 590T5 613Q2 613 2 619T5 625L36 624Q58 622 67 622Q102 622 168 624L234 625Q236 625 236 619T234 613Q217 613 208 605T198 584Q198 568 212 546L349 330L441 487Q468 532 468 564Q468 588 454 600T412 613Q409 613 409 619T412 625L465
624Q511 622 547 622Q564 622 588 624L625 625Q627 625 627 619Z" />
<glyph unicode="Z" glyph-name="Z" horiz-adv-x="605" d="M411 600Q414 605 414 606T406 608Q292 608 233 600T135 564T69 478Q68 477 65 477Q56 477 57 481L97 655Q97 656 101 656Q111 656 109 653Q108 650 108 645Q108 633 119 629T166 625H531Q536 625 538
620T538 612L192 27Q188 22 189 21T196 19H398Q434 19 468 37T526 87T556 153Q557 156 562 156T567 153L553 8Q553 5 551 2T544 -2Q395 0 65 0Q61 0 59 4T60 13L411 600Z" />
<glyph unicode="[" glyph-name="bracketleft" horiz-adv-x="274" d="M67 715Q67 722 68 723T76 725H236Q239 725 239 719T236 713Q205 713 190 707T170 687T165 642V-34Q165 -64 170 -78T190 -99T236 -105Q239 -105 239 -111T236 -117H76Q70 -117 69 -115T67 -106V715Z" />
<glyph unicode="\" glyph-name="backslash" horiz-adv-x="351" d="M26 716Q25 721 48 727T73 730L325 -152Q326 -156 303 -162T277 -165L26 716Z" />
<glyph unicode="]" glyph-name="bracketright" horiz-adv-x="274" d="M207 -113T206 -115T198 -117H38Q35 -117 35 -111T38 -105Q69 -105 84 -99T104 -79T109 -34V642Q109 672 104 686T84 707T38 713Q35 713 35 719T38 725H198Q204 725 205 724T207 715V-106Q207
-113 206 -115Z" />
<glyph unicode="^" glyph-name="asciicircum" horiz-adv-x="392" d="M333 379Q333 377 329 375T324 375L196 509L68 375Q67 374 65 374Q62 374 60 376T58 380L185 629Q186 634 196 634Q206 634 207 629L333 380V379Z" />
<glyph unicode="_" glyph-name="underscore" horiz-adv-x="398" d="M32 -81T31 -73T29 -55Q29 -46 30 -39T33 -32H364Q366 -32 367 -40T369 -57Q369 -66 368 -73T364 -81H34Q32 -81 31 -73Z" />
<glyph unicode="`" glyph-name="grave" horiz-adv-x="213" d="M22 731T37 731Q59 731 90 726T122 716L154 476Q154 474 150 473T144 474L23 727Q22 731 37 731Z" />
<glyph unicode="a" glyph-name="a" horiz-adv-x="421" d="M419 54Q423 54 424 50T422 43L319 -6Q315 -8 309 -8Q294 -8 280 7T259 48L213 23Q187 10 159 2T109 -7Q77 -7 59 9T40 57Q40 80 51 94T84 117T153 143L255 176V255Q255 315 243 343T204 372Q180 372 166
354T149 295Q143 239 90 239Q43 239 43 280Q43 307 77 334T159 378T243 395Q290 395 319 367T349 285V108Q349 79 359 63T389 47Q403 47 418 54H419ZM256 64Q255 71 255 85V159L200 139Q173 129 162 117T150 88Q150 67 162 55T192 43Q214 43 243 57L256 64Z" />
<glyph unicode="b" glyph-name="b" horiz-adv-x="516" d="M363 399T401 378T461 315T484 213Q484 141 454 90T374 13T268 -13Q230 -13 194 -1T127 34L36 -7H34Q30 -7 29 -3T32 2Q56 16 68 40T81 103V589Q81 624 75 639T51 654Q38 654 14 643H13Q9 643 7 648T7
655L153 724L158 725Q163 725 168 721T174 712V332Q207 363 241 381T318 399Q363 399 401 378ZM335 7T358 51T381 174Q381 261 352 303T271 346Q224 346 174 312V165Q174 110 193 75T239 23T292 7Q335 7 358 51Z" />
<glyph unicode="c" glyph-name="c" horiz-adv-x="425" d="M168 -12T123 16T55 90T32 186Q32 249 67 296T156 369T268 395Q316 395 354 375T393 320Q393 301 379 288T338 274Q314 274 300 286T277 325Q268 353 260 363T229 374Q186 374 161 332T135 219Q135 136
172 87T290 37Q317 37 336 43T386 63H387Q390 63 392 60T393 55Q356 21 319 5T234 -12Q168 -12 123 16Z" />
<glyph unicode="d" glyph-name="d" horiz-adv-x="510" d="M503 65Q506 65 508 60T509 54L371 -13L366 -14Q357 -14 350 5T340 57Q266 -13 189 -13Q145 -13 110 10T53 77T32 182Q32 258 67 306T155 377T261 399Q298 399 339 387V589Q339 624 333 639T310 654Q297
654 273 643H272Q268 643 266 648T265 655L412 724L416 725Q421 725 427 721T433 712V116Q433 82 439 68T461 54Q474 54 502 65H503ZM294 35T339 77V82V325Q321 350 299 361T246 373Q192 373 164 336T135 214Q135 130 165 83T244 35Q294 35 339 77Z" />
<glyph unicode="e" glyph-name="e" horiz-adv-x="418" d="M388 66Q390 66 392 62T393 56Q356 20 318 4T235 -12Q172 -12 126 14T56 85T32 181Q32 239 62 288T144 366T260 395Q322 395 355 369T388 296Q388 267 377 267H316L136 265Q133 246 133 223Q133 137 173
87T285 37Q310 37 337 44T386 65L388 66ZM193 375T171 351T139 285L281 288Q278 375 223 375Q193 375 171 351Z" />
<glyph unicode="f" glyph-name="f" horiz-adv-x="305" d="M375 726T406 711T437 667Q437 644 422 631T386 618Q362 618 351 629T331 661Q322 682 312 692T280 703Q234 703 208 639T181 439V378Q212 379 291 387Q294 387 296 380T298 363Q298 353 295 344T288 335Q240
347 181 350V81Q181 50 187 36T211 17T270 12Q274 12 274 6T270 0L201 1Q178 2 133 2L72 1Q56 0 27 0Q23 0 23 6T27 12Q53 12 65 17T82 36T87 81V306Q87 337 74 346T23 356Q20 356 20 365Q20 374 23 374Q58 374 71 383T85 418Q90 581 147 653T319 726Q375 726 406
711Z" />
<glyph unicode="g" glyph-name="g" horiz-adv-x="451" d="M315 34T350 24T410 -10T436 -78Q436 -132 402 -179T309 -254T182 -282Q108 -282 61 -250T14 -167Q14 -133 36 -97T118 -18Q88 -9 72 8T55 54Q55 79 74 105T135 155Q91 170 67 201T43 268Q43 308 69 336T135
378T215 393Q282 393 326 360Q353 378 379 387T435 396Q443 396 443 368Q443 354 439 337T432 323Q390 340 357 340H349Q375 309 375 270Q375 232 350 204T284 160T202 145Q175 145 151 151Q131 135 131 110Q131 88 147 76T188 58T256 44Q315 34 350 24ZM140 374T140
295Q140 243 165 203T229 163Q248 163 262 183T277 246Q277 300 249 337T182 374Q140 374 140 295ZM287 -250T319 -220T352 -138Q352 -100 331 -80T279 -51T195 -34L141 -25Q113 -58 113 -119Q113 -182 147 -216T235 -250Q287 -250 319 -220Z" />
<glyph unicode="h" glyph-name="h" horiz-adv-x="509" d="M495 12T495 6T491 0Q465 0 449 1L391 2L331 1Q316 0 290 0Q288 0 288 6T290 12Q321 12 332 26T344 81V225Q344 279 324 305T262 331Q238 331 213 321T168 294V81Q168 41 179 27T222 12Q226 12 226 6T222
0Q196 0 180 1L122 2L62 1Q47 0 21 0Q19 0 19 6T21 12Q52 12 63 26T75 81V589Q75 624 69 639T46 654Q32 654 8 643H7Q4 643 2 648T1 655L147 724L152 725Q157 725 162 721T168 712V316Q239 398 320 398Q374 398 405 364T437 273V81Q437 41 448 27T491 12Q495 12
495 6Z" />
<glyph unicode="i" glyph-name="i" horiz-adv-x="263" d="M36 0T36 6T39 12Q70 12 81 26T92 81V260Q92 294 85 309T62 324Q49 324 25 313H24Q20 313 18 318T19 325L170 395L173 396Q178 396 183 391T188 382V360Q186 320 186 262V81Q186 41 197 27T240 12Q243
12 243 6T240 0Q214 0 199 1L139 2L80 1Q65 0 39 0Q36 0 36 6ZM106 495T90 511T74 556Q74 582 90 597T135 613Q163 613 178 598T193 556Q193 527 178 511T135 495Q106 495 90 511Z" />
<glyph unicode="j" glyph-name="j" horiz-adv-x="263" d="M188 360Q186 320 186 262V-48Q186 -116 170 -159T115 -232T8 -282Q6 -283 4 -278T4 -271Q52 -250 72 -204T92 -71V260Q92 294 86 309T63 324Q50 324 26 313H25Q21 313 19 318T19 325L170 395L173 396Q178
396 183 391T188 382V360ZM104 495T88 511T72 556Q72 582 88 597T133 613Q161 613 176 598T191 556Q191 527 176 511T133 495Q104 495 88 511Z" />
<glyph unicode="k" glyph-name="k" horiz-adv-x="491" d="M500 12T500 6T497 0Q471 0 456 1L396 2L319 1Q302 0 273 0Q270 0 270 6T273 12Q309 12 309 33Q309 44 301 53L187 199L168 182V81Q168 41 179 27T222 12Q226 12 226 6T222 0Q196 0 180 1L122 2L62 1Q47
0 21 0Q19 0 19 6T21 12Q52 12 63 26T75 81V589Q75 624 69 639T46 654Q32 654 8 643H7Q4 643 2 648T1 655L147 724L152 725Q157 725 162 721T168 712V205L261 295Q287 319 287 344Q287 357 277 365T249 374Q247 374 247 380T249 386Q278 386 294 385L373 384L446
385Q460 386 485 386Q488 386 488 380T485 374Q442 374 387 353T287 290L251 257L388 81Q417 45 443 29T497 12Q500 12 500 6Z" />
<glyph unicode="l" glyph-name="l" horiz-adv-x="268" d="M33 0T33 6T35 12Q66 12 77 26T89 81L90 589Q90 624 84 639T61 654Q48 654 23 643H22Q19 643 17 648T16 655L163 724L167 725Q172 725 178 721T184 712V81Q184 41 195 27T237 12Q241 12 241 6T237 0Q212
0 197 1L136 2L76 1Q61 0 35 0Q33 0 33 6Z" />
<glyph unicode="m" glyph-name="m" horiz-adv-x="777" d="M763 12T763 6T759 0Q733 0 718 1L658 2L600 1Q584 0 558 0Q555 0 555 6T558 12Q589 12 600 26T612 81V225Q612 279 594 305T537 331Q511 331 486 320T443 290V284V81Q443 41 454 27T497 12Q501 12 501
6T497 0Q471 0 456 1L396 2L338 1Q322 0 296 0Q293 0 293 6T296 12Q327 12 338 26T350 81V225Q350 279 332 305T275 331Q251 331 228 322T186 295V81Q186 41 197 27T240 12Q243 12 243 6T240 0Q214 0 199 1L139 2L80 1Q65 0 39 0Q36 0 36 6T39 12Q70 12 81 26T92
81V269Q92 300 85 314T61 329Q44 329 13 315H11Q8 315 7 320T7 326L146 394Q152 396 153 396Q164 396 174 375T186 317Q254 398 332 398Q379 398 407 375T441 309Q510 398 594 398Q648 398 676 367T705 273V81Q705 41 716 27T759 12Q763 12 763 6Z" />
<glyph unicode="n" glyph-name="n" horiz-adv-x="526" d="M512 12T512 6T509 0Q483 0 468 1L408 2L350 1Q334 0 308 0Q305 0 305 6T308 12Q339 12 350 26T361 81V225Q361 279 342 305T280 331Q256 331 231 321T186 294V81Q186 41 197 27T240 12Q243 12 243 6T240
0Q214 0 199 1L139 2L80 1Q65 0 39 0Q36 0 36 6T39 12Q70 12 81 26T92 81V269Q92 300 85 314T61 329Q44 329 13 315H11Q8 315 7 320T7 326L146 394Q152 396 153 396Q164 396 174 375T186 316Q255 398 338 398Q392 398 423 364T455 273V81Q455 41 466 27T509 12Q512
12 512 6Z" />
<glyph unicode="o" glyph-name="o" horiz-adv-x="489" d="M175 -13T129 15T57 92T32 198Q32 263 65 308T149 376T254 399Q316 399 362 370T432 294T457 192Q457 132 427 86T347 13T237 -13Q175 -13 129 15ZM306 8T326 46T347 157Q347 227 329 277T282 352T220
378Q140 378 140 235Q140 168 157 117T203 37T267 8Q306 8 326 46Z" />
<glyph unicode="p" glyph-name="p" horiz-adv-x="513" d="M212 -13T175 -2V-194Q175 -224 181 -238T206 -257T264 -263Q267 -263 267 -269T264 -275Q227 -275 206 -274L127 -273L68 -274Q53 -275 26 -275Q23 -275 23 -269T26 -263Q50 -263 61 -258T77 -238T82
-194V269Q82 301 75 315T50 329Q34 329 4 315H2Q-1 315 -3 320T-4 326L138 395Q140 396 143 396Q153 396 161 379T173 333Q246 399 323 399Q365 399 401 377T460 313T482 215Q482 135 449 84T366 10T261 -13Q212 -13 175 -2ZM212 343T175 311V303V62Q197 37 221
25T280 12Q381 12 381 184Q381 260 346 301T257 343Q212 343 175 311Z" />
<glyph unicode="q" glyph-name="q" horiz-adv-x="502" d="M494 -263T494 -269T491 -275Q465 -275 449 -274L389 -273L318 -274Q299 -275 264 -275Q262 -275 262 -269T264 -263Q298 -263 314 -258T336 -238T342 -194V56Q309 24 275 6T198 -13Q153 -13 115 8T55
71T32 173Q32 245 64 296T147 373T256 399Q340 399 399 359L480 388L482 389Q485 389 486 384T484 378Q459 365 447 345T435 295V-194Q435 -224 439 -238T455 -257T491 -263Q494 -263 494 -269ZM293 40T342 75V263Q342 302 325 328T283 366T235 378Q185 378 160
336T135 212Q135 125 164 83T244 40Q293 40 342 75Z" />
<glyph unicode="r" glyph-name="r" horiz-adv-x="379" d="M322 396T343 380T365 340Q365 319 352 306T318 292Q303 292 294 298T274 316Q265 326 259 330T243 335Q233 335 222 328T186 296V81Q186 41 205 27T275 12Q279 12 279 6T275 0Q240 0 220 1L139 2L80 1Q65
0 39 0Q36 0 36 6T39 12Q70 12 81 26T92 81V269Q92 300 85 314T61 329Q44 329 13 315H11Q8 315 7 320T7 326L146 394Q152 396 153 396Q164 396 173 376T185 320Q226 362 252 379T299 396Q322 396 343 380Z" />
<glyph unicode="s" glyph-name="s" horiz-adv-x="337" d="M118 309T138 288T198 244Q236 222 254 210T288 175T303 120Q303 86 286 56T235 8T154 -11Q99 -11 50 16Q44 22 44 28L42 127Q42 130 47 130T54 129Q70 79 107 44T182 9Q203 9 215 22T228 60Q228 97 207
118T145 163Q110 182 92 194T60 228T46 282Q46 341 88 368T191 396Q214 396 232 393T274 381Q283 378 283 370Q283 345 282 331L281 281Q281 278 275 278T269 281Q269 300 253 322T212 361T159 377Q118 377 118 338Q118 309 138 288Z" />
<glyph unicode="t" glyph-name="t" horiz-adv-x="336" d="M324 70Q328 70 330 66T330 60Q293 23 258 6T184 -12Q140 -12 109 9T78 80V302Q78 333 67 345T27 357Q26 357 25 360T23 366Q23 370 24 372T27 375Q78 377 109 397T158 458Q160 462 166 462T173 458V378Q231
379 303 387Q305 387 307 380T310 363Q310 353 307 344T299 335Q234 349 173 350V113Q173 75 192 57T244 39Q284 39 322 69L324 70Z" />
<glyph unicode="u" glyph-name="u" horiz-adv-x="505" d="M499 65Q502 65 504 60T504 54L366 -13Q364 -14 361 -14Q351 -14 344 7T335 66Q269 -12 192 -12Q137 -12 106 22T74 113V260Q74 325 43 325Q32 325 18 318H17Q13 318 11 323T12 330L146 394L151 395Q156
395 161 391T167 382V161Q167 53 250 53Q272 53 294 62T335 89V260Q335 325 304 325Q293 325 278 318H277Q274 318 272 323T273 330L407 394Q409 395 412 395Q417 395 422 391T428 382V116Q428 82 434 68T456 54Q470 54 497 65H499Z" />
<glyph unicode="v" glyph-name="v" horiz-adv-x="440" d="M456 386T456 380T454 374Q425 374 403 352T360 284L237 0Q236 -5 226 -5Q218 -5 215 0L62 303Q41 347 25 360T-14 374Q-17 374 -17 380T-14 386Q4 386 16 385L83 384L160 385Q177 386 207 386Q210 386
210 380T207 374Q149 374 149 351Q149 345 154 335L266 125L332 285Q340 306 340 321Q340 346 323 360T276 374Q274 374 274 380T276 386Q303 386 317 385L377 384L417 385Q429 386 454 386Q456 386 456 380Z" />
<glyph unicode="w" glyph-name="w" horiz-adv-x="685" d="M702 386T702 380T699 374Q671 374 649 353T606 284L483 1Q483 -3 473 -3Q462 -3 461 1L340 239L237 1Q237 -3 227 -3Q218 -3 215 1L62 303Q40 346 25 360T-14 374Q-17 374 -17 380T-14 386Q4 386 16 385L83
384L154 385Q169 386 195 386Q198 386 198 380T195 374Q144 374 144 352Q144 346 150 335L266 126L325 269L308 303Q285 347 273 360T243 374Q241 374 241 380T243 386Q259 386 269 385L329 384L400 385Q415 386 441 386Q443 386 443 380T441 374Q421 374 409 368T396
350Q396 342 400 335L512 125L578 285Q586 306 586 321Q586 346 569 360T522 374Q519 374 519 380T522 386Q549 386 562 385L622 384L663 385Q674 386 699 386Q702 386 702 380Z" />
<glyph unicode="x" glyph-name="x" horiz-adv-x="440" d="M439 12T439 6T436 0L400 1Q387 2 363 2L292 1Q276 0 248 0Q245 0 245 6T248 12Q270 12 270 26Q270 37 260 51L195 149L160 98Q137 65 137 42Q137 12 181 12Q184 12 184 6T181 0Q154 0 141 1L81 2L40 1Q29
0 4 0Q1 0 1 6T4 12Q35 12 70 37T136 105L182 168L92 303Q45 374 14 374Q12 374 12 380T14 386Q35 386 45 385L76 384L146 385Q162 386 191 386Q193 386 193 380T191 374Q169 374 169 359Q169 349 179 335L237 247L265 288Q289 323 289 344Q289 374 244 374Q242
374 242 380T244 386Q271 386 285 385L345 384L386 385Q397 386 422 386Q425 386 425 380T422 374Q391 374 356 349T290 281L250 228L346 83Q370 47 393 30T436 12Q439 12 439 6Z" />
<glyph unicode="y" glyph-name="y" horiz-adv-x="427" d="M443 386T443 380T441 374Q409 374 386 347T343 267L232 -28Q179 -168 131 -224T23 -281Q-7 -281 -23 -269T-39 -232Q-39 -209 -25 -197T9 -185Q20 -185 27 -188T46 -198Q65 -211 82 -211Q105 -211 123
-194T162 -136T210 -20L50 303Q28 346 16 360T-15 374Q-18 374 -18 380T-15 386Q13 386 28 385L70 384L139 385Q155 386 182 386Q185 386 185 380T182 374Q156 374 144 370T132 355Q132 347 138 335L256 94L316 268Q325 294 325 315Q325 343 309 358T263 374Q261
374 261 380T263 386Q290 386 304 385L364 384L404 385Q416 386 441 386Q443 386 443 380Z" />
<glyph unicode="z" glyph-name="z" horiz-adv-x="405" d="M256 364Q260 371 251 371Q169 371 115 345T43 265Q43 264 39 264Q31 264 32 268L74 425Q74 426 78 426Q86 426 85 422Q83 414 83 410Q83 396 95 391T135 386H365Q369 386 372 382T373 374L145 25Q142
18 150 18Q248 18 301 46T367 132Q368 135 373 135T379 132L377 11Q377 7 374 4T367 0H40Q36 0 34 4T33 12L256 364Z" />
<glyph unicode="{" glyph-name="braceleft" horiz-adv-x="289" d="M29 298T29 304T32 311Q67 317 78 375T90 529Q90 615 103 655T148 710T250 725Q254 725 254 719T250 713Q224 713 210 686T195 607Q193 485 187 435T157 357T78 305Q134 281 157 252T186 172T195
1Q196 -50 210 -77T250 -105Q254 -105 254 -111T250 -117Q181 -117 148 -103T103 -47T90 80Q90 176 79 234T32 298Q29 298 29 304Z" />
<glyph unicode="|" glyph-name="bar" horiz-adv-x="168" d="M62 731Q62 738 86 738Q109 738 109 731V-154Q109 -158 102 -160T86 -162Q76 -162 69 -160T62 -154V731Z" />
<glyph unicode="}" glyph-name="braceright" horiz-adv-x="283" d="M216 292T205 234T193 80Q193 -6 181 -47T135 -102T33 -117Q29 -117 29 -111T33 -105Q59 -105 73 -78T88 1Q90 122 96 172T126 251T205 305Q149 328 126 356T97 435T88 607Q87 658 73 685T33
713Q29 713 29 719T33 725Q102 725 134 711T180 656T193 529Q193 434 204 376T251 311Q254 311 254 305T251 298Q216 292 205 234Z" />
<glyph unicode="~" glyph-name="asciitilde" horiz-adv-x="443" d="M342 212T357 222T389 250L391 251Q393 251 395 248T396 243Q357 181 333 160T280 139Q263 139 249 143T208 156Q162 175 129 175Q105 175 92 168T69 151T55 137H54Q52 137 50 139T48 144Q111
248 171 248Q184 248 200 243T232 232Q257 222 276 217T315 212Q342 212 357 222Z" />
<glyph unicode="&#xa0;" glyph-name="uni00A0" horiz-adv-x="234" />
<glyph unicode="&#xa1;" glyph-name="exclamdown" horiz-adv-x="263" d="M166 365T182 349T199 304Q199 278 183 262T138 246Q110 246 95 261T79 304Q79 333 94 349T138 365Q166 365 182 349ZM204 -268T181 -271T132 -275Q106 -275 83 -272T61 -261Q83 -185 93
-95T115 133Q115 143 117 165Q117 170 134 170Q151 170 151 165Q160 17 170 -80T202 -261Q204 -268 181 -271Z" />
<glyph unicode="&#xa2;" glyph-name="cent" horiz-adv-x="530" d="M475 144T480 143T485 139L477 33Q476 25 474 22T463 15Q386 -12 303 -12H302V-102Q302 -109 288 -109Q273 -109 273 -102V-11Q188 -5 134 34T55 127T30 236Q30 299 61 352T148 438T273 478V561Q273
565 277 567T288 569Q294 569 298 567T302 561V480H308Q345 480 388 472T460 451Q467 448 469 445T471 434L476 331Q476 328 471 327T464 330Q427 394 389 425T302 458V10Q307 9 318 9Q369 9 404 40T474 140Q475 144 480 143ZM149 168T180 102T273 15V456Q213 447
181 392T149 251Q149 168 180 102Z" />
<glyph unicode="&#xa3;" glyph-name="sterling" horiz-adv-x="432" d="M368 131T372 131Q375 131 377 130T380 127Q371 75 371 15Q371 7 368 4T356 0H13Q10 0 10 5T13 12Q64 24 82 48T101 108Q101 162 84 215H43Q40 215 38 219T36 230Q36 235 38 239T43 244H74Q65
270 61 288T57 327Q57 406 111 443T247 480Q293 480 336 467Q351 461 352 448L359 344Q359 340 354 340Q350 340 347 344Q313 405 289 432T226 460Q188 460 172 433T156 363Q156 335 162 310T181 244H274Q281 244 281 230Q281 215 274 215H189Q198 177 198 149Q198
112 186 89T153 48H251Q295 48 316 54T349 76T368 129Q368 131 372 131Z" />
<glyph unicode="&#xa4;" glyph-name="currency" horiz-adv-x="414" d="M329 32L280 87Q239 65 196 65Q157 65 128 82L83 32L50 64L95 110Q61 150 61 202Q61 252 95 288L46 338L83 373L135 317Q171 335 211 335Q250 335 283 316L335 370L366 338L317 289Q349 251
349 201Q349 153 318 117L367 68L329 32ZM242 89T258 113T274 180Q274 233 251 272T188 311Q163 311 148 289T133 223Q133 171 154 130T215 89Q242 89 258 113Z" />
<glyph unicode="&#xa5;" glyph-name="yen" horiz-adv-x="498" d="M500 468T500 462T497 456Q436 456 386 366L310 229V213H401Q405 213 407 209T409 200Q409 195 407 191T401 187H112Q109 187 107 191T105 200Q105 205 107 209T112 213H206V214L96 385Q72 423
51 439T6 456Q3 456 3 462T6 468L43 467L83 465Q113 465 177 467L240 468Q242 468 242 462T240 456Q191 456 191 431Q191 419 204 400L297 255L358 367Q373 394 373 415Q373 434 361 445T322 456Q319 456 319 462T322 468L370 467Q410 465 443 465Q455 465 473
467L497 468Q500 468 500 462ZM405 142T407 138T409 129Q409 124 407 120T401 116H310V81Q310 50 315 36T335 17T384 12Q386 12 386 6T384 0Q351 0 332 1L257 2L186 1Q166 0 131 0Q128 0 128 6T131 12Q164 12 179 17T200 36T206 81V116H112Q109 116 107 120T105
129Q105 134 107 138T112 142H401Q405 142 407 138Z" />
<glyph unicode="&#xa6;" glyph-name="brokenbar" horiz-adv-x="168" d="M62 731Q62 738 86 738Q109 738 109 731V360Q109 357 102 355T86 353Q77 353 70 355T62 360V731ZM62 216Q62 220 69 222T86 224Q95 224 102 222T109 216V-154Q109 -158 102 -160T86 -162Q76
-162 69 -160T62 -154V216Z" />
<glyph unicode="&#xa7;" glyph-name="section" horiz-adv-x="488" d="M398 -6T398 -58Q398 -121 348 -154T228 -188Q178 -188 142 -170Q131 -163 131 -153L123 -36Q123 -34 128 -34T135 -36Q137 -40 154 -75T201 -137T261 -165Q284 -165 298 -148T312 -98Q312
-63 298 -38T262 5T203 48Q163 74 139 94T99 146T82 219Q82 254 98 284T158 350Q117 391 117 442Q117 505 167 538T287 572Q338 572 373 553Q384 548 384 537L392 420Q392 417 387 417T380 420Q378 423 361 458T314 521T254 549Q230 549 216 532T202 482Q202 447
217 422T254 378T312 336Q352 309 376 289T416 238T433 165Q433 130 417 100T356 34Q398 -6 398 -58ZM158 222T176 189T220 134T288 85Q298 78 314 67T341 47Q357 73 357 116Q357 161 339 194T296 248T228 298Q195 319 173 337Q158 311 158 268Q158 222 176 189Z"
/>
<glyph unicode="&#xa8;" glyph-name="dieresis" horiz-adv-x="322" d="M49 464T35 478T20 519Q20 543 35 557T75 571Q100 571 113 557T127 519Q127 493 114 479T75 464Q49 464 35 478ZM223 464T209 478T195 519Q195 543 209 556T249 570Q274 570 287 557T301 519Q301
493 288 479T249 464Q223 464 209 478Z" />
<glyph unicode="&#xa9;" glyph-name="copyright" horiz-adv-x="727" d="M295 -106T223 -71T107 30T64 187Q64 278 113 350T242 462T412 503Q490 503 550 471T642 384T675 268Q675 209 641 157T547 72T411 39Q317 39 272 85T227 195Q227 247 252 285T318 343T404
364Q446 364 478 349T511 303Q511 261 468 261Q453 261 443 270T425 297Q413 319 402 329T371 340Q340 340 329 314T318 230Q318 159 354 113T464 67Q501 67 534 88T588 147T608 236Q608 303 578 359T495 447T377 480Q303 480 249 444T166 347T138 213Q138 127
172 63T270 -36T418 -71Q469 -71 512 -60T602 -20H603Q606 -20 608 -23T608 -28Q552 -72 497 -89T381 -106Q295 -106 223 -71Z" />
<glyph unicode="&#xaa;" glyph-name="ordfeminine" horiz-adv-x="288" d="M276 407Q280 407 281 404T281 398L213 366Q207 364 203 364Q192 364 184 374T172 401L142 385Q120 373 106 369T75 365Q52 365 39 376T26 404Q26 422 35 434T70 455L170 489V538Q170 584
161 598T136 612Q122 612 113 598T102 561Q95 523 64 523Q47 523 37 532T26 558Q26 576 49 592T105 619T163 630Q194 630 214 612T234 558V441Q234 418 237 408T250 398Q255 398 275 407H276ZM170 413V419V478L127 461Q99 450 99 425Q99 412 106 404T125 396Q135
396 147 401L170 413ZM266 318T267 313T269 301Q269 294 268 289T264 283H40Q38 283 37 289T35 302Q35 308 36 313T39 318H264Q266 318 267 313Z" />
<glyph unicode="&#xab;" glyph-name="guillemotleft" horiz-adv-x="475" d="M53 189Q49 193 49 201Q49 208 53 212L241 361Q241 362 243 362Q245 362 247 360T248 356L156 201L248 46Q249 44 246 41T241 40L53 189ZM223 189Q219 195 219 201Q219 206 223 212L412
361Q412 362 414 362Q416 362 418 360T419 356L326 201L419 46Q420 44 417 41T412 40L223 189Z" />
<glyph unicode="&#xac;" glyph-name="logicalnot" horiz-adv-x="395" d="M364 77Q364 75 356 74T339 72Q331 72 324 73T317 76V225H34Q32 225 31 233T29 250Q29 258 30 264T33 271H364V77Z" />
<glyph unicode="&#xad;" glyph-name="uni00AD" horiz-adv-x="323" d="M30 153T29 163T27 184Q27 208 30 208L291 255Q293 256 294 248T296 229Q296 219 295 211T291 201L32 154Q30 153 29 163Z" />
<glyph unicode="&#xae;" glyph-name="registered" horiz-adv-x="740" d="M484 725T550 690T652 592T688 451Q688 365 645 294T528 180T364 138Q287 138 218 173T107 272T64 419Q64 511 110 580T232 687T398 725Q484 725 550 690ZM510 164T565 234T621 418Q621
506 588 570T496 667T359 701Q280 701 228 668T151 579T126 456Q126 372 162 306T262 202T402 164Q510 164 565 234ZM563 281T563 278T561 274H463Q454 274 434 312T373 434Q349 432 336 432V330Q336 300 343 293T378 285Q380 285 380 280T378 274L305 275L234
274Q233 274 233 279T234 285Q249 285 255 288T263 300T265 330V545Q265 573 260 581T234 589Q233 589 233 595T234 601L305 600Q317 600 349 602Q377 604 387 604Q438 604 463 588T488 535Q488 506 473 485T432 451Q468 376 496 340T561 282Q563 281 563 278ZM382
444T398 458T415 515Q415 591 371 591Q356 591 349 589T339 576T336 543V447Q382 444 398 458Z" />
<glyph unicode="&#xaf;" glyph-name="overscore" horiz-adv-x="345" d="M43 474T40 479T37 493Q37 500 40 505T47 511H298Q303 511 306 506T309 493Q309 485 306 480T298 474H47Q43 474 40 479Z" />
<glyph unicode="&#xb0;" glyph-name="degree" horiz-adv-x="332" d="M106 373T68 410T29 503Q29 556 67 593T167 630Q228 630 265 593T303 501Q303 446 266 410T167 373Q106 373 68 410ZM207 387T217 413T227 494Q227 556 211 586T161 616Q129 616 118 588T106
506Q106 449 121 418T174 387Q207 387 217 413Z" />
<glyph unicode="&#xb1;" glyph-name="plusminus" horiz-adv-x="398" d="M32 228T31 236T29 254Q29 263 30 270T33 277H174V418Q174 422 199 422Q223 422 223 418V277H364Q366 277 367 270T369 253Q369 244 368 236T364 228H223V88Q223 86 215 85T197 83Q188 83
181 84T174 87V228H34Q32 228 31 236ZM366 44T367 38T369 23Q369 15 368 8T364 1H34Q32 1 31 8T29 24Q29 31 30 37T33 44H364Q366 44 367 38Z" />
<glyph unicode="&#xb2;" glyph-name="uni00B2" horiz-adv-x="253" d="M32 459T50 488T95 548Q119 575 129 594T140 644Q140 702 99 702Q77 702 61 688T37 651Q37 649 33 649Q30 649 28 650T26 654Q37 689 60 709T127 730Q171 730 193 710T215 656Q215 623 195
600T136 547Q105 524 88 507T63 468Q62 464 65 464Q127 464 157 467T200 478T213 504Q213 506 219 506T225 504L223 408Q223 404 219 404H23Q18 404 20 409Q32 459 50 488Z" />
<glyph unicode="&#xb3;" glyph-name="uni00B3" horiz-adv-x="251" d="M189 568T209 548T229 498Q229 474 216 451T178 412T116 396Q77 396 55 414T21 465Q20 469 26 470T33 468Q43 447 60 435T99 423Q122 423 137 440T153 494Q153 564 78 564Q73 564 73 569T78
575Q108 575 124 593T140 643Q140 672 129 685T98 698Q76 698 60 684T39 650Q37 648 34 648Q31 648 29 649T27 653Q37 688 61 708T127 729Q170 729 193 708T216 655Q216 629 199 607T157 575Q189 568 209 548Z" />
<glyph unicode="&#xb4;" glyph-name="acute" horiz-adv-x="212" d="M69 472T65 472Q62 472 60 473T58 476L91 716Q93 720 124 725T176 731Q190 731 189 727L69 474Q69 472 65 472Z" />
<glyph unicode="&#xb6;" glyph-name="paragraph" horiz-adv-x="657" d="M309 -193T285 -178T260 -133Q260 -113 272 -101T310 -88Q338 -88 346 -101T358 -141Q360 -158 363 -166T378 -174Q398 -174 405 -136T413 8V125Q394 122 368 122Q288 122 217 148T100 233T54
386Q54 505 130 566T342 628Q372 628 406 625Q481 622 490 622Q510 622 548 624L600 625Q603 625 603 619T600 613Q557 613 534 592T511 532L512 55Q512 -74 475 -133T353 -193Q309 -193 285 -178Z" />
<glyph unicode="&#xb7;" glyph-name="middot" horiz-adv-x="195" d="M69 141T53 157T36 202Q36 228 52 244T97 260Q125 260 140 245T156 202Q156 173 141 157T97 141Q69 141 53 157Z" />
<glyph unicode="&#xb8;" glyph-name="cedilla" horiz-adv-x="232" d="M116 -17T116 -32Q116 -51 125 -65T156 -92Q182 -108 196 -125T211 -170Q211 -212 181 -243T89 -275Q14 -275 14 -227Q14 -212 26 -200T54 -188Q73 -188 81 -196T94 -221Q99 -236 105 -243T129
-251Q151 -251 151 -227Q151 -201 133 -180T68 -133Q59 -130 59 -121Q59 -114 63 -105Q78 -69 95 -22Q95 -21 103 -1L120 -2Q116 -17 116 -32Z" />
<glyph unicode="&#xb9;" glyph-name="uni00B9" horiz-adv-x="262" d="M35 404T35 409T37 415Q68 415 80 419T97 437T101 484V602Q101 643 97 658T79 673Q68 673 33 658H32Q28 658 26 663T27 669L163 729H165Q168 729 170 727T173 722V484Q173 450 176 437T192
419T233 415Q235 415 235 410T233 404Q207 404 192 405L138 406L80 405Q64 404 37 404Q35 404 35 409Z" />
<glyph unicode="&#xba;" glyph-name="ordmasculine" horiz-adv-x="325" d="M101 359T66 399T30 498Q30 541 51 570T104 615T170 630Q208 630 236 611T280 561T296 495Q296 458 277 427T227 377T158 359Q101 359 66 399ZM196 374T209 401T223 477Q223 535 203 574T151
614Q128 614 116 589T103 517Q103 459 123 417T173 374Q196 374 209 401ZM40 283T39 289T37 302Q37 308 38 313T41 318H284Q286 318 287 313T289 301Q289 294 288 289T284 283H42Q40 283 39 289Z" />
<glyph unicode="&#xbb;" glyph-name="guillemotright" horiz-adv-x="475" d="M251 212Q256 207 256 201Q256 194 251 189L63 40Q63 39 61 39Q59 39 57 41T56 46L149 200L56 356Q55 358 58 361T63 361L251 212ZM422 212Q427 207 427 201Q427 194 422 189L234 40Q234
39 232 39Q230 39 228 41T227 46L319 200L227 356Q226 358 229 361T234 361L422 212Z" />
<glyph unicode="&#xbc;" glyph-name="onequarter" horiz-adv-x="607" d="M35 309T35 314T37 320Q68 320 80 324T97 342T101 389V508Q101 549 97 564T79 579Q72 579 60 575T33 564H31Q28 564 26 568T27 574L163 634H165Q168 634 170 632T173 627V389Q173 355 176
342T192 324T233 320Q235 320 235 315T233 309Q207 309 192 310L138 311L80 310Q64 309 37 309Q35 309 35 314ZM188 -4T172 4T157 14L436 630Q438 634 454 627T469 616L189 -1Q188 -4 172 4ZM547 90V41Q547 27 549 22T559 14T586 11Q587 9 587 5T586 -1L516 0L428
-1Q427 -1 427 5T428 11Q451 11 461 13T474 21T478 41V92Q408 94 352 94Q348 94 346 98T347 105L513 320Q516 324 529 324Q536 324 541 323T547 319V113L586 115Q589 115 589 102Q589 88 586 88L547 90ZM478 110V239L382 112Q379 109 384 109L478 110Z" />
<glyph unicode="&#xbd;" glyph-name="onehalf" horiz-adv-x="612" d="M35 309T35 314T37 320Q68 320 80 324T97 342T101 389V508Q101 549 97 564T79 579Q72 579 60 575T33 564H31Q28 564 26 568T27 574L163 634H165Q168 634 170 632T173 627V389Q173 355 176 342T192
324T233 320Q235 320 235 315T233 309Q207 309 192 310L138 311L80 310Q64 309 37 309Q35 309 35 314ZM188 -4T172 4T157 14L436 630Q438 634 454 627T469 616L189 -1Q188 -4 172 4ZM391 55T408 84T454 145Q477 170 488 190T499 241Q499 298 458 298Q436 298 420
284T396 248Q396 245 392 245Q389 245 387 246T385 250Q396 285 419 305T486 326Q530 326 552 306T574 253Q574 220 554 197T495 144Q463 119 446 103T422 64Q421 61 424 61Q486 61 516 64T559 75T572 101Q572 103 578 103T584 101L582 5Q582 0 578 0H382Q378 0
379 6Q391 55 408 84Z" />
<glyph unicode="&#xbe;" glyph-name="threequarters" horiz-adv-x="596" d="M188 473T208 453T229 404Q229 380 217 357T178 318T116 302Q77 302 55 320T21 371Q20 374 26 375T33 373Q43 352 60 341T99 329Q122 329 137 345T153 399Q153 469 78 469Q76 469 75
470T73 474Q73 476 74 478T78 481Q108 481 124 499T140 549Q140 577 129 590T98 604Q77 604 60 589T39 556Q38 553 34 553Q31 553 29 554T27 558Q37 593 61 613T127 634Q170 634 193 613T216 560Q216 533 199 512T156 480Q188 473 208 453ZM177 -4T161 4T146 14L425
630Q427 634 443 627T458 616L178 -1Q177 -4 161 4ZM536 90V41Q536 27 538 22T548 14T575 11Q576 9 576 5T575 -1L505 0L417 -1Q416 -1 416 5T417 11Q440 11 450 13T463 21T467 41V92Q397 94 341 94Q337 94 335 98T336 105L502 320Q505 324 518 324Q525 324 530
323T536 319V113L575 115Q578 115 578 102Q578 88 575 88L536 90ZM467 110V239L371 112Q368 109 373 109L467 110Z" />
<glyph unicode="&#xbf;" glyph-name="questiondown" horiz-adv-x="327" d="M202 361T218 345T235 300Q235 274 219 258T174 242Q146 242 131 257T115 300Q115 329 130 345T174 361Q202 361 218 345ZM176 -256T182 -245T190 -215Q192 -187 203 -167T247 -146Q273
-146 285 -160T297 -193Q297 -228 259 -251T162 -275Q97 -275 53 -244T8 -156Q8 -118 27 -94T83 -39L105 -21Q136 6 150 35T164 102Q164 117 159 155Q158 158 166 160T175 159Q187 132 194 97T201 38Q201 8 192 -11T163 -55Q142 -81 131 -105T119 -169Q119 -207
130 -231T162 -256Q176 -256 182 -245Z" />
<glyph unicode="&#xc0;" glyph-name="Agrave" horiz-adv-x="716" d="M722 12T722 6T717 0Q697 0 655 2Q611 4 592 4Q567 4 531 2Q497 0 477 0Q473 0 473 6T477 12Q503 12 514 17T526 37Q526 54 506 94L402 299H224L153 142Q140 113 140 88Q140 52 165 32T234 12Q239
12 239 6T234 0Q216 0 182 2Q144 4 116 4Q89 4 51 2Q17 0 -4 0Q-8 0 -8 6T-4 12Q24 12 43 23T81 64T126 152L343 629Q345 632 352 632Q360 632 361 629L611 137Q646 66 669 39T717 12Q722 12 722 6ZM237 327H388L308 485L237 327ZM342 729T232 756Q220 758 243
769T297 789T333 793L380 753Q424 715 458 689Q461 688 461 685Q461 682 459 680T454 679Q342 729 232 756Z" />
<glyph unicode="&#xc1;" glyph-name="Aacute" horiz-adv-x="716" d="M722 12T722 6T717 0Q697 0 655 2Q611 4 592 4Q567 4 531 2Q497 0 477 0Q473 0 473 6T477 12Q503 12 514 17T526 37Q526 54 506 94L402 299H224L153 142Q140 113 140 88Q140 52 165 32T234 12Q239
12 239 6T234 0Q216 0 182 2Q144 4 116 4Q89 4 51 2Q17 0 -4 0Q-8 0 -8 6T-4 12Q24 12 43 23T81 64T126 152L343 629Q345 632 352 632Q360 632 361 629L611 137Q646 66 669 39T717 12Q722 12 722 6ZM237 327H388L308 485L237 327ZM255 678Q251 678 250 682T252
689Q281 710 333 755Q363 781 378 793Q383 798 413 790T467 770T479 756Q417 741 366 723T257 679L255 678Z" />
<glyph unicode="&#xc2;" glyph-name="Acircumflex" horiz-adv-x="716" d="M722 12T722 6T717 0Q697 0 655 2Q611 4 592 4Q567 4 531 2Q497 0 477 0Q473 0 473 6T477 12Q503 12 514 17T526 37Q526 54 506 94L402 299H224L153 142Q140 113 140 88Q140 52 165 32T234
12Q239 12 239 6T234 0Q216 0 182 2Q144 4 116 4Q89 4 51 2Q17 0 -4 0Q-8 0 -8 6T-4 12Q24 12 43 23T81 64T126 152L343 629Q345 632 352 632Q360 632 361 629L611 137Q646 66 669 39T717 12Q722 12 722 6ZM237 327H388L308 485L237 327ZM342 771Q347 776 353 776Q360
776 365 771L467 655Q468 655 468 653Q468 651 466 649T462 648L354 687L245 648Q243 647 240 650T239 655L342 771Z" />
<glyph unicode="&#xc3;" glyph-name="Atilde" horiz-adv-x="716" d="M722 12T722 6T717 0Q697 0 655 2Q611 4 592 4Q567 4 531 2Q497 0 477 0Q473 0 473 6T477 12Q503 12 514 17T526 37Q526 54 506 94L402 299H224L153 142Q140 113 140 88Q140 52 165 32T234 12Q239
12 239 6T234 0Q216 0 182 2Q144 4 116 4Q89 4 51 2Q17 0 -4 0Q-8 0 -8 6T-4 12Q24 12 43 23T81 64T126 152L343 629Q345 632 352 632Q360 632 361 629L611 137Q646 66 669 39T717 12Q722 12 722 6ZM237 327H388L308 485L237 327ZM452 761T462 767T486 788H487Q490
788 492 786T493 781Q467 733 450 717T410 700Q391 700 354 711Q350 712 328 718T285 724Q266 724 258 719T234 697H233Q230 697 228 699T226 704Q245 738 266 761T314 785Q324 785 360 775Q366 774 390 768T435 761Q452 761 462 767Z" />
<glyph unicode="&#xc4;" glyph-name="Adieresis" horiz-adv-x="716" d="M722 12T722 6T717 0Q697 0 655 2Q611 4 592 4Q567 4 531 2Q497 0 477 0Q473 0 473 6T477 12Q503 12 514 17T526 37Q526 54 506 94L402 299H224L153 142Q140 113 140 88Q140 52 165 32T234
12Q239 12 239 6T234 0Q216 0 182 2Q144 4 116 4Q89 4 51 2Q17 0 -4 0Q-8 0 -8 6T-4 12Q24 12 43 23T81 64T126 152L343 629Q345 632 352 632Q360 632 361 629L611 137Q646 66 669 39T717 12Q722 12 722 6ZM237 327H388L308 485L237 327ZM242 703T228 717T213 758Q213
782 228 796T268 810Q293 810 306 796T320 758Q320 732 307 718T268 703Q242 703 228 717ZM416 703T402 717T388 758Q388 782 402 795T442 809Q467 809 480 796T494 758Q494 732 481 718T442 703Q416 703 402 717Z" />
<glyph unicode="&#xc5;" glyph-name="Aring" horiz-adv-x="716" d="M722 12T722 6T717 0Q697 0 655 2Q611 4 592 4Q567 4 531 2Q497 0 477 0Q473 0 473 6T477 12Q503 12 514 17T526 37Q526 54 506 94L402 299H224L153 142Q140 113 140 88Q140 52 165 32T234 12Q239
12 239 6T234 0Q216 0 182 2Q144 4 116 4Q89 4 51 2Q17 0 -4 0Q-8 0 -8 6T-4 12Q24 12 43 23T81 64T126 152L343 629Q345 632 352 632Q360 632 361 629L611 137Q646 66 669 39T717 12Q722 12 722 6ZM237 327H388L308 485L237 327ZM297 660T268 683T239 739Q239
775 274 795T355 816Q399 816 430 793T461 737Q461 702 426 681T346 660Q297 660 268 683ZM388 674T388 719Q388 753 373 777T335 802Q312 802 312 759Q312 726 325 700T361 674Q388 674 388 719Z" />
<glyph unicode="&#xc6;" glyph-name="AE" horiz-adv-x="888" d="M832 161T835 161Q838 161 840 160T843 157Q834 69 834 15Q834 7 831 4T819 0H382Q380 0 380 6T382 12Q414 12 428 17T448 36T454 81V311H304L194 138Q168 98 168 66Q168 40 187 26T242 12Q247 12
247 6T242 0Q221 0 181 2Q135 4 101 4Q76 4 42 2Q12 0 -7 0Q-12 0 -12 6T-7 12Q35 12 69 39T147 132L435 574Q448 592 448 599Q448 608 432 610T371 613Q368 613 368 619T371 625H801Q811 625 811 616L813 483Q813 481 808 480T801 482Q795 505 774 532T723 577T658
596H616Q587 596 573 583T559 543V339H642Q700 339 730 359T761 415Q761 418 767 418T773 415L772 325Q772 293 773 277L774 223Q774 221 769 221T763 223Q763 264 732 287T641 311H559V85Q559 56 570 42T605 28H649Q686 28 724 46T792 94T832 159Q832 161 835
161ZM322 339H454V547L322 339Z" />
<glyph unicode="&#xc7;" glyph-name="Ccedilla" horiz-adv-x="669" d="M615 185T620 184T626 180L611 44Q609 32 607 29T595 21Q506 -12 412 -12H395Q393 -26 393 -33Q393 -52 402 -66T433 -92Q459 -108 473 -125T488 -170Q488 -212 458 -243T366 -275Q291 -275
291 -227Q291 -212 303 -200T331 -188Q350 -188 358 -196T371 -221Q376 -236 382 -243T406 -251Q428 -251 428 -227Q428 -201 410 -180T345 -133Q336 -130 336 -121Q336 -114 340 -105Q358 -61 376 -11Q266 -3 193 46T84 167T49 315Q49 410 100 483T237 596T421
636Q465 636 513 629T588 609Q597 606 599 602T604 586L616 447Q616 444 611 443T605 446Q571 525 514 568T382 611Q283 611 229 538T175 342Q175 250 204 174T287 54T409 9Q473 9 523 51T614 181Q615 185 620 184Z" />
<glyph unicode="&#xc8;" glyph-name="Egrave" horiz-adv-x="552" d="M496 161T500 161Q503 161 505 160T508 157Q498 79 498 15Q498 7 495 4T483 0H41Q38 0 38 6T41 12Q73 12 87 17T107 36T112 81V544Q112 574 107 588T87 607T41 613Q38 613 38 619T41 625H465Q475
625 475 616L477 483Q477 481 472 480T465 482Q449 540 411 568T311 596H281Q251 596 237 583T223 543V339H306Q364 339 395 359T426 415Q426 418 431 418T437 415L436 325L437 277Q439 243 439 223Q439 221 433 221T427 223Q427 264 396 287T305 311H223V85Q223
56 234 42T269 28H302Q380 28 427 60T496 159Q496 161 500 161ZM286 729T176 756Q164 758 187 769T241 789T277 793L324 753Q368 715 402 689Q405 688 405 685Q405 682 403 680T398 679Q286 729 176 756Z" />
<glyph unicode="&#xc9;" glyph-name="Eacute" horiz-adv-x="552" d="M496 161T500 161Q503 161 505 160T508 157Q498 79 498 15Q498 7 495 4T483 0H41Q38 0 38 6T41 12Q73 12 87 17T107 36T112 81V544Q112 574 107 588T87 607T41 613Q38 613 38 619T41 625H465Q475
625 475 616L477 483Q477 481 472 480T465 482Q449 540 411 568T311 596H281Q251 596 237 583T223 543V339H306Q364 339 395 359T426 415Q426 418 431 418T437 415L436 325L437 277Q439 243 439 223Q439 221 433 221T427 223Q427 264 396 287T305 311H223V85Q223
56 234 42T269 28H302Q380 28 427 60T496 159Q496 161 500 161ZM199 678Q195 678 194 682T196 689Q225 710 277 755Q307 781 322 793Q327 798 357 790T411 770T423 756Q361 741 310 723T201 679L199 678Z" />
<glyph unicode="&#xca;" glyph-name="Ecircumflex" horiz-adv-x="552" d="M496 161T500 161Q503 161 505 160T508 157Q498 79 498 15Q498 7 495 4T483 0H41Q38 0 38 6T41 12Q73 12 87 17T107 36T112 81V544Q112 574 107 588T87 607T41 613Q38 613 38 619T41 625H465Q475
625 475 616L477 483Q477 481 472 480T465 482Q449 540 411 568T311 596H281Q251 596 237 583T223 543V339H306Q364 339 395 359T426 415Q426 418 431 418T437 415L436 325L437 277Q439 243 439 223Q439 221 433 221T427 223Q427 264 396 287T305 311H223V85Q223
56 234 42T269 28H302Q380 28 427 60T496 159Q496 161 500 161ZM287 818Q292 823 299 823Q305 823 310 818L412 702Q413 702 413 700Q413 698 411 696T407 695L299 734L190 695Q188 694 185 697T184 702L287 818Z" />
<glyph unicode="&#xcb;" glyph-name="Edieresis" horiz-adv-x="552" d="M496 161T500 161Q503 161 505 160T508 157Q498 79 498 15Q498 7 495 4T483 0H41Q38 0 38 6T41 12Q73 12 87 17T107 36T112 81V544Q112 574 107 588T87 607T41 613Q38 613 38 619T41 625H465Q475
625 475 616L477 483Q477 481 472 480T465 482Q449 540 411 568T311 596H281Q251 596 237 583T223 543V339H306Q364 339 395 359T426 415Q426 418 431 418T437 415L436 325L437 277Q439 243 439 223Q439 221 433 221T427 223Q427 264 396 287T305 311H223V85Q223
56 234 42T269 28H302Q380 28 427 60T496 159Q496 161 500 161ZM186 703T172 717T157 758Q157 782 172 796T212 810Q237 810 250 796T264 758Q264 732 251 718T212 703Q186 703 172 717ZM360 703T346 717T332 758Q332 782 346 795T386 809Q411 809 424 796T438
758Q438 732 425 718T386 703Q360 703 346 717Z" />
<glyph unicode="&#xcc;" glyph-name="Igrave" horiz-adv-x="342" d="M227 50T232 36T251 17T298 12Q301 12 301 6T298 0Q265 0 246 1L170 2L96 1Q76 0 42 0Q40 0 40 6T42 12Q74 12 89 17T109 36T115 81V544Q115 574 110 588T89 607T42 613Q40 613 40 619T42 625L96
624Q142 622 170 622Q201 622 247 624L298 625Q301 625 301 619T298 613Q267 613 252 607T232 587T227 542V81Q227 50 232 36ZM159 729T49 756Q37 758 60 769T114 789T150 793L197 753Q241 715 275 689Q278 688 278 685Q278 682 276 680T271 679Q159 729 49 756Z"
/>
<glyph unicode="&#xcd;" glyph-name="Iacute" horiz-adv-x="342" d="M227 50T232 36T251 17T298 12Q301 12 301 6T298 0Q265 0 246 1L170 2L96 1Q76 0 42 0Q40 0 40 6T42 12Q74 12 89 17T109 36T115 81V544Q115 574 110 588T89 607T42 613Q40 613 40 619T42 625L96
624Q142 622 170 622Q201 622 247 624L298 625Q301 625 301 619T298 613Q267 613 252 607T232 587T227 542V81Q227 50 232 36ZM72 678Q68 678 67 682T69 689Q98 710 150 755Q180 781 195 793Q200 798 230 790T284 770T296 756Q234 741 183 723T74 679L72 678Z"
/>
<glyph unicode="&#xce;" glyph-name="Icircumflex" horiz-adv-x="342" d="M227 50T232 36T251 17T298 12Q301 12 301 6T298 0Q265 0 246 1L170 2L96 1Q76 0 42 0Q40 0 40 6T42 12Q74 12 89 17T109 36T115 81V544Q115 574 110 588T89 607T42 613Q40 613 40 619T42
625L96 624Q142 622 170 622Q201 622 247 624L298 625Q301 625 301 619T298 613Q267 613 252 607T232 587T227 542V81Q227 50 232 36ZM160 818Q165 823 172 823Q178 823 183 818L285 702Q286 702 286 700Q286 698 284 696T280 695L172 734L63 695Q61 694 58 697T57
702L160 818Z" />
<glyph unicode="&#xcf;" glyph-name="Idieresis" horiz-adv-x="342" d="M227 50T232 36T251 17T298 12Q301 12 301 6T298 0Q265 0 246 1L170 2L96 1Q76 0 42 0Q40 0 40 6T42 12Q74 12 89 17T109 36T115 81V544Q115 574 110 588T89 607T42 613Q40 613 40 619T42
625L96 624Q142 622 170 622Q201 622 247 624L298 625Q301 625 301 619T298 613Q267 613 252 607T232 587T227 542V81Q227 50 232 36ZM69 703T55 717T40 758Q40 782 55 796T95 810Q120 810 134 796T148 758Q148 732 134 718T95 703Q69 703 55 717ZM222 703T208
717T194 758Q194 782 208 795T247 809Q272 809 285 796T299 758Q299 732 286 718T247 703Q222 703 208 717Z" />
<glyph unicode="&#xd0;" glyph-name="Eth" horiz-adv-x="705" d="M413 627T491 587T613 478T656 323Q656 226 612 152T492 37T326 -4Q294 -4 250 -1Q234 0 211 1T158 2L84 1Q64 0 30 0Q28 0 28 6T30 12Q62 12 77 17T97 36T103 81V297H53Q49 297 49 311Q49 325
53 325H103V544Q103 574 98 588T78 607T32 613Q29 613 29 619T32 625L85 624Q131 622 158 622Q199 622 242 625Q294 627 312 627Q413 627 491 587ZM380 19T429 51T505 148T533 301Q533 386 507 455T433 565T322 605Q260 605 237 593T214 542V325H350Q352 325 353
321T355 311Q355 306 354 302T350 297H214V92Q214 52 235 36T316 19Q380 19 429 51Z" />
<glyph unicode="&#xd1;" glyph-name="Ntilde" horiz-adv-x="735" d="M725 625T725 619T723 613Q683 613 660 582T637 497V-15Q637 -18 633 -19T626 -18L157 516V127Q157 74 179 43T240 12Q242 12 242 6T240 0Q212 0 197 1L143 2L81 1Q64 0 32 0Q29 0 29 6T32 12Q76
12 101 43T127 127V550Q94 586 71 599T22 613Q20 613 20 619T22 625L64 624Q77 623 102 623L178 624Q192 625 212 625Q220 625 224 621T238 604Q255 581 262 573L608 174V497Q608 551 586 582T525 613Q523 613 523 619T525 625L568 624Q600 622 622 622Q642 622
678 624L723 625Q725 625 725 619ZM480 761T490 767T514 788H515Q518 788 520 786T521 781Q495 733 478 717T438 700Q419 700 382 711Q378 712 356 718T313 724Q294 724 286 719T262 697H261Q258 697 256 699T254 704Q273 738 294 761T342 785Q352 785 388 775Q394
774 418 768T463 761Q480 761 490 767Z" />
<glyph unicode="&#xd2;" glyph-name="Ograve" horiz-adv-x="766" d="M273 -12T201 31T89 149T49 312Q49 415 101 488T234 599T401 636Q496 636 568 592T678 474T717 319Q717 228 669 152T541 32T366 -12Q273 -12 201 31ZM455 13T499 45T569 140T594 290Q594 382
566 454T485 568T361 609Q270 609 221 541T172 349Q172 252 201 176T282 56T399 13Q455 13 499 45ZM376 729T266 756Q254 758 277 769T331 789T367 793L414 753Q458 715 492 689Q495 688 495 685Q495 682 493 680T488 679Q376 729 266 756Z" />
<glyph unicode="&#xd3;" glyph-name="Oacute" horiz-adv-x="766" d="M273 -12T201 31T89 149T49 312Q49 415 101 488T234 599T401 636Q496 636 568 592T678 474T717 319Q717 228 669 152T541 32T366 -12Q273 -12 201 31ZM455 13T499 45T569 140T594 290Q594 382
566 454T485 568T361 609Q270 609 221 541T172 349Q172 252 201 176T282 56T399 13Q455 13 499 45ZM289 678Q285 678 284 682T286 689Q315 710 367 755Q397 781 412 793Q417 798 447 790T501 770T513 756Q451 741 400 723T291 679L289 678Z" />
<glyph unicode="&#xd4;" glyph-name="Ocircumflex" horiz-adv-x="766" d="M273 -12T201 31T89 149T49 312Q49 415 101 488T234 599T401 636Q496 636 568 592T678 474T717 319Q717 228 669 152T541 32T366 -12Q273 -12 201 31ZM455 13T499 45T569 140T594 290Q594
382 566 454T485 568T361 609Q270 609 221 541T172 349Q172 252 201 176T282 56T399 13Q455 13 499 45ZM377 818Q382 823 389 823Q395 823 400 818L502 702Q503 702 503 700Q503 698 501 696T497 695L389 734L280 695Q278 694 275 697T274 702L377 818Z" />
<glyph unicode="&#xd5;" glyph-name="Otilde" horiz-adv-x="766" d="M273 -12T201 31T89 149T49 312Q49 415 101 488T234 599T401 636Q496 636 568 592T678 474T717 319Q717 228 669 152T541 32T366 -12Q273 -12 201 31ZM455 13T499 45T569 140T594 290Q594 382
566 454T485 568T361 609Q270 609 221 541T172 349Q172 252 201 176T282 56T399 13Q455 13 499 45ZM486 761T496 767T520 788H521Q524 788 526 786T527 781Q501 733 484 717T444 700Q425 700 388 711Q384 712 362 718T319 724Q300 724 292 719T268 697H267Q264
697 262 699T260 704Q279 738 300 761T348 785Q358 785 394 775Q400 774 424 768T469 761Q486 761 496 767Z" />
<glyph unicode="&#xd6;" glyph-name="Odieresis" horiz-adv-x="766" d="M273 -12T201 31T89 149T49 312Q49 415 101 488T234 599T401 636Q496 636 568 592T678 474T717 319Q717 228 669 152T541 32T366 -12Q273 -12 201 31ZM455 13T499 45T569 140T594 290Q594
382 566 454T485 568T361 609Q270 609 221 541T172 349Q172 252 201 176T282 56T399 13Q455 13 499 45ZM276 703T262 717T247 758Q247 782 262 796T302 810Q327 810 340 796T354 758Q354 732 341 718T302 703Q276 703 262 717ZM450 703T436 717T422 758Q422 782
436 795T476 809Q501 809 514 796T528 758Q528 732 515 718T476 703Q450 703 436 717Z" />
<glyph unicode="&#xd7;" glyph-name="multiply" horiz-adv-x="399" d="M337 88T320 70T299 56L200 155L101 55Q97 52 80 69T64 89L165 190L65 289Q63 293 80 310T99 325L200 225L298 323Q302 326 319 309T333 289L234 190L333 91Q337 88 320 70Z" />
<glyph unicode="&#xd8;" glyph-name="Oslash" horiz-adv-x="789" d="M673 496T695 438T717 319Q717 228 669 152T541 32T366 -12Q247 -12 159 61L90 -9L89 -10Q84 -10 76 -2T71 11L139 80Q96 125 73 185T49 312Q49 415 101 488T234 599T401 636Q464 636 517 616T611
559L684 633H685Q690 633 698 625T704 614L631 540Q673 496 695 438ZM172 237T211 153L547 494Q516 549 469 579T361 609Q270 609 221 541T172 349Q172 237 211 153ZM455 13T499 45T569 140T594 290Q594 391 560 468L224 127Q255 73 300 43T399 13Q455 13 499 45Z"
/>
<glyph unicode="&#xd9;" glyph-name="Ugrave" horiz-adv-x="703" d="M571 551T547 582T478 613Q476 613 476 619T478 625L526 624Q564 622 587 622Q606 622 642 624L688 625Q690 625 690 619T688 613Q649 613 627 582T605 497V219Q605 149 574 96T487 15T356 -14Q282
-14 225 14T136 95T103 221V544Q103 574 98 588T78 607T32 613Q29 613 29 619T32 625L85 624Q131 622 158 622Q188 622 234 624L285 625Q288 625 288 619T285 613Q254 613 240 607T220 587T214 542V256Q214 137 261 80T394 23Q477 23 524 73T571 218V497Q571 551
547 582ZM361 729T251 756Q239 758 262 769T316 789T352 793L399 753Q443 715 477 689Q480 688 480 685Q480 682 478 680T473 679Q361 729 251 756Z" />
<glyph unicode="&#xda;" glyph-name="Uacute" horiz-adv-x="703" d="M571 551T547 582T478 613Q476 613 476 619T478 625L526 624Q564 622 587 622Q606 622 642 624L688 625Q690 625 690 619T688 613Q649 613 627 582T605 497V219Q605 149 574 96T487 15T356 -14Q282
-14 225 14T136 95T103 221V544Q103 574 98 588T78 607T32 613Q29 613 29 619T32 625L85 624Q131 622 158 622Q188 622 234 624L285 625Q288 625 288 619T285 613Q254 613 240 607T220 587T214 542V256Q214 137 261 80T394 23Q477 23 524 73T571 218V497Q571 551
547 582ZM274 678Q270 678 269 682T271 689Q300 710 352 755Q382 781 397 793Q402 798 432 790T486 770T498 756Q436 741 385 723T276 679L274 678Z" />
<glyph unicode="&#xdb;" glyph-name="Ucircumflex" horiz-adv-x="703" d="M571 551T547 582T478 613Q476 613 476 619T478 625L526 624Q564 622 587 622Q606 622 642 624L688 625Q690 625 690 619T688 613Q649 613 627 582T605 497V219Q605 149 574 96T487 15T356
-14Q282 -14 225 14T136 95T103 221V544Q103 574 98 588T78 607T32 613Q29 613 29 619T32 625L85 624Q131 622 158 622Q188 622 234 624L285 625Q288 625 288 619T285 613Q254 613 240 607T220 587T214 542V256Q214 137 261 80T394 23Q477 23 524 73T571 218V497Q571
551 547 582ZM362 818Q367 823 374 823Q380 823 385 818L487 702Q488 702 488 700Q488 698 486 696T482 695L374 734L265 695Q263 694 260 697T259 702L362 818Z" />
<glyph unicode="&#xdc;" glyph-name="Udieresis" horiz-adv-x="703" d="M571 551T547 582T478 613Q476 613 476 619T478 625L526 624Q564 622 587 622Q606 622 642 624L688 625Q690 625 690 619T688 613Q649 613 627 582T605 497V219Q605 149 574 96T487 15T356
-14Q282 -14 225 14T136 95T103 221V544Q103 574 98 588T78 607T32 613Q29 613 29 619T32 625L85 624Q131 622 158 622Q188 622 234 624L285 625Q288 625 288 619T285 613Q254 613 240 607T220 587T214 542V256Q214 137 261 80T394 23Q477 23 524 73T571 218V497Q571
551 547 582ZM261 703T247 717T232 758Q232 782 247 796T287 810Q312 810 325 796T339 758Q339 732 326 718T287 703Q261 703 247 717ZM435 703T421 717T407 758Q407 782 421 795T461 809Q486 809 499 796T513 758Q513 732 500 718T461 703Q435 703 421 717Z" />
<glyph unicode="&#xdd;" glyph-name="Yacute" horiz-adv-x="619" d="M627 625T627 619T625 613Q594 613 549 575T469 478L365 304V81Q365 50 370 36T389 17T436 12Q439 12 439 6T436 0Q403 0 384 1L309 2L235 1Q215 0 181 0Q179 0 179 6T181 12Q213 12 228 17T248
36T254 81V283L108 510Q71 568 47 590T5 613Q2 613 2 619T5 625L36 624Q58 622 67 622Q102 622 168 624L234 625Q236 625 236 619T234 613Q217 613 208 605T198 584Q198 568 212 546L349 330L441 487Q468 532 468 564Q468 588 454 600T412 613Q409 613 409 619T412
625L465 624Q511 622 547 622Q564 622 588 624L625 625Q627 625 627 619ZM225 678Q221 678 220 682T222 689Q251 710 303 755Q333 781 348 793Q353 798 383 790T437 770T449 756Q387 741 336 723T227 679L225 678Z" />
<glyph unicode="&#xde;" glyph-name="Thorn" horiz-adv-x="549" d="M339 147T367 190T396 316Q396 395 364 436T276 477Q247 477 212 472V85Q212 53 219 39T245 18T308 12Q310 12 310 6T308 0Q266 0 243 1L157 2L90 1Q72 0 41 0Q38 0 38 6T41 12Q67 12 79 17T96
36T101 81V544Q101 574 97 588T80 607T41 613Q38 613 38 619T41 625L90 624Q132 622 157 622Q189 622 243 624L308 625Q310 625 310 619T308 613Q265 613 246 607T219 586T212 539V494Q253 499 301 499Q399 499 458 459T517 331Q517 266 486 221T406 155T308 133Q285
133 258 138Q256 138 256 143Q256 146 257 149T261 151Q285 147 297 147Q339 147 367 190Z" />
<glyph unicode="&#xdf;" glyph-name="germandbls" horiz-adv-x="570" d="M324 -11T276 16Q270 22 270 28L268 139Q268 142 273 142T280 140Q304 88 342 50T406 11Q428 11 439 28T450 72Q450 100 438 124T410 164T359 215Q327 246 311 264T282 305T269 356Q269
381 278 401T308 454Q332 492 344 520T356 587Q356 636 335 672T273 708Q220 708 196 641T172 446V81Q172 50 176 36T191 17T227 12Q229 12 229 6T227 0L125 1L18 0Q15 0 15 6T18 12Q44 12 56 17T72 37T77 81L76 448Q76 582 136 654T316 726Q385 726 424 702T463
630Q463 595 444 571T387 517Q356 492 341 474T326 433Q326 403 349 374T422 299Q479 246 508 209T537 130Q537 96 517 63T460 10T380 -11Q324 -11 276 16Z" />
<glyph unicode="&#xe0;" glyph-name="agrave" horiz-adv-x="421" d="M419 54Q423 54 424 50T422 43L319 -6Q315 -8 309 -8Q294 -8 280 7T259 48L213 23Q187 10 159 2T109 -7Q77 -7 59 9T40 57Q40 80 51 94T84 117T153 143L255 176V255Q255 315 243 343T204 372Q180
372 166 354T149 295Q143 239 90 239Q43 239 43 280Q43 307 77 334T159 378T243 395Q290 395 319 367T349 285V108Q349 79 359 63T389 47Q403 47 418 54H419ZM256 64Q255 71 255 85V159L200 139Q173 129 162 117T150 88Q150 67 162 55T192 43Q214 43 243 57L256
64ZM98 731T113 731Q135 731 166 726T198 716L230 476Q230 474 226 473T220 474L99 727Q98 731 113 731Z" />
<glyph unicode="&#xe1;" glyph-name="aacute" horiz-adv-x="421" d="M419 54Q423 54 424 50T422 43L319 -6Q315 -8 309 -8Q294 -8 280 7T259 48L213 23Q187 10 159 2T109 -7Q77 -7 59 9T40 57Q40 80 51 94T84 117T153 143L255 176V255Q255 315 243 343T204 372Q180
372 166 354T149 295Q143 239 90 239Q43 239 43 280Q43 307 77 334T159 378T243 395Q290 395 319 367T349 285V108Q349 79 359 63T389 47Q403 47 418 54H419ZM256 64Q255 71 255 85V159L200 139Q173 129 162 117T150 88Q150 67 162 55T192 43Q214 43 243 57L256
64ZM212 472T208 472Q205 472 203 473T201 476L234 716Q236 720 267 725T319 731Q333 731 332 727L212 474Q212 472 208 472Z" />
<glyph unicode="&#xe2;" glyph-name="acircumflex" horiz-adv-x="421" d="M419 54Q423 54 424 50T422 43L319 -6Q315 -8 309 -8Q294 -8 280 7T259 48L213 23Q187 10 159 2T109 -7Q77 -7 59 9T40 57Q40 80 51 94T84 117T153 143L255 176V255Q255 315 243 343T204
372Q180 372 166 354T149 295Q143 239 90 239Q43 239 43 280Q43 307 77 334T159 378T243 395Q290 395 319 367T349 285V108Q349 79 359 63T389 47Q403 47 418 54H419ZM256 64Q255 71 255 85V159L200 139Q173 129 162 117T150 88Q150 67 162 55T192 43Q214 43 243
57L256 64ZM293 475Q293 473 289 472T283 474L215 582L146 474Q145 471 140 472T135 476L203 725Q203 730 214 730Q223 730 226 725L293 476V475Z" />
<glyph unicode="&#xe3;" glyph-name="atilde" horiz-adv-x="421" d="M419 54Q423 54 424 50T422 43L319 -6Q315 -8 309 -8Q294 -8 280 7T259 48L213 23Q187 10 159 2T109 -7Q77 -7 59 9T40 57Q40 80 51 94T84 117T153 143L255 176V255Q255 315 243 343T204 372Q180
372 166 354T149 295Q143 239 90 239Q43 239 43 280Q43 307 77 334T159 378T243 395Q290 395 319 367T349 285V108Q349 79 359 63T389 47Q403 47 418 54H419ZM256 64Q255 71 255 85V159L200 139Q173 129 162 117T150 88Q150 67 162 55T192 43Q214 43 243 57L256
64ZM306 533T316 539T340 560L342 561Q344 561 346 558T347 553Q320 505 304 489T264 473Q245 473 208 484Q191 489 173 493T139 497Q120 497 112 492T88 470H87Q84 470 82 472T81 477Q126 558 168 558Q179 558 215 548Q233 542 253 538T289 533Q306 533 316 539Z"
/>
<glyph unicode="&#xe4;" glyph-name="adieresis" horiz-adv-x="421" d="M419 54Q423 54 424 50T422 43L319 -6Q315 -8 309 -8Q294 -8 280 7T259 48L213 23Q187 10 159 2T109 -7Q77 -7 59 9T40 57Q40 80 51 94T84 117T153 143L255 176V255Q255 315 243 343T204
372Q180 372 166 354T149 295Q143 239 90 239Q43 239 43 280Q43 307 77 334T159 378T243 395Q290 395 319 367T349 285V108Q349 79 359 63T389 47Q403 47 418 54H419ZM256 64Q255 71 255 85V159L200 139Q173 129 162 117T150 88Q150 67 162 55T192 43Q214 43 243
57L256 64ZM102 464T88 478T73 519Q73 543 88 557T128 571Q153 571 166 557T180 519Q180 493 167 479T128 464Q102 464 88 478ZM276 464T262 478T248 519Q248 543 262 556T302 570Q327 570 340 557T354 519Q354 493 341 479T302 464Q276 464 262 478Z" />
<glyph unicode="&#xe5;" glyph-name="aring" horiz-adv-x="421" d="M419 54Q423 54 424 50T422 43L319 -6Q315 -8 309 -8Q294 -8 280 7T259 48L213 23Q187 10 159 2T109 -7Q77 -7 59 9T40 57Q40 80 51 94T84 117T153 143L255 176V255Q255 315 243 343T204 372Q180
372 166 354T149 295Q143 239 90 239Q43 239 43 280Q43 307 77 334T159 378T243 395Q290 395 319 367T349 285V108Q349 79 359 63T389 47Q403 47 418 54H419ZM256 64Q255 71 255 85V159L200 139Q173 129 162 117T150 88Q150 67 162 55T192 43Q214 43 243 57L256
64ZM157 468T128 491T99 547Q99 583 135 604T215 625Q259 625 290 602T321 545Q321 510 286 489T205 468Q157 468 128 491ZM234 482T240 493T247 527Q247 561 232 586T195 611Q171 611 171 567Q171 534 184 508T221 482Q234 482 240 493Z" />
<glyph unicode="&#xe6;" glyph-name="ae" horiz-adv-x="589" d="M573 66Q575 66 577 62T578 56Q540 20 503 4T420 -12Q315 -12 268 56L207 23Q150 -7 103 -7Q71 -7 53 9T34 57Q34 80 45 94T78 117T147 143L235 171Q232 254 229 292T214 351T180 373Q155 373 143
353T131 291Q131 271 120 256T80 241Q28 241 28 285Q28 307 56 333T125 377T202 395Q236 395 262 381T305 340Q366 395 451 395Q510 395 541 367T573 287Q573 276 570 272T558 267H477L340 265Q337 243 337 215Q337 127 369 81T463 34Q530 34 571 65L573 66ZM390
375T371 352T343 285L465 289Q465 331 453 353T418 375Q390 375 371 352ZM260 69Q240 104 236 154L194 139Q171 130 161 118T150 88Q150 68 162 56T193 44Q211 44 237 57L260 69Z" />
<glyph unicode="&#xe7;" glyph-name="ccedilla" horiz-adv-x="425" d="M230 -12Q228 -26 228 -33Q228 -52 237 -66T268 -92Q294 -108 308 -125T323 -170Q323 -212 293 -243T201 -275Q126 -275 126 -227Q126 -212 138 -200T166 -188Q185 -188 193 -196T206 -221Q211
-236 217 -243T241 -251Q263 -251 263 -227Q263 -201 245 -180T180 -133Q171 -130 171 -121Q171 -114 175 -105Q193 -61 211 -11Q152 -6 112 23T52 96T32 186Q32 249 67 296T156 369T268 395Q316 395 354 375T393 320Q393 301 379 288T338 274Q314 274 300 286T277
325Q268 353 260 363T229 374Q186 374 161 332T135 219Q135 136 172 87T290 37Q317 37 336 43T386 63H387Q390 63 392 60T393 55Q356 21 319 5T234 -12H230Z" />
<glyph unicode="&#xe8;" glyph-name="egrave" horiz-adv-x="418" d="M388 66Q390 66 392 62T393 56Q356 20 318 4T235 -12Q172 -12 126 14T56 85T32 181Q32 239 62 288T144 366T260 395Q322 395 355 369T388 296Q388 267 377 267H316L136 265Q133 246 133 223Q133
137 173 87T285 37Q310 37 337 44T386 65L388 66ZM193 375T171 351T139 285L281 288Q278 375 223 375Q193 375 171 351ZM119 731T134 731Q156 731 187 726T219 716L251 476Q251 474 247 473T241 474L120 727Q119 731 134 731Z" />
<glyph unicode="&#xe9;" glyph-name="eacute" horiz-adv-x="418" d="M388 66Q390 66 392 62T393 56Q356 20 318 4T235 -12Q172 -12 126 14T56 85T32 181Q32 239 62 288T144 366T260 395Q322 395 355 369T388 296Q388 267 377 267H316L136 265Q133 246 133 223Q133
137 173 87T285 37Q310 37 337 44T386 65L388 66ZM193 375T171 351T139 285L281 288Q278 375 223 375Q193 375 171 351ZM233 472T229 472Q226 472 224 473T222 476L255 716Q257 720 288 725T340 731Q354 731 353 727L233 474Q233 472 229 472Z" />
<glyph unicode="&#xea;" glyph-name="ecircumflex" horiz-adv-x="418" d="M388 66Q390 66 392 62T393 56Q356 20 318 4T235 -12Q172 -12 126 14T56 85T32 181Q32 239 62 288T144 366T260 395Q322 395 355 369T388 296Q388 267 377 267H316L136 265Q133 246 133
223Q133 137 173 87T285 37Q310 37 337 44T386 65L388 66ZM193 375T171 351T139 285L281 288Q278 375 223 375Q193 375 171 351ZM314 475Q314 473 310 472T304 474L236 582L167 474Q166 471 161 472T156 476L224 725Q225 730 235 730Q246 730 247 725L314 476V475Z"
/>
<glyph unicode="&#xeb;" glyph-name="edieresis" horiz-adv-x="418" d="M388 66Q390 66 392 62T393 56Q356 20 318 4T235 -12Q172 -12 126 14T56 85T32 181Q32 239 62 288T144 366T260 395Q322 395 355 369T388 296Q388 267 377 267H316L136 265Q133 246 133 223Q133
137 173 87T285 37Q310 37 337 44T386 65L388 66ZM193 375T171 351T139 285L281 288Q278 375 223 375Q193 375 171 351ZM123 464T109 478T94 519Q94 543 109 557T149 571Q174 571 187 557T201 519Q201 493 188 479T149 464Q123 464 109 478ZM297 464T283 478T269
519Q269 543 283 556T323 570Q348 570 361 557T375 519Q375 493 362 479T323 464Q297 464 283 478Z" />
<glyph unicode="&#xec;" glyph-name="igrave" horiz-adv-x="263" d="M36 0T36 6T39 12Q70 12 81 26T92 81V260Q92 294 85 309T62 324Q49 324 25 313H24Q20 313 18 318T19 325L170 395L173 396Q178 396 183 391T188 382V360Q186 320 186 262V81Q186 41 197 27T240
12Q243 12 243 6T240 0Q214 0 199 1L139 2L80 1Q65 0 39 0Q36 0 36 6ZM275 731T290 731Q312 731 343 726T375 716L407 476Q407 474 403 473T397 474L276 727Q275 731 290 731Z" />
<glyph unicode="&#xed;" glyph-name="iacute" horiz-adv-x="263" d="M36 0T36 6T39 12Q70 12 81 26T92 81V260Q92 294 85 309T62 324Q49 324 25 313H24Q20 313 18 318T19 325L170 395L173 396Q178 396 183 391T188 382V360Q186 320 186 262V81Q186 41 197 27T240
12Q243 12 243 6T240 0Q214 0 199 1L139 2L80 1Q65 0 39 0Q36 0 36 6ZM133 472T129 472Q126 472 124 473T122 476L155 716Q157 720 188 725T240 731Q254 731 253 727L133 474Q133 472 129 472Z" />
<glyph unicode="&#xee;" glyph-name="icircumflex" horiz-adv-x="263" d="M36 0T36 6T39 12Q70 12 81 26T92 81V260Q92 294 85 309T62 324Q49 324 25 313H24Q20 313 18 318T19 325L170 395L173 396Q178 396 183 391T188 382V360Q186 320 186 262V81Q186 41 197
27T240 12Q243 12 243 6T240 0Q214 0 199 1L139 2L80 1Q65 0 39 0Q36 0 36 6ZM470 475Q470 473 466 472T460 474L392 582L323 474Q322 471 317 472T312 476L380 725Q381 730 391 730Q402 730 403 725L470 476V475Z" />
<glyph unicode="&#xef;" glyph-name="idieresis" horiz-adv-x="263" d="M36 0T36 6T39 12Q70 12 81 26T92 81V260Q92 294 85 309T62 324Q49 324 25 313H24Q20 313 18 318T19 325L170 395L173 396Q178 396 183 391T188 382V360Q186 320 186 262V81Q186 41 197 27T240
12Q243 12 243 6T240 0Q214 0 199 1L139 2L80 1Q65 0 39 0Q36 0 36 6ZM289 464T275 478T260 519Q260 543 275 557T315 571Q340 571 354 557T368 519Q368 493 354 479T315 464Q289 464 275 478ZM442 464T428 478T414 519Q414 543 428 556T467 570Q492 570 505 557T519
519Q519 493 506 479T467 464Q442 464 428 478Z" />
<glyph unicode="&#xf0;" glyph-name="eth" horiz-adv-x="470" d="M380 497T418 407T456 227Q456 106 391 47T223 -13Q161 -13 113 14T40 87T14 186Q14 255 48 303T135 375T239 399Q284 399 324 379Q296 470 250 543L125 484Q119 482 113 498T111 517L231 574Q171
660 90 716Q88 718 88 719Q88 721 90 723T96 725Q205 677 284 599L385 647Q389 648 394 641T401 625T399 614L311 572Q380 497 418 407ZM300 9T326 50T352 191Q352 249 341 309Q320 342 292 359T232 377Q181 377 149 335T117 215Q117 158 134 111T181 37T251 9Q300
9 326 50Z" />
<glyph unicode="&#xf1;" glyph-name="ntilde" horiz-adv-x="526" d="M512 12T512 6T509 0Q483 0 468 1L408 2L350 1Q334 0 308 0Q305 0 305 6T308 12Q339 12 350 26T361 81V225Q361 279 342 305T280 331Q256 331 231 321T186 294V81Q186 41 197 27T240 12Q243
12 243 6T240 0Q214 0 199 1L139 2L80 1Q65 0 39 0Q36 0 36 6T39 12Q70 12 81 26T92 81V269Q92 300 85 314T61 329Q44 329 13 315H11Q8 315 7 320T7 326L146 394Q152 396 153 396Q164 396 174 375T186 316Q255 398 338 398Q392 398 423 364T455 273V81Q455 41 466
27T509 12Q512 12 512 6ZM369 533T379 539T403 560L405 561Q407 561 409 558T410 553Q383 505 367 489T327 473Q308 473 271 484Q254 489 236 493T202 497Q183 497 175 492T151 470H150Q147 470 145 472T144 477Q189 558 231 558Q242 558 278 548Q296 542 316 538T352
533Q369 533 379 539Z" />
<glyph unicode="&#xf2;" glyph-name="ograve" horiz-adv-x="489" d="M175 -13T129 15T57 92T32 198Q32 263 65 308T149 376T254 399Q316 399 362 370T432 294T457 192Q457 132 427 86T347 13T237 -13Q175 -13 129 15ZM306 8T326 46T347 157Q347 227 329 277T282
352T220 378Q140 378 140 235Q140 168 157 117T203 37T267 8Q306 8 326 46ZM130 731T145 731Q167 731 198 726T230 716L262 476Q262 474 258 473T252 474L131 727Q130 731 145 731Z" />
<glyph unicode="&#xf3;" glyph-name="oacute" horiz-adv-x="489" d="M175 -13T129 15T57 92T32 198Q32 263 65 308T149 376T254 399Q316 399 362 370T432 294T457 192Q457 132 427 86T347 13T237 -13Q175 -13 129 15ZM306 8T326 46T347 157Q347 227 329 277T282
352T220 378Q140 378 140 235Q140 168 157 117T203 37T267 8Q306 8 326 46ZM244 472T240 472Q237 472 235 473T233 476L266 716Q268 720 299 725T351 731Q365 731 364 727L244 474Q244 472 240 472Z" />
<glyph unicode="&#xf4;" glyph-name="ocircumflex" horiz-adv-x="489" d="M175 -13T129 15T57 92T32 198Q32 263 65 308T149 376T254 399Q316 399 362 370T432 294T457 192Q457 132 427 86T347 13T237 -13Q175 -13 129 15ZM306 8T326 46T347 157Q347 227 329 277T282
352T220 378Q140 378 140 235Q140 168 157 117T203 37T267 8Q306 8 326 46ZM325 475Q325 473 321 472T315 474L247 582L178 474Q177 471 172 472T167 476L235 725Q236 730 246 730Q257 730 258 725L325 476V475Z" />
<glyph unicode="&#xf5;" glyph-name="otilde" horiz-adv-x="489" d="M175 -13T129 15T57 92T32 198Q32 263 65 308T149 376T254 399Q316 399 362 370T432 294T457 192Q457 132 427 86T347 13T237 -13Q175 -13 129 15ZM306 8T326 46T347 157Q347 227 329 277T282
352T220 378Q140 378 140 235Q140 168 157 117T203 37T267 8Q306 8 326 46ZM338 533T348 539T372 560L374 561Q376 561 378 558T379 553Q352 505 336 489T296 473Q277 473 240 484Q223 489 205 493T171 497Q152 497 144 492T120 470H119Q116 470 114 472T113 477Q158
558 200 558Q211 558 247 548Q265 542 285 538T321 533Q338 533 348 539Z" />
<glyph unicode="&#xf6;" glyph-name="odieresis" horiz-adv-x="489" d="M175 -13T129 15T57 92T32 198Q32 263 65 308T149 376T254 399Q316 399 362 370T432 294T457 192Q457 132 427 86T347 13T237 -13Q175 -13 129 15ZM306 8T326 46T347 157Q347 227 329 277T282
352T220 378Q140 378 140 235Q140 168 157 117T203 37T267 8Q306 8 326 46ZM134 464T120 478T105 519Q105 543 120 557T160 571Q185 571 198 557T212 519Q212 493 199 479T160 464Q134 464 120 478ZM308 464T294 478T280 519Q280 543 294 556T334 570Q359 570 372
557T386 519Q386 493 373 479T334 464Q308 464 294 478Z" />
<glyph unicode="&#xf7;" glyph-name="divide" horiz-adv-x="398" d="M170 274T154 290T138 335Q138 361 154 376T199 392Q227 392 242 377T257 335Q257 306 242 290T199 274Q170 274 154 290ZM32 165T31 173T29 191Q29 200 30 207T33 214H364Q366 214 367 207T369
190Q369 181 368 173T364 165H34Q32 165 31 173ZM171 -11T155 5T138 50Q138 76 154 92T199 108Q226 108 241 93T257 50Q257 21 242 5T199 -11Q171 -11 155 5Z" />
<glyph unicode="&#xf8;" glyph-name="oslash" horiz-adv-x="477" d="M428 309T442 271T457 192Q457 132 427 86T347 13T237 -13Q159 -13 105 33L57 -16L56 -17Q51 -17 43 -9T37 4L84 53Q59 82 46 119T32 198Q32 263 65 308T149 376T254 399Q327 399 380 357L423
401L425 402Q430 402 438 394T443 382L400 338Q428 309 442 271ZM140 173T154 125L321 296Q303 336 277 357T220 378Q140 378 140 235Q140 173 154 125ZM306 8T326 46T347 157Q347 222 332 268L165 95Q182 54 209 31T267 8Q306 8 326 46Z" />
<glyph unicode="&#xf9;" glyph-name="ugrave" horiz-adv-x="505" d="M499 65Q502 65 504 60T504 54L366 -13Q364 -14 361 -14Q351 -14 344 7T335 66Q269 -12 192 -12Q137 -12 106 22T74 113V260Q74 325 43 325Q32 325 18 318H17Q13 318 11 323T12 330L146 394L151
395Q156 395 161 391T167 382V161Q167 53 250 53Q272 53 294 62T335 89V260Q335 325 304 325Q293 325 278 318H277Q274 318 272 323T273 330L407 394Q409 395 412 395Q417 395 422 391T428 382V116Q428 82 434 68T456 54Q470 54 497 65H499ZM141 731T156 731Q178
731 209 726T241 716L273 476Q273 474 269 473T263 474L142 727Q141 731 156 731Z" />
<glyph unicode="&#xfa;" glyph-name="uacute" horiz-adv-x="505" d="M499 65Q502 65 504 60T504 54L366 -13Q364 -14 361 -14Q351 -14 344 7T335 66Q269 -12 192 -12Q137 -12 106 22T74 113V260Q74 325 43 325Q32 325 18 318H17Q13 318 11 323T12 330L146 394L151
395Q156 395 161 391T167 382V161Q167 53 250 53Q272 53 294 62T335 89V260Q335 325 304 325Q293 325 278 318H277Q274 318 272 323T273 330L407 394Q409 395 412 395Q417 395 422 391T428 382V116Q428 82 434 68T456 54Q470 54 497 65H499ZM255 472T251 472Q248
472 246 473T244 476L277 716Q279 720 310 725T362 731Q376 731 375 727L255 474Q255 472 251 472Z" />
<glyph unicode="&#xfb;" glyph-name="ucircumflex" horiz-adv-x="505" d="M499 65Q502 65 504 60T504 54L366 -13Q364 -14 361 -14Q351 -14 344 7T335 66Q269 -12 192 -12Q137 -12 106 22T74 113V260Q74 325 43 325Q32 325 18 318H17Q13 318 11 323T12 330L146
394L151 395Q156 395 161 391T167 382V161Q167 53 250 53Q272 53 294 62T335 89V260Q335 325 304 325Q293 325 278 318H277Q274 318 272 323T273 330L407 394Q409 395 412 395Q417 395 422 391T428 382V116Q428 82 434 68T456 54Q470 54 497 65H499ZM336 475Q336
473 332 472T326 474L258 582L189 474Q188 471 183 472T178 476L246 725Q247 730 257 730Q268 730 269 725L336 476V475Z" />
<glyph unicode="&#xfc;" glyph-name="udieresis" horiz-adv-x="505" d="M499 65Q502 65 504 60T504 54L366 -13Q364 -14 361 -14Q351 -14 344 7T335 66Q269 -12 192 -12Q137 -12 106 22T74 113V260Q74 325 43 325Q32 325 18 318H17Q13 318 11 323T12 330L146 394L151
395Q156 395 161 391T167 382V161Q167 53 250 53Q272 53 294 62T335 89V260Q335 325 304 325Q293 325 278 318H277Q274 318 272 323T273 330L407 394Q409 395 412 395Q417 395 422 391T428 382V116Q428 82 434 68T456 54Q470 54 497 65H499ZM145 464T131 478T116
519Q116 543 131 557T171 571Q196 571 209 557T223 519Q223 493 210 479T171 464Q145 464 131 478ZM319 464T305 478T291 519Q291 543 305 556T345 570Q370 570 383 557T397 519Q397 493 384 479T345 464Q319 464 305 478Z" />
<glyph unicode="&#xfd;" glyph-name="yacute" horiz-adv-x="427" d="M443 386T443 380T441 374Q409 374 386 347T343 267L232 -28Q179 -168 131 -224T23 -281Q-7 -281 -23 -269T-39 -232Q-39 -209 -25 -197T9 -185Q20 -185 27 -188T46 -198Q65 -211 82 -211Q105
-211 123 -194T162 -136T210 -20L50 303Q28 346 16 360T-15 374Q-18 374 -18 380T-15 386Q13 386 28 385L70 384L139 385Q155 386 182 386Q185 386 185 380T182 374Q156 374 144 370T132 355Q132 347 138 335L256 94L316 268Q325 294 325 315Q325 343 309 358T263
374Q261 374 261 380T263 386Q290 386 304 385L364 384L404 385Q416 386 441 386Q443 386 443 380ZM220 472T216 472Q213 472 211 473T209 476L242 716Q244 720 275 725T327 731Q341 731 340 727L220 474Q220 472 216 472Z" />
<glyph unicode="&#xfe;" glyph-name="thorn" horiz-adv-x="496" d="M195 -13T158 -2V-194Q158 -224 164 -238T189 -257T247 -263Q249 -263 249 -269T247 -275Q209 -275 188 -274L110 -273L50 -274Q34 -275 8 -275Q6 -275 6 -269T8 -263Q32 -263 43 -258T59 -238T64
-194V589Q64 624 58 639T35 654Q22 654 -2 643H-3Q-7 643 -9 648T-9 655L137 724Q139 725 142 725Q147 725 152 721T158 712V335Q231 399 305 399Q347 399 383 377T442 313T464 215Q464 135 431 84T348 10T243 -13Q195 -13 158 -2ZM195 343T158 311V61Q180 37 204
25T262 12Q311 12 337 54T364 184Q364 260 329 301T240 343Q195 343 158 311Z" />
<glyph unicode="&#xff;" glyph-name="ydieresis" horiz-adv-x="427" d="M443 386T443 380T441 374Q409 374 386 347T343 267L232 -28Q179 -168 131 -224T23 -281Q-7 -281 -23 -269T-39 -232Q-39 -209 -25 -197T9 -185Q20 -185 27 -188T46 -198Q65 -211 82 -211Q105
-211 123 -194T162 -136T210 -20L50 303Q28 346 16 360T-15 374Q-18 374 -18 380T-15 386Q13 386 28 385L70 384L139 385Q155 386 182 386Q185 386 185 380T182 374Q156 374 144 370T132 355Q132 347 138 335L256 94L316 268Q325 294 325 315Q325 343 309 358T263
374Q261 374 261 380T263 386Q290 386 304 385L364 384L404 385Q416 386 441 386Q443 386 443 380ZM110 464T96 478T81 519Q81 543 96 557T136 571Q161 571 174 557T188 519Q188 493 175 479T136 464Q110 464 96 478ZM284 464T270 478T256 519Q256 543 270 556T310
570Q335 570 348 557T362 519Q362 493 349 479T310 464Q284 464 270 478Z" />
<glyph unicode="&#x2013;" glyph-name="endash" horiz-adv-x="515" d="M32 165T31 173T29 191Q29 200 30 207T33 214H481Q483 214 484 207T486 190Q486 181 485 173T481 165H34Q32 165 31 173Z" />
<glyph unicode="&#x2014;" glyph-name="emdash" horiz-adv-x="830" d="M32 165T31 173T29 191Q29 200 30 207T33 214H796Q798 214 799 207T801 190Q801 181 800 173T796 165H34Q32 165 31 173Z" />
<glyph unicode="&#x2018;" glyph-name="quoteleft" horiz-adv-x="178" d="M124 505T138 490T153 449Q153 422 136 407T88 391Q53 391 34 418T14 495Q14 540 34 578T94 656Q95 657 97 657Q100 657 102 654T102 649Q53 599 53 531Q53 503 63 490Q72 505 100 505Q124
505 138 490Z" />
<glyph unicode="&#x2019;" glyph-name="quoteright" horiz-adv-x="166" d="M113 625T132 598T152 521Q152 476 132 438T72 360Q71 359 69 359Q66 359 64 362T64 367Q113 417 113 485Q113 513 103 526Q94 511 66 511Q42 511 28 526T13 567Q13 594 30 609T78 625Q113
625 132 598Z" />
<glyph unicode="&#x201a;" glyph-name="quotesinglbase" horiz-adv-x="166" d="M369 106T388 79T408 2Q408 -43 388 -81T328 -159Q327 -160 325 -160Q322 -160 320 -157T320 -152Q369 -102 369 -34Q369 -6 359 7Q350 -8 322 -8Q298 -8 284 7T269 48Q269 75 286
90T334 106Q369 106 388 79Z" />
<glyph unicode="&#x201c;" glyph-name="quotedblleft" horiz-adv-x="339" d="M124 505T138 490T153 449Q153 422 136 407T88 391Q53 391 34 418T14 495Q14 540 34 578T94 656Q95 657 97 657Q100 657 102 654T102 649Q53 599 53 531Q53 503 63 490Q72 505 100 505Q124
505 138 490ZM297 505T311 490T326 449Q326 422 309 407T261 391Q226 391 207 418T187 495Q187 540 207 578T267 656Q268 657 270 657Q273 657 275 654T275 649Q226 599 226 531Q226 503 236 490Q245 505 273 505Q297 505 311 490Z" />
<glyph unicode="&#x201d;" glyph-name="quotedblright" horiz-adv-x="339" d="M286 625T305 598T325 521Q325 476 305 438T245 360Q244 359 242 359Q239 359 237 362T237 367Q286 417 286 485Q286 513 276 526Q267 511 239 511Q215 511 201 526T186 567Q186 594
203 609T251 625Q286 625 305 598ZM113 625T132 598T152 521Q152 476 132 438T72 360Q71 359 69 359Q66 359 64 362T64 367Q113 417 113 485Q113 513 103 526Q94 511 66 511Q42 511 28 526T13 567Q13 594 30 609T78 625Q113 625 132 598Z" />
<glyph unicode="&#x201e;" glyph-name="quotedblbase" horiz-adv-x="351" d="M286 106T305 79T325 2Q325 -43 305 -81T245 -159Q244 -160 242 -160Q239 -160 237 -157T237 -152Q286 -102 286 -34Q286 -6 276 7Q267 -8 239 -8Q215 -8 201 7T186 48Q186 75 203 90T251
106Q286 106 305 79ZM369 106T388 79T408 2Q408 -43 388 -81T328 -159Q327 -160 325 -160Q322 -160 320 -157T320 -152Q369 -102 369 -34Q369 -6 359 7Q350 -8 322 -8Q298 -8 284 7T269 48Q269 75 286 90T334 106Q369 106 388 79Z" />
<glyph unicode="&#x2022;" glyph-name="bullet" horiz-adv-x="324" d="M114 131T79 165T44 248Q44 279 60 306T103 349T163 365Q194 365 221 349T264 306T280 248Q280 199 246 165T163 131Q114 131 79 165Z" />
<glyph unicode="&#x2039;" glyph-name="guilsinglleft" horiz-adv-x="304" d="M53 189Q49 193 49 201Q49 208 53 212L241 361Q241 362 243 362Q245 362 247 360T248 356L156 201L248 46Q249 44 246 41T241 40L53 189Z" />
<glyph unicode="&#x203a;" glyph-name="guilsinglright" horiz-adv-x="304" d="M251 212Q256 207 256 201Q256 194 251 189L63 40Q63 39 61 39Q59 39 57 41T56 46L149 200L56 356Q55 358 58 361T63 361L251 212Z" />
</font>
</defs>
</svg>
