<?xml version="1.0" standalone="no"?>
<!DOCTYPE svg PUBLIC "-//W3C//DTD SVG 1.1//EN" "http://www.w3.org/Graphics/SVG/1.1/DTD/svg11.dtd">
<svg xmlns="http://www.w3.org/2000/svg">
<defs >
<font id="Cormorant" horiz-adv-x="499" ><font-face
    font-family="Cormorant"
    units-per-em="1000"
    panose-1="0 0 5 0 0 0 0 0 0 0"
    ascent="924"
    descent="-287"
    alphabetic="0" />
<glyph unicode=" " glyph-name="space" horiz-adv-x="234" />
<glyph unicode="!" glyph-name="exclam" horiz-adv-x="219" d="M112 186T107 186T102 192L108 242Q123 365 132 454T144 621Q144 625 157 629T186 633Q202 633 215 629T227 621Q197 534 172 434T113 191Q112 186 107 186ZM60 -10T49 1T37 32Q37 51 48 62T80 73Q100
73 111 62T122 32Q122 12 111 1T80 -10Q60 -10 49 1Z" />
<glyph unicode="&quot;" glyph-name="quotedbl" horiz-adv-x="320" d="M129 609Q129 618 148 627T187 639T206 637L97 306Q96 303 91 303T86 304L129 609ZM274 609Q274 618 293 627T332 639T351 637L242 306Q241 303 236 303T231 304L274 609Z" />
<glyph unicode="#" glyph-name="numbersign" horiz-adv-x="435" d="M413 314T413 299Q413 275 409 275H336L282 116H344Q347 116 347 101Q347 92 346 84T343 76H269L216 -82Q216 -84 211 -84Q204 -84 195 -81T187 -74L237 76H118L65 -82Q65 -84 60 -84Q53 -84
44 -81T36 -74L86 76H27Q26 76 25 82T23 96Q23 103 24 109T27 116H99L153 275H94Q93 275 92 281T90 295Q90 302 91 308T94 314H166L222 483Q222 485 226 485Q232 485 242 481T251 473L198 314H317L373 483Q373 485 377 485Q383 485 393 481T402 473L349 314H411Q413
314 413 299ZM250 116L304 275H185L131 116H250Z" />
<glyph unicode="$" glyph-name="dollar" horiz-adv-x="375" d="M339 451T341 448T343 439L334 351Q333 347 329 348T324 353Q324 388 303 421T247 463L213 268L226 259Q271 231 293 207T316 143Q316 85 274 41T164 -11L148 -103Q147 -109 138 -109Q134 -109 131
-107T128 -101L144 -12H142Q81 -12 40 24Q35 27 34 31T34 43L42 142Q42 147 47 147T52 142Q54 91 80 52T147 5L184 218L174 225Q132 252 110 277T88 340Q88 400 130 437T230 479L245 563Q247 569 254 569Q259 569 262 567T264 560L250 480Q292 478 331 456Q339
451 341 448ZM140 369T140 363Q140 338 154 319T195 280L228 465Q194 464 171 441T142 381Q140 369 140 363ZM260 107T260 114Q260 143 245 164T202 206L167 4Q199 6 224 27T258 93Q260 107 260 114Z" />
<glyph unicode="%" glyph-name="percent" horiz-adv-x="519" d="M115 303T91 331T67 404Q67 444 85 480T135 538T201 560Q241 560 264 532T287 460Q287 445 284 430Q274 376 238 340T155 303Q115 303 91 331ZM60 -6Q56 -6 48 -1T42 7L471 551L473 552Q478 552
485 546T491 537L62 -6H60ZM193 315T207 342T230 423Q235 449 235 478Q235 548 193 548Q163 548 147 518T123 436Q118 404 118 384Q118 315 164 315Q193 315 207 342ZM311 -5T287 23T262 96Q262 137 280 173T329 231T395 253Q435 253 458 225T482 152Q482 110 464
74T416 17T351 -5Q311 -5 287 23ZM389 8T403 35T425 116Q430 142 430 171Q430 240 388 240Q359 240 343 211T318 129Q313 97 313 77Q313 8 359 8Q389 8 403 35Z" />
<glyph unicode="&amp;" glyph-name="ampersand" horiz-adv-x="751" d="M753 380T753 349Q753 324 740 301T703 262T654 247Q626 247 582 268Q564 131 491 60T308 -12Q240 -12 187 20T103 107T73 224Q73 251 79 278Q91 331 125 374T205 441T298 465Q348 465 380
437Q440 504 440 554Q440 573 434 583T417 603Q409 611 405 617T401 634Q401 649 410 658T433 667Q455 667 469 647T483 594Q483 538 441 480T340 372T192 254L134 209Q144 155 175 114T249 50T341 27Q432 27 492 91T566 275L547 285Q505 307 480 317T432 328Q418
328 410 322T401 307Q401 295 409 279Q417 261 417 253Q417 244 411 237T393 229Q381 229 374 236T366 261Q366 287 382 311T425 349T480 364Q505 364 531 354T597 323Q629 306 652 297T694 287Q707 287 715 292T724 306Q724 315 714 329Q708 337 705 343T702 357Q702
380 728 380Q753 380 753 349ZM129 278T129 256Q129 245 131 225Q158 247 187 269Q278 339 329 385Q304 438 247 438Q208 438 178 402T134 310Q129 278 129 256Z" />
<glyph unicode="&apos;" glyph-name="quotesingle" horiz-adv-x="129" d="M108 609Q108 618 127 627T166 639T185 637L76 306Q75 303 70 303T65 304L108 609Z" />
<glyph unicode="(" glyph-name="parenleft" horiz-adv-x="280" d="M133 -76T101 1T69 178Q69 238 81 304Q106 446 175 559T342 725H343Q346 725 348 722T348 717Q269 646 219 544T145 304Q130 220 130 148Q130 -7 201 -109V-110Q201 -113 199 -115T194 -117Q133
-76 101 1Z" />
<glyph unicode=")" glyph-name="parenright" horiz-adv-x="280" d="M187 684T219 607T251 430Q251 370 239 304Q214 162 145 49T-22 -117H-23Q-26 -117 -28 -114T-28 -109Q51 -38 101 64T175 304Q190 388 190 460Q190 615 119 717V718Q119 721 121 723T126 725Q187
684 219 607Z" />
<glyph unicode="*" glyph-name="asterisk" horiz-adv-x="448" d="M265 658Q265 667 284 676T324 688T343 686L276 529Q275 526 270 526T265 529V658ZM121 550Q109 554 109 592Q109 609 112 622T118 633L247 520Q248 519 248 517Q248 515 247 513T243 511L121 550ZM291
503Q289 503 288 507T288 513L411 553Q420 556 434 540T457 506T461 488L291 503ZM176 376T166 376Q154 376 137 382T108 395T99 404L246 491L248 492Q250 492 252 489T254 485L179 381Q176 376 166 376ZM273 481V482Q273 484 276 487T281 488L358 384Q363 376
352 358T327 324T311 315L273 481Z" />
<glyph unicode="+" glyph-name="plus" horiz-adv-x="398" d="M366 209T367 203T369 190Q369 183 368 177T364 170H219V25Q219 23 212 22T196 20Q179 20 179 23V170H34Q32 170 31 176T29 191Q29 198 30 203T33 209H179V354Q179 356 185 357T199 359Q206 359 212
358T219 354V209H364Q366 209 367 203Z" />
<glyph unicode="," glyph-name="comma" horiz-adv-x="224" d="M97 71T112 55T127 8Q127 -79 16 -159Q15 -160 13 -160Q10 -160 8 -156T9 -150Q46 -122 66 -94T92 -32Q94 -20 94 -15Q94 -6 91 2Q82 -8 64 -8Q46 -8 36 3T25 31Q25 50 37 60T72 71Q97 71 112 55Z" />
<glyph unicode="-" glyph-name="hyphen" horiz-adv-x="305" d="M30 166T29 174T27 192Q27 211 30 212L280 258Q284 259 284 235Q284 214 280 214L32 167Q30 166 29 174Z" />
<glyph unicode="." glyph-name="period" horiz-adv-x="197" d="M48 -10T37 1T25 32Q25 51 36 62T68 73Q88 73 99 62T110 32Q110 12 99 1T68 -10Q48 -10 37 1Z" />
<glyph unicode="/" glyph-name="slash" horiz-adv-x="305" d="M-9 -170T-18 -169T-34 -163T-41 -156L343 731Q345 734 349 734Q357 734 367 728T374 718L-8 -167Q-9 -170 -18 -169Z" />
<glyph unicode="0" glyph-name="zero" horiz-adv-x="438" d="M114 -13T72 32T30 150Q30 175 34 196Q44 255 76 301T156 373T257 399Q326 399 367 355T409 239Q409 214 405 193Q394 133 362 87T283 14T183 -13Q114 -13 72 32ZM252 1T288 50T338 181Q344 217 344
247Q344 314 317 349T246 385Q192 385 153 335T99 204Q94 171 94 146Q94 80 121 41T197 1Q252 1 288 50Z" />
<glyph unicode="1" glyph-name="one" horiz-adv-x="291" d="M10 0T10 6T14 12Q51 12 70 17T98 36T113 81L147 270Q153 308 153 315Q153 326 150 331T138 336Q129 336 110 329T67 311L65 310Q61 310 60 315T63 322L214 396Q217 398 220 396T221 392L165 81Q162
63 162 51Q162 27 178 20T242 12Q245 12 245 6T242 0Q212 0 195 1L129 2L62 1Q45 0 14 0Q10 0 10 6Z" />
<glyph unicode="2" glyph-name="two" horiz-adv-x="363" d="M101 89T154 138T233 228T259 310Q259 340 242 358T196 377Q127 377 74 256Q72 254 70 254Q67 254 64 256T62 261L120 409Q122 412 126 411T130 406Q127 396 127 390Q127 379 137 379Q146 379 167 386Q206
399 233 399Q272 399 294 378T317 321Q317 280 293 243T223 166T81 53Q78 52 79 51T83 49Q180 49 221 52T281 69T313 116Q315 119 318 119Q321 119 323 117T325 113L293 9Q291 0 284 0H10Q5 0 3 5T5 14Q101 89 154 138Z" />
<glyph unicode="3" glyph-name="three" horiz-adv-x="342" d="M294 235T262 194T182 131Q231 125 256 94T281 17Q281 -33 246 -89T141 -196T-29 -276Q-33 -277 -34 -271T-34 -264Q81 -227 140 -158T212 -16Q215 1 215 18Q215 58 195 83T133 108Q117 108 89 101Q85
100 83 107T85 115Q159 134 195 171T243 272Q247 298 247 307Q247 340 232 358T185 377Q145 377 113 348T53 257Q52 256 50 256Q47 256 44 258T41 262L101 407Q102 408 104 408Q107 408 109 406T111 401Q107 393 107 387Q107 377 119 377Q125 377 149 385Q169 392
184 395T216 399Q259 399 282 374T305 309Q305 296 302 282Q294 235 262 194Z" />
<glyph unicode="4" glyph-name="four" horiz-adv-x="423" d="M365 48T361 25T353 2Q329 4 279 6L250 -158Q248 -169 241 -172L201 -188L195 -190Q191 -190 192 -182L225 7Q162 9 -12 9Q-16 9 -17 13T-15 21L335 398Q337 400 340 400Q343 400 345 399T347 394L286
46Q309 46 361 48Q365 48 361 25ZM122 42T232 44L278 306L37 49Q34 46 35 44T41 42Q122 42 232 44Z" />
<glyph unicode="5" glyph-name="five" horiz-adv-x="374" d="M352 425T353 425Q356 425 358 423T360 419L330 350Q324 338 319 335T301 332L129 328Q118 328 112 313L73 196Q183 195 235 156T288 47Q288 29 285 9Q270 -74 199 -139T-23 -275H-24Q-28 -275 -30
-271T-28 -264Q95 -203 151 -141T220 -8Q223 12 223 28Q223 94 180 130T54 167Q50 167 48 170T48 179L108 357Q110 364 112 365T122 368Q238 383 278 389T330 401T350 423Q352 425 353 425Z" />
<glyph unicode="6" glyph-name="six" horiz-adv-x="420" d="M119 -13T78 28T36 144Q36 176 43 208Q60 301 114 391T254 552T443 661Q447 662 448 657T447 649Q354 606 282 537T165 386T107 226Q100 194 100 160Q100 91 131 49T221 6Q259 6 285 34T320 116Q323
137 323 157Q323 202 305 228T249 255Q227 255 205 245T154 211L152 210Q149 210 147 213T146 218Q205 282 283 282Q336 282 362 251T388 173Q388 157 385 142Q378 100 350 65T280 8T192 -13Q119 -13 78 28Z" />
<glyph unicode="7" glyph-name="seven" horiz-adv-x="387" d="M-2 -276T-4 -273T-5 -268L343 331Q347 338 340 338Q208 338 155 334T82 316T47 269Q47 267 43 267Q40 267 37 269T35 273L91 415Q91 417 94 417Q97 417 100 415T103 412Q100 403 100 398Q100 391
108 389T140 386H379Q383 386 385 382T385 373L83 -220Q74 -237 60 -244L0 -275Q-2 -276 -4 -273Z" />
<glyph unicode="8" glyph-name="eight" horiz-adv-x="440" d="M332 319T354 300T393 254T409 191Q409 176 406 161Q397 111 365 72T287 10T193 -13Q142 -13 105 5T49 55T30 123Q30 189 83 249T204 339Q171 362 154 384T136 437Q136 442 138 456Q144 494 168 520T226
560T292 574Q327 574 352 560T391 523T404 477Q404 470 402 460Q397 432 368 401T295 344Q332 319 354 300ZM192 431T215 406T285 350Q340 396 347 448Q349 462 349 470Q349 507 328 532T272 558Q237 558 215 534T192 467Q192 431 215 406ZM348 150T348 165Q348
202 332 230T293 277T233 320L215 332Q167 307 137 267T97 175Q94 159 94 143Q94 85 128 45T221 5Q266 5 300 39T345 132Q348 150 348 165Z" />
<glyph unicode="9" glyph-name="nine" horiz-adv-x="420" d="M-27 -276T-28 -271T-27 -263Q66 -220 137 -151T252 0T313 160Q320 189 320 222Q320 290 289 335T200 380Q162 380 136 356T101 282Q97 265 97 244Q97 196 121 164T183 131Q203 131 221 141T265 175Q266
176 268 176Q271 176 273 174T275 169Q221 104 149 104Q93 104 63 142T33 230Q33 275 60 314T133 376T229 399Q301 399 341 355T382 234Q382 203 377 178Q361 86 306 -4T166 -166T-23 -275Q-27 -276 -28 -271Z" />
<glyph unicode=":" glyph-name="colon" horiz-adv-x="197" d="M48 -10T37 1T25 32Q25 51 36 62T68 73Q88 73 99 62T110 32Q110 12 99 1T68 -10Q48 -10 37 1ZM85 271T74 282T62 313Q62 332 73 343T105 354Q125 354 136 343T147 313Q147 293 136 282T105 271Q85
271 74 282Z" />
<glyph unicode=";" glyph-name="semicolon" horiz-adv-x="222" d="M97 71T112 55T127 8Q127 -79 16 -159Q15 -160 13 -160Q10 -160 8 -156T9 -150Q46 -122 66 -94T92 -32Q94 -20 94 -15Q94 -6 91 2Q82 -8 64 -8Q46 -8 36 3T25 31Q25 50 37 60T72 71Q97 71 112
55ZM85 271T74 282T62 313Q62 332 73 343T105 354Q125 354 136 343T147 313Q147 293 136 282T105 271Q85 271 74 282Z" />
<glyph unicode="&lt;" glyph-name="less" horiz-adv-x="407" d="M377 63T377 42Q377 22 370 25L36 173Q31 176 31 190Q31 205 36 207L370 354Q373 356 375 351T377 338Q377 318 370 314L81 190L370 66Q377 63 377 42Z" />
<glyph unicode="=" glyph-name="equal" horiz-adv-x="468" d="M32 240T31 246T29 261Q29 268 30 273T33 279H434Q436 279 437 273T439 260Q439 253 438 247T434 240H34Q32 240 31 246ZM32 100T31 106T29 121Q29 128 30 133T33 139H434Q436 139 437 133T439 120Q439
113 438 107T434 100H34Q32 100 31 106Z" />
<glyph unicode="&gt;" glyph-name="greater" horiz-adv-x="407" d="M376 204T376 189Q376 175 371 172L37 25Q34 24 32 28T30 41Q30 49 32 56T37 65L326 189L37 313Q34 314 32 321T30 337Q30 345 32 350T37 354L371 206Q376 204 376 189Z" />
<glyph unicode="?" glyph-name="question" horiz-adv-x="295" d="M125 228T125 274Q125 296 128 309Q133 340 149 360T197 407Q230 434 248 457T274 517Q276 526 276 542Q276 574 260 592T214 611Q188 611 177 599T159 565Q152 545 144 534T119 522Q105 522 98
530T91 550Q91 555 92 558Q96 586 134 605T221 625Q273 625 304 601T335 532Q335 519 332 505Q324 465 302 438T259 394T232 372Q192 338 175 311T151 248Q146 229 148 191Q148 187 143 187T137 190Q125 228 125 274ZM92 -10T81 1T69 32Q69 51 80 62T112 73Q132
73 143 62T154 32Q154 12 143 1T112 -10Q92 -10 81 1Z" />
<glyph unicode="@" glyph-name="at" horiz-adv-x="719" d="M438 51T425 66T411 110Q411 123 414 138L424 189Q389 126 347 88T266 49Q243 49 229 64T214 111Q214 122 215 129Q223 182 256 235T333 321T417 355Q448 355 465 334Q479 346 482 362Q484 364 490 364Q502
364 500 361L459 137Q456 121 456 108Q456 90 464 81T493 71Q520 71 547 91T593 148T611 236Q611 300 579 353T490 438T365 470Q287 470 231 434T146 336T117 199Q117 120 151 60T249 -33T393 -66Q441 -66 477 -56T559 -20H560Q562 -20 564 -23T565 -28Q477 -97
361 -97Q280 -97 215 -65T111 29T73 175Q73 267 118 339T237 452T396 493Q471 493 528 462T617 379T648 265Q648 209 623 160T556 81T466 51Q438 51 425 66ZM319 89T349 116T404 185T438 270Q440 282 440 287Q440 307 430 319T398 332Q373 332 346 309T297 246T268
161Q265 142 265 128Q265 89 293 89Q319 89 349 116Z" />
<glyph unicode="A" glyph-name="A" horiz-adv-x="600" d="M567 12T567 6T563 0Q548 0 518 2Q482 4 462 4Q441 4 409 2Q379 0 365 0Q362 0 362 6T365 12Q402 12 416 21T431 56Q431 73 429 84L389 330H238L129 132Q98 74 98 48Q98 27 114 20T163 12Q167 12 167 6T162
0Q151 0 117 2Q79 4 58 4Q37 4 9 2Q-19 0 -34 0Q-38 0 -38 6T-34 12Q-5 12 28 37T96 123L382 635Q384 638 389 638Q398 638 400 633L488 84Q493 53 499 39T519 19T563 12Q567 12 567 6ZM249 351H386L355 544L249 351Z" />
<glyph unicode="B" glyph-name="B" horiz-adv-x="521" d="M401 346T439 309T477 213Q477 197 474 180Q465 130 432 88T351 21T249 -4Q219 -4 184 -1Q172 0 155 1T117 2L54 1Q38 0 10 0Q7 0 7 6T10 12Q44 12 61 17T88 37T102 82L184 545Q187 563 187 575Q187 598
173 605T119 613Q115 613 115 619T119 625L165 624Q203 622 224 622Q242 622 256 623T282 625Q311 628 332 628Q405 628 441 600T477 523Q477 509 474 492Q463 443 427 408T334 352Q401 346 439 309ZM208 352L248 351Q319 351 361 390T415 492Q418 509 418 525Q418
566 393 590T312 614Q288 614 276 609T255 589T241 540L208 352ZM410 185T410 203Q410 263 375 296T273 330Q243 331 203 328L160 79Q157 66 157 54Q157 31 174 22T236 13Q309 13 352 54T407 164Q410 185 410 203Z" />
<glyph unicode="C" glyph-name="C" horiz-adv-x="586" d="M184 -13T122 60T59 245Q59 276 66 318Q83 411 139 483T273 596T434 636Q476 636 516 627T579 601Q585 596 586 592T587 577L577 466Q576 462 571 462T566 466Q559 542 515 578T396 614Q332 614 278 581T188
488T138 346Q131 305 131 262Q131 188 154 129T222 35T323 1Q381 1 435 38T532 151Q534 153 535 153Q538 153 540 151T542 147L512 40Q509 27 506 23T494 16Q407 -13 317 -13Q184 -13 122 60Z" />
<glyph unicode="D" glyph-name="D" horiz-adv-x="612" d="M212 -4T180 -1Q169 0 152 1T113 2L52 1Q37 0 11 0Q8 0 8 6T11 12Q43 12 59 17T84 36T97 81L179 544Q183 570 183 576Q183 598 169 605T118 613Q116 613 116 619T118 625L161 624Q199 622 222 622Q252
622 283 625Q321 627 335 627Q415 627 474 596T565 509T597 381Q597 356 592 323Q575 226 521 152T392 37T236 -4Q212 -4 180 -1ZM300 10T359 44T461 143T519 301Q526 340 526 382Q526 484 478 548T338 613Q287 613 266 599T236 542L157 92Q153 70 153 61Q153 34
170 22T230 10Q300 10 359 44Z" />
<glyph unicode="E" glyph-name="E" horiz-adv-x="514" d="M514 625T512 616L503 559Q499 523 493 492Q492 488 486 489T481 493Q482 501 482 516Q482 559 462 584T405 610H323Q291 610 276 605T253 587T241 543L204 336H345Q384 336 402 351T428 406Q428 409 434
409Q436 409 438 408T440 404Q436 376 431 356L425 325L419 286Q419 283 411 232Q410 228 404 228T399 233Q402 250 402 263Q402 291 387 303T338 315H201L160 85Q157 67 157 55Q157 34 170 27T219 19H328Q366 19 402 55T458 149Q459 152 464 151T469 147Q454 100
438 15Q436 7 433 4T422 0H16Q14 0 14 6T16 12Q49 12 64 17T87 36T101 81L183 544Q186 564 186 576Q186 598 173 605T123 613Q120 613 120 619T123 625H506Q514 625 512 616Z" />
<glyph unicode="F" glyph-name="F" horiz-adv-x="483" d="M512 625T509 616L491 492Q490 488 484 489T479 493Q480 501 480 515Q480 559 460 584T403 610H321Q289 610 274 605T251 587T237 543L199 324H328Q367 324 385 339T411 394Q412 398 418 398T423 393Q420
370 414 342L409 313Q402 272 401 262L394 220Q393 216 387 216T382 221Q385 238 385 250Q385 278 370 290T321 303H195L157 85Q153 61 153 54Q153 29 173 21T252 12Q254 12 254 6T252 0Q221 0 202 1L113 2L55 1Q40 0 13 0Q11 0 11 6T13 12Q45 12 61 17T85 36T99
81L180 544Q184 561 184 576Q184 598 170 605T120 613Q118 613 118 619T120 625H504Q512 625 509 616Z" />
<glyph unicode="G" glyph-name="G" horiz-adv-x="631" d="M245 -12T185 20T93 109T62 241Q62 274 68 310Q85 404 142 478T284 594T464 636Q506 636 542 627T601 600Q607 594 607 588L606 577L597 466Q596 462 591 462T585 466Q579 538 538 576T424 614Q313 614
238 542T141 346Q133 298 133 262Q133 185 160 127T238 38T356 6Q399 6 423 15T463 50T486 126Q493 172 493 187Q493 207 486 216T460 229T406 233Q404 233 403 235T401 241Q401 244 402 246T406 249Q473 244 514 244Q555 244 600 247Q603 247 603 240T600 233Q579
234 570 227T554 196T538 116Q531 72 531 54T529 28Q528 22 526 21T517 16Q410 -12 330 -12Q245 -12 185 20Z" />
<glyph unicode="H" glyph-name="H" horiz-adv-x="671" d="M702 625T702 619T700 613Q668 613 652 608T628 588T615 544L533 81Q530 63 530 50Q530 27 543 20T594 12Q597 12 597 6T594 0Q569 0 554 1L494 2L434 1Q418 0 391 0Q389 0 389 6T391 12Q424 12 439 17T463
36T476 81L517 315H196L154 81Q150 55 150 48Q150 27 163 20T214 12Q217 12 217 6T214 0Q188 0 172 1L111 2L52 1Q37 0 11 0Q8 0 8 6T11 12Q43 12 59 17T84 36T97 81L179 544Q182 564 182 575Q182 598 169 605T118 613Q116 613 116 619T118 625L160 624Q196 622
218 622Q242 622 280 624L321 625Q323 625 323 619T321 613Q289 613 274 607T250 587T236 542L199 336H521L557 542Q561 568 561 575Q561 597 548 605T498 613Q495 613 495 619T498 625L539 624Q575 622 598 622Q620 622 658 624L700 625Q702 625 702 619Z" />
<glyph unicode="I" glyph-name="I" horiz-adv-x="308" d="M17 0T17 6T20 12Q52 12 67 17T91 36T104 81L186 544Q190 570 190 575Q190 598 176 605T125 613Q122 613 122 619T125 625L168 624Q204 622 226 622Q252 622 290 624L330 625Q332 625 332 619T330 613Q298
613 283 607T259 587T245 542L163 81Q160 62 160 49Q160 27 173 20T225 12Q227 12 227 6T225 0Q199 0 184 1L122 2L63 1Q48 0 20 0Q17 0 17 6Z" />
<glyph unicode="J" glyph-name="J" horiz-adv-x="280" d="M-21 -193Q-23 -193 -25 -189T-26 -182Q19 -155 45 -101T88 40L177 544Q180 562 180 575Q180 598 167 605T115 613Q113 613 113 619T115 625L156 624Q194 622 216 622Q243 622 281 624L320 625Q323 625
323 619T320 613Q288 613 272 607T248 587T235 542L151 67Q136 -12 116 -60T64 -138T-20 -193H-21Z" />
<glyph unicode="K" glyph-name="K" horiz-adv-x="595" d="M622 625T622 619T619 613Q583 613 541 596T458 539L279 381L379 202Q430 110 457 71T503 22T550 12Q553 12 553 6T550 0H465Q429 0 420 5T381 68T339 148L232 339L194 306L154 81Q148 45 148 39Q148 23
160 18T206 12Q208 12 208 6T206 0Q180 0 167 1L111 2L52 1Q37 0 11 0Q8 0 8 6T11 12Q43 12 59 17T84 36T97 81L179 544Q182 564 182 575Q182 598 169 605T118 613Q116 613 116 619T118 625L160 624Q196 622 218 622Q242 622 280 624L321 625Q323 625 323 619T321
613Q289 613 274 607T250 587T236 542L198 329L437 545Q474 579 474 596Q474 613 428 613Q426 613 426 619T428 625L466 624Q502 622 531 622Q558 622 588 624L619 625Q622 625 622 619Z" />
<glyph unicode="L" glyph-name="L" horiz-adv-x="496" d="M10 0T10 6T12 12Q44 12 60 17T84 36T97 81L179 544Q182 564 182 575Q182 598 169 605T118 613Q116 613 116 619T118 625L160 624Q196 622 218 622Q242 622 280 624L321 625Q323 625 323 619T321 613Q289
613 274 608T250 588T236 543L155 85Q152 67 152 55Q152 34 165 27T212 19H313Q368 19 404 53T465 152Q465 154 469 154Q472 154 475 153T477 150Q455 77 445 15Q443 7 440 4T429 0H12Q10 0 10 6Z" />
<glyph unicode="M" glyph-name="M" horiz-adv-x="732" d="M767 625T767 619T765 613Q723 613 703 600T677 546L608 81Q605 63 605 51Q605 27 618 20T669 12Q672 12 672 6T669 0Q644 0 629 1L567 2L507 1Q492 0 466 0Q463 0 463 6T466 12Q499 12 515 17T538 36T550
81L622 557L330 7Q328 3 323 3Q318 3 316 8L203 542L202 546L123 109Q119 77 119 69Q119 39 131 26T172 12Q175 12 175 6T172 0Q151 0 140 1L95 2L53 1Q41 0 18 0Q15 0 15 6T18 12Q53 12 73 34T103 109L190 579Q170 613 126 613Q124 613 124 619T126 625L154 624Q164
623 181 623Q199 623 209 624T225 625Q236 625 242 615T256 573L358 96L624 600Q639 625 656 625Q663 625 674 624T699 623L738 624Q747 625 765 625Q767 625 767 619Z" />
<glyph unicode="N" glyph-name="N" horiz-adv-x="651" d="M689 625T689 619T687 613Q651 613 630 591T600 518L506 -10Q506 -12 504 -13T498 -15Q492 -15 491 -11L202 543L196 554L119 106Q115 86 115 67Q115 38 128 25T170 12Q172 12 172 6T170 0Q149 0 138 1L91
2L48 1Q35 0 12 0Q9 0 9 6T12 12Q48 12 69 34T98 106L182 577Q154 613 119 613Q116 613 116 619T119 625L154 624Q166 623 185 623Q201 623 212 624T229 625Q235 625 238 621T245 606Q246 603 249 593T258 573L505 96L579 518Q583 538 583 557Q583 586 570 599T529
613Q526 613 526 619T529 625L559 624Q587 622 607 622Q623 622 651 624L687 625Q689 625 689 619Z" />
<glyph unicode="O" glyph-name="O" horiz-adv-x="651" d="M215 -12T165 20T89 110T63 240Q63 276 69 313Q85 406 135 479T257 594T409 636Q480 636 531 604T608 515T635 387Q635 348 628 313Q611 219 560 145T435 30T284 -12Q215 -12 165 20ZM413 14T475 78T561
260Q571 309 571 359Q571 433 547 490T477 579T369 612Q280 612 218 546T135 366Q126 318 126 273Q126 200 149 141T218 48T326 14Q413 14 475 78Z" />
<glyph unicode="P" glyph-name="P" horiz-adv-x="503" d="M10 0T10 6T13 12Q45 12 61 17T85 36T99 81L180 544Q184 561 184 577Q184 598 171 605T120 613Q118 613 118 619T120 625L160 624Q196 622 219 622Q230 622 266 624Q312 628 342 628Q416 628 463 593T511
491Q511 472 507 453Q496 390 456 347T363 283T261 262Q236 262 220 267Q218 267 218 271Q218 274 220 278T224 281Q237 277 254 277Q294 277 332 294T399 346T438 433Q442 453 442 476Q442 540 407 576T321 613Q288 613 274 609T251 591T236 542L155 81Q152 62
152 49Q152 27 165 20T216 12Q219 12 219 6T216 0Q190 0 175 1L112 2L53 1Q38 0 13 0Q10 0 10 6Z" />
<glyph unicode="Q" glyph-name="Q" horiz-adv-x="651" d="M684 -172T685 -177T685 -184Q640 -196 602 -196Q542 -196 478 -144T368 1Q329 -12 284 -12Q215 -12 165 20T89 110T63 240Q63 276 69 313Q85 406 135 479T257 594T409 636Q480 636 531 604T608 515T635
387Q635 348 628 313Q611 218 559 143T432 28Q456 -31 493 -78T571 -151T646 -177Q663 -177 681 -173Q684 -172 685 -177ZM126 318T126 273Q126 200 149 141T218 48T326 14Q413 14 475 78T561 260Q571 309 571 359Q571 433 547 490T477 579T369 612Q280 612 218
546T135 366Q126 318 126 273Z" />
<glyph unicode="R" glyph-name="R" horiz-adv-x="614" d="M592 12T592 6T588 0H480Q456 0 409 86T301 327Q273 318 240 318L208 320L166 81Q162 62 162 47Q162 26 176 19T228 12Q232 12 232 6T229 0Q200 0 184 1L122 2L61 1Q44 0 15 0Q11 0 11 6T15 12Q49 12 66
17T93 37T108 81L190 544Q194 570 194 576Q194 598 180 605T126 613Q122 613 122 619T126 625L170 624Q208 622 231 622Q247 622 261 623T287 625Q316 628 338 628Q403 628 437 603T472 531Q472 476 438 426T349 347Q405 218 444 147T516 44T588 12Q592 12 592
6ZM234 341T259 341Q324 341 357 371T403 469Q407 492 407 515Q407 566 383 589T317 613Q292 613 280 610T261 591T248 542L213 344Q234 341 259 341Z" />
<glyph unicode="S" glyph-name="S" horiz-adv-x="462" d="M149 -12T118 -5T53 22Q45 27 47 41L61 173Q61 178 66 178T72 173Q74 101 107 53T208 4Q257 4 294 32T342 121Q345 138 345 151Q345 200 317 232T234 302Q197 329 176 347T139 392T124 452Q124 466 127
481Q137 531 167 566T241 618T330 636Q383 636 438 612Q451 605 450 595L437 484Q437 480 432 480T425 484Q421 543 396 582T314 621Q271 621 243 600T201 546T187 483Q187 452 202 428T238 386T296 343Q353 305 383 271T413 186Q413 168 411 158Q398 85 338 37T183
-12Q149 -12 118 -5Z" />
<glyph unicode="T" glyph-name="T" horiz-adv-x="553" d="M139 0T139 6T142 12Q176 12 192 17T217 36T231 81L313 544Q316 562 316 574Q316 594 305 601T262 608H238Q179 608 145 575T88 464Q88 462 84 462Q81 462 78 463T76 466Q84 491 99 552T120 647Q121 650
127 650T132 646Q129 625 171 625Q245 622 354 622Q405 622 467 624L530 625Q560 625 575 630T596 650Q598 653 603 653T607 648Q599 621 585 557T567 466Q566 463 561 463T556 468Q561 501 561 522Q561 568 539 588T465 608H441Q415 608 402 603T382 584T370 542L289
81Q286 63 286 50Q286 27 300 20T356 12Q358 12 358 6T356 0Q329 0 313 1L248 2L186 1Q170 0 142 0Q139 0 139 6Z" />
<glyph unicode="U" glyph-name="U" horiz-adv-x="618" d="M566 535T566 548Q566 613 502 613Q499 613 499 619T502 625L543 624Q573 622 592 622Q608 622 638 624L674 625Q678 625 678 619T674 613Q601 613 583 514L533 225Q513 113 444 50T275 -13Q189 -13 141
34T93 166Q93 189 98 221L156 545Q159 563 159 576Q159 599 145 606T92 613Q89 613 89 619T92 625L137 624Q175 622 197 622Q223 622 263 624L303 625Q307 625 307 619T303 613Q270 613 253 607T227 585T213 540L161 252Q154 207 154 181Q154 100 192 59T299 17Q381
17 437 73T511 227L563 518Q566 535 566 548Z" />
<glyph unicode="V" glyph-name="V" horiz-adv-x="593" d="M663 625T663 619T659 613Q629 613 606 597T559 536L282 1Q279 -3 271 -3Q261 -3 260 1L143 542Q135 581 121 597T81 613Q79 613 79 619T81 625L118 624Q144 622 158 622Q184 622 220 624L259 625Q262
625 262 619T259 613Q230 613 215 604T200 572Q200 559 202 552L304 89L539 542Q551 565 551 580Q551 597 536 605T489 613Q486 613 486 619T489 625L525 624Q555 622 581 622Q597 622 621 624L659 625Q663 625 663 619Z" />
<glyph unicode="W" glyph-name="W" horiz-adv-x="823" d="M893 625T893 619T889 613Q859 613 836 597T790 536L511 1Q510 -3 500 -3Q491 -3 490 1L428 284L282 1Q279 -3 270 -3Q261 -3 260 1L143 542Q135 581 121 597T81 613Q78 613 78 619T81 625L118 624Q144
622 158 622Q184 622 218 624L254 625Q258 625 258 619T254 613Q227 613 213 604T199 572Q199 559 201 552L306 84L422 312L372 542Q364 582 352 597T313 613Q310 613 310 619T313 625L349 624Q375 622 388 622Q406 622 430 624L455 625Q460 625 460 619T455 613Q438
613 432 609T425 593Q425 581 431 552L468 386L548 542Q565 574 565 591Q565 613 530 613Q527 613 527 619T530 625L553 624Q573 622 589 622Q604 622 628 624L664 625Q667 625 667 619T664 613Q635 613 613 597T567 536L474 356L535 83L770 542Q783 568 783 581Q783
597 769 605T723 613Q719 613 719 619T723 625L758 624Q788 622 811 622Q827 622 851 624L889 625Q893 625 893 619Z" />
<glyph unicode="X" glyph-name="X" horiz-adv-x="579" d="M622 625T622 619T617 613Q559 613 482 519L338 338L437 83Q451 44 471 28T528 12Q532 12 532 6T528 0Q506 0 493 1L444 2L376 1Q359 0 332 0Q328 0 328 6T332 12Q358 12 370 17T383 36Q383 42 380 51L289
286L139 94Q111 59 111 39Q111 12 158 12Q162 12 162 6T158 0Q132 0 118 1L56 2L20 1Q10 0 -13 0Q-17 0 -17 6T-13 12Q16 12 50 34T119 98L282 304L190 542Q175 581 157 597T109 613Q105 613 105 619T109 625L140 624Q162 622 173 622Q204 622 246 624L291 625Q295
625 295 619T291 613Q243 613 243 589Q243 585 247 573L331 356L462 524Q493 564 493 586Q493 613 448 613Q444 613 444 619T448 625L488 624Q522 622 550 622Q564 622 586 624L617 625Q622 625 622 619Z" />
<glyph unicode="Y" glyph-name="Y" horiz-adv-x="529" d="M604 625T604 619T600 613Q536 613 469 519L317 310L277 81Q273 62 273 47Q273 26 287 19T339 12Q343 12 343 6T339 0Q312 0 297 1L236 2L173 1Q158 0 131 0Q127 0 127 6T131 12Q164 12 181 17T206 37T219
81L257 301L155 542Q138 581 121 597T75 613Q71 613 71 619T75 625L109 624Q133 622 144 622Q169 622 213 624L259 625Q261 625 261 620Q261 613 257 613Q230 613 219 608T207 591Q207 585 212 573L313 331L449 524Q476 562 476 584Q476 613 434 613Q430 613 430
619T434 625L474 624Q508 622 533 622Q548 622 568 624L600 625Q604 625 604 619Z" />
<glyph unicode="Z" glyph-name="Z" horiz-adv-x="547" d="M325 0T22 0Q18 0 17 4T18 13L485 600Q490 605 490 606T483 608Q323 608 262 602T174 574T117 494Q115 490 110 491T107 497L171 655Q171 656 174 656Q177 656 180 655T182 651Q180 646 180 639Q180 630
189 628T227 625H561Q565 625 566 620T566 612L104 27Q100 22 100 21T106 19H316Q387 19 426 45T493 136Q493 139 497 139Q500 139 502 138T504 134L469 8Q469 5 466 2T460 -2Q325 0 22 0Z" />
<glyph unicode="[" glyph-name="bracketleft" horiz-adv-x="248" d="M27 -117T26 -115T27 -106L172 715Q173 722 174 723T181 725H308Q312 725 312 719T308 713Q272 713 254 707T226 687T212 642L93 -34Q89 -58 89 -65Q89 -88 105 -96T162 -105Q167 -105 167 -111T162
-117H32Q27 -117 26 -115Z" />
<glyph unicode="\" glyph-name="backslash" horiz-adv-x="305" d="M114 723Q113 727 120 730T136 733Q149 733 150 727L222 -159Q223 -163 215 -165T198 -168Q194 -168 190 -167T186 -163L114 723Z" />
<glyph unicode="]" glyph-name="bracketright" horiz-adv-x="248" d="M261 725T262 723T261 714L116 -107Q115 -114 114 -115T107 -117H-20Q-24 -117 -24 -111T-20 -105Q16 -105 34 -99T62 -79T76 -34L195 642Q199 666 199 673Q199 696 183 704T126 713Q122 713
122 719T126 725H256Q261 725 262 723Z" />
<glyph unicode="^" glyph-name="asciicircum" horiz-adv-x="353" d="M95 374T93 374Q90 374 87 376T85 380L243 629Q246 634 254 634Q263 634 263 629L333 380Q333 378 329 376T323 377L238 543L96 375Q95 374 93 374Z" />
<glyph unicode="_" glyph-name="underscore" horiz-adv-x="363" d="M-9 -76T-10 -70T-12 -55Q-12 -48 -11 -42T-8 -36H311Q313 -36 314 -42T316 -56Q316 -63 315 -69T311 -76H-7Q-9 -76 -10 -70Z" />
<glyph unicode="`" glyph-name="grave" horiz-adv-x="166" d="M130 727Q129 731 139 731Q152 731 169 726T186 716L181 476Q181 474 177 473T172 475L130 727Z" />
<glyph unicode="a" glyph-name="a" horiz-adv-x="434" d="M410 78T412 78Q415 78 417 75T417 69Q383 30 357 11T305 -9Q288 -9 280 1T271 36Q271 56 277 89L295 193Q249 100 192 44T81 -13Q19 -13 19 61Q19 69 21 91Q31 162 74 234T175 352T284 399Q303 399 321
392T350 371Q368 386 374 407Q375 410 381 409T386 406L328 89Q325 74 325 62Q325 31 343 31Q365 31 409 77Q410 78 412 78ZM153 36T193 73T266 166T309 277Q312 290 311 300Q311 330 296 347T249 364Q214 363 178 333T114 251T78 136Q75 114 75 96Q75 36 117 36Q153
36 193 73Z" />
<glyph unicode="b" glyph-name="b" horiz-adv-x="434" d="M374 399T396 371T418 295Q418 276 413 251Q397 170 352 110T251 19T147 -13Q102 -13 75 6T48 60Q48 65 50 77L152 619Q154 635 154 639Q154 666 131 666Q115 666 83 651H81Q77 651 76 656T79 662L208
725H210Q214 725 217 722T219 717L128 218Q163 298 219 348T335 399Q374 399 396 371ZM354 249T354 274Q354 311 340 332T294 353Q253 353 215 321T149 231T106 96Q105 91 105 82Q105 51 127 32T188 13Q221 13 253 37T311 109T348 220Q354 249 354 274Z" />
<glyph unicode="c" glyph-name="c" horiz-adv-x="345" d="M92 -13T61 31T29 142Q29 174 35 202Q47 262 81 307T160 375T249 399Q286 399 312 382T335 340Q334 326 326 317T302 308Q276 308 266 340Q262 354 250 365T214 377Q167 377 138 337T96 233Q89 193 89
167Q89 103 117 63T199 22Q250 22 305 67L307 68Q310 68 312 64T313 58Q233 -13 157 -13Q92 -13 61 31Z" />
<glyph unicode="d" glyph-name="d" horiz-adv-x="444" d="M338 89Q335 74 335 63Q335 31 355 31Q375 31 421 77Q423 79 424 79Q427 79 429 76T429 69Q393 29 367 10T316 -9Q281 -9 281 35Q281 51 288 89L307 188Q261 94 210 41T105 -13Q69 -13 46 10T23 85Q23
96 27 126Q40 198 81 261T180 361T295 399Q323 399 343 386L387 619Q389 635 389 640Q389 666 367 666Q351 666 318 651H316Q313 651 312 656T314 662L444 725H446Q449 725 452 722T454 717L338 89ZM182 36T225 85T297 199T325 300Q325 331 307 347T258 364Q193
362 146 311T82 166Q78 143 78 121Q78 79 93 58T137 36Q182 36 225 85Z" />
<glyph unicode="e" glyph-name="e" horiz-adv-x="343" d="M329 323T297 295T210 245T92 214Q87 182 87 159Q87 97 115 60T194 22Q250 22 294 55H296Q299 55 301 52T301 46Q231 -12 155 -12Q92 -12 60 28T27 133Q27 155 32 185Q41 236 74 285T156 367T260 399Q293
399 311 387T329 354Q329 323 297 295ZM170 372T139 332T95 228Q165 240 208 264T261 324Q263 334 263 338Q263 355 249 363T216 372Q170 372 139 332Z" />
<glyph unicode="f" glyph-name="f" horiz-adv-x="262" d="M354 726T373 711T391 674Q388 659 379 652T356 644Q342 644 336 652T322 678Q316 694 309 702T288 711Q249 711 221 643T173 439L164 377L228 381L267 383Q276 383 274 374Q271 364 261 353T240 342L219
345Q186 351 160 352L106 -21Q92 -118 74 -172T29 -251T-40 -275Q-73 -275 -89 -263T-103 -232Q-102 -218 -92 -210T-67 -201Q-52 -201 -45 -209T-33 -232Q-29 -245 -25 -251T-10 -257Q2 -257 10 -242T28 -182T50 -47L101 306Q103 326 103 332Q103 351 92 356T46
361Q43 361 43 366Q43 368 44 370T47 373Q82 373 97 383T117 418Q137 541 161 606T222 699T319 726Q354 726 373 711Z" />
<glyph unicode="g" glyph-name="g" horiz-adv-x="379" d="M389 394T389 382Q389 370 385 357T376 345Q353 357 320 357Q307 357 300 356Q321 327 321 284Q321 263 317 246Q308 202 282 169T222 117T151 98Q141 98 127 100Q114 85 112 68Q109 42 131 24T202 -19Q240
-39 262 -53T301 -88T318 -136Q318 -174 289 -207T212 -261T107 -281Q38 -281 -3 -252T-44 -180Q-44 -136 -7 -102T100 -28Q64 -2 64 28Q64 48 76 65T112 104Q82 115 66 143T49 207Q49 224 54 246Q66 309 114 350T221 392Q262 392 288 369Q341 394 384 394Q389
394 389 382ZM266 237T266 256Q266 304 248 339T196 374Q166 374 141 345T108 271Q105 252 105 233Q105 185 124 151T176 117Q206 117 230 144T263 219Q266 237 266 256ZM268 -137T240 -114T158 -61Q130 -48 110 -35Q62 -65 38 -89T13 -153Q13 -196 52 -224T155
-253Q209 -253 238 -230T268 -172Q268 -137 240 -114Z" />
<glyph unicode="h" glyph-name="h" horiz-adv-x="445" d="M423 79T425 79Q428 79 430 76T429 69Q395 29 369 10T317 -9Q299 -9 291 1T282 36Q282 56 288 89L317 248Q323 280 323 302Q323 360 280 360Q248 360 213 319T147 201T97 17L95 7Q93 0 85 -4T62 -8Q39
-8 39 -2L43 21Q49 45 54 74L156 619Q158 635 158 640Q158 666 136 666Q120 666 88 651H86Q82 651 81 655T83 662L212 725H214Q218 725 221 722T224 717L127 184Q163 285 211 342T313 399Q346 399 362 381T378 323Q378 300 372 267L339 89Q336 74 336 62Q336 31
355 31Q377 31 421 77Q423 79 425 79Z" />
<glyph unicode="i" glyph-name="i" horiz-adv-x="247" d="M91 -9T82 1T73 36Q73 51 80 89L121 297Q124 312 124 324Q124 356 104 356Q92 356 74 344T35 310Q34 309 32 309Q29 309 27 312T27 318Q62 358 90 376T143 395Q161 395 169 385T178 350Q178 331 172 299L131
89Q128 73 128 62Q128 31 147 31Q171 31 215 75Q217 77 219 77Q222 77 224 74T223 67Q189 28 162 10T109 -9Q91 -9 82 1ZM152 513T141 524T129 556Q129 575 140 586T172 597Q192 597 203 586T214 556Q214 536 203 525T172 513Q152 513 141 524Z" />
<glyph unicode="j" glyph-name="j" horiz-adv-x="239" d="M-54 -275T-70 -263T-85 -232Q-82 -217 -73 -209T-51 -201Q-38 -201 -33 -208T-23 -233Q-19 -247 -15 -253T-1 -260Q13 -260 23 -241T44 -181T67 -61L129 297Q132 312 132 324Q132 356 112 356Q101 356
83 344T43 310Q42 309 40 309Q37 309 35 312T35 318Q70 358 98 376T152 395Q169 395 177 385T185 351Q185 325 180 299L122 -38Q106 -132 88 -182T44 -254T-23 -275Q-54 -275 -70 -263ZM163 513T152 524T140 556Q140 575 151 586T183 597Q203 597 214 586T225 556Q225
536 214 525T183 513Q163 513 152 524Z" />
<glyph unicode="k" glyph-name="k" horiz-adv-x="417" d="M405 76T407 76Q411 76 413 73T413 67Q346 -9 307 -9Q284 -9 268 5T228 58L170 159Q161 174 154 180T136 186L127 185L95 7Q93 0 85 -4T62 -8Q39 -8 39 -2L43 21Q49 45 54 74L156 619Q158 635 158 640Q158
666 136 666Q120 666 88 651H86Q82 651 81 655T83 662L212 725H214Q218 725 221 722T224 717L149 308Q187 350 232 374T325 399Q354 399 367 385T380 351Q380 342 379 339Q372 303 327 269T206 208L273 92Q293 58 307 46T338 34Q364 34 404 75Q405 76 407 76ZM230
369T189 325T131 207L130 199Q220 220 260 247T309 321Q311 331 311 335Q311 351 303 360T281 369Q230 369 189 325Z" />
<glyph unicode="l" glyph-name="l" horiz-adv-x="237" d="M72 -9T64 1T55 37Q55 58 61 89L160 619Q162 627 162 641Q162 666 142 666Q126 666 94 651H92Q88 651 87 656T89 662L218 725H220Q224 725 227 722T230 717L114 89Q110 67 110 61Q110 46 115 39T130 31Q151
31 195 77Q197 79 199 79Q202 79 204 76T203 69Q169 29 143 10T91 -9Q72 -9 64 1Z" />
<glyph unicode="m" glyph-name="m" horiz-adv-x="676" d="M653 79T655 79Q658 79 660 76T659 69Q625 29 599 10T547 -9Q529 -9 521 1T513 35Q513 56 519 89L548 248Q553 274 553 302Q553 331 544 345T514 360Q483 360 450 320T386 202T335 19L333 7Q332 0 324
-4T302 -8Q288 -8 284 -7T279 -2L284 21L294 74L327 248Q331 275 331 299Q331 360 294 360Q263 360 229 319T165 200T116 17L114 7Q111 -8 82 -8Q68 -8 64 -7T59 -2Q59 -1 67 39L73 69L115 297Q118 312 118 324Q118 356 98 356Q86 356 68 344T29 310Q28 309 26
309Q23 309 21 312T21 318Q55 357 83 376T138 395Q155 395 163 385T171 351Q171 325 166 299L146 186Q181 286 228 342T327 399Q357 399 371 382T386 326Q386 302 380 267L364 179Q399 283 447 341T547 399Q578 399 593 381T608 324Q608 300 602 267L570 89Q567
73 567 62Q567 31 585 31Q607 31 651 77Q653 79 655 79Z" />
<glyph unicode="n" glyph-name="n" horiz-adv-x="465" d="M443 79T444 79Q447 79 449 76T449 69Q415 29 389 10T337 -9Q319 -9 311 1T302 36Q302 56 308 89L337 248Q343 280 343 302Q343 360 300 360Q267 360 232 318T165 196T115 7Q113 0 105 -4T82 -8Q68 -8
64 -7T59 -2L63 21Q69 45 74 74L115 297Q118 312 118 324Q118 356 98 356Q86 356 68 344T29 310Q28 309 26 309Q23 309 21 312T21 318Q55 357 83 376T138 395Q155 395 163 385T171 351Q171 325 166 299L145 178Q181 282 230 340T333 399Q366 399 382 381T398 324Q398
300 392 267L359 89Q356 74 356 62Q356 31 376 31Q397 31 441 77Q443 79 444 79Z" />
<glyph unicode="o" glyph-name="o" horiz-adv-x="398" d="M95 -14T62 28T28 138Q28 169 33 193Q44 251 75 298T150 372T243 399Q305 399 339 358T373 250Q373 222 367 193Q355 132 322 85T245 12T154 -14Q95 -14 62 28ZM231 11T265 48T311 149Q316 181 316 207Q316
276 290 325T214 375Q171 375 137 338T90 236Q84 206 84 175Q84 108 112 60T189 11Q231 11 265 48Z" />
<glyph unicode="p" glyph-name="p" horiz-adv-x="407" d="M333 393T358 367T383 289Q383 273 380 253Q371 186 335 128T248 34T145 -1Q109 -1 88 2L56 -178Q53 -195 53 -206Q53 -224 61 -232T89 -240Q95 -240 113 -238H114Q117 -238 118 -243T115 -249L-57 -275Q-61
-276 -62 -270T-59 -263Q-37 -259 -26 -253T-10 -232T2 -185L87 290L42 256L40 255Q37 255 35 259T34 265Q66 294 91 311L104 386Q104 388 118 400T143 427T158 459Q158 462 163 462Q165 462 167 461T169 457L150 351Q223 393 285 393Q333 393 358 367ZM326 241T326
261Q326 357 243 357Q198 357 146 328L95 44Q131 27 173 27Q236 27 274 80T323 220Q326 241 326 261Z" />
<glyph unicode="q" glyph-name="q" horiz-adv-x="415" d="M282 -178Q279 -193 279 -204Q279 -223 288 -232T320 -241Q326 -241 342 -239H343Q346 -239 347 -244T344 -250L168 -275Q164 -276 163 -270T166 -263Q190 -259 200 -253T217 -233T229 -185L289 155Q252
76 200 32T98 -13Q64 -13 44 13T23 82Q23 96 24 103Q33 180 72 248T169 358T286 399Q305 399 322 392T351 371Q370 387 376 407Q377 410 382 409T387 406L282 -178ZM169 36T206 65T269 144T306 253Q310 273 310 294Q310 364 253 364Q189 364 141 308T79 147Q78
138 78 121Q78 36 130 36Q169 36 206 65Z" />
<glyph unicode="r" glyph-name="r" horiz-adv-x="340" d="M308 395T326 381T344 348Q344 333 335 323T311 313Q300 313 294 318T280 333Q276 338 271 342T260 347Q238 347 208 289T150 150T111 7Q110 0 102 -4T79 -8Q66 -8 62 -7T57 -2L62 21L72 74L105 259Q111
292 111 311Q111 356 87 356Q65 356 26 319L24 318Q21 318 19 321T18 327Q49 361 75 378T126 395Q146 395 155 382T165 337Q165 312 157 261L136 147Q170 252 210 323T289 395Q308 395 326 381Z" />
<glyph unicode="s" glyph-name="s" horiz-adv-x="302" d="M62 -11T35 7T11 51Q12 64 21 71T41 79Q50 79 55 73T69 53Q81 33 93 22T131 11Q186 11 195 72Q196 77 196 85Q196 114 180 135T130 184Q97 211 81 231T64 281Q64 286 66 298Q75 343 113 369T199 396Q233
396 256 383T280 350Q280 335 271 327T249 319Q238 319 231 325T214 343Q203 359 193 366T163 374Q139 374 125 361T110 321Q110 294 126 273T175 224Q210 193 226 172T243 120Q243 88 224 58T172 8T101 -11Q62 -11 35 7Z" />
<glyph unicode="t" glyph-name="t" horiz-adv-x="295" d="M297 383T297 376Q297 368 286 355T265 342Q260 342 226 346T158 352L114 104Q111 88 111 75Q111 50 123 38T160 26Q186 26 209 37T256 70H257Q260 70 263 67T264 62Q219 23 186 6T121 -12Q92 -12 73 3T54
51Q54 57 56 73L99 306Q103 325 103 338Q103 352 95 356T65 361Q62 361 62 366Q62 368 63 370T66 373Q100 373 125 395T159 450Q161 453 168 453Q178 453 176 450L163 376Q212 378 256 381L290 383Q297 383 297 376Z" />
<glyph unicode="u" glyph-name="u" horiz-adv-x="465" d="M437 77T439 77Q442 77 444 74T444 68Q409 28 381 10T327 -9Q310 -9 302 1T294 35Q294 61 299 87L320 208Q284 104 235 46T132 -13Q66 -13 66 61Q66 88 73 119L109 297Q112 314 112 324Q112 355 93 355Q73
355 27 309Q25 307 23 307Q20 307 18 310T19 317Q54 357 80 376T132 395Q167 395 167 349Q167 334 160 297L128 138Q121 100 121 83Q121 26 164 26Q197 26 232 68T299 190T350 379Q353 394 382 394Q406 394 406 388L402 365Q396 341 391 312L350 89Q347 74 347
62Q347 30 367 30Q378 30 396 42T436 76Q437 77 439 77Z" />
<glyph unicode="v" glyph-name="v" horiz-adv-x="432" d="M142 -13T118 21T94 104Q94 137 107 172T147 262L169 310Q173 318 173 325Q173 335 159 335H108Q81 335 69 332T49 318T33 283Q32 280 27 280Q24 280 23 282T22 287Q38 333 48 353T74 380T121 387H210Q221
387 221 383Q221 381 218 375Q187 304 166 238T145 128Q145 85 163 61T214 36Q259 36 301 80T361 195Q370 230 370 253Q370 282 362 297T340 324Q329 334 323 342T316 362Q316 379 328 387T355 396Q378 396 389 370T400 302Q400 270 396 245Q385 170 351 111T271
20T185 -13Q142 -13 118 21Z" />
<glyph unicode="w" glyph-name="w" horiz-adv-x="618" d="M586 396T586 304Q586 272 582 245Q572 171 540 112T468 20T391 -13Q364 -13 343 5T309 57Q279 23 247 5T185 -13Q142 -13 119 19T96 100Q96 137 112 180T156 282Q160 291 163 298T169 310Q173 318 173
325Q173 335 159 335H108Q81 335 69 332T49 318T33 283Q32 280 27 280Q24 280 23 282T22 287Q38 333 48 353T74 380T121 387H210Q221 387 221 383Q221 381 218 375Q193 319 175 260T150 157Q148 135 148 126Q148 83 165 58T214 33Q235 33 257 45T301 81Q291 117
291 165Q291 201 297 237Q307 304 328 348T375 392Q393 392 402 374T411 326Q411 314 407 284Q389 172 336 93Q365 33 419 33Q444 33 470 53T518 111T548 195Q552 219 552 242Q552 274 544 292T521 329Q512 338 508 345T503 362Q503 379 515 387T542 396Q586 396
586 304ZM313 236T313 207Q313 155 327 115Q366 177 378 255Q380 275 380 281Q380 304 374 317T354 330Q340 330 331 310T317 261Q313 236 313 207Z" />
<glyph unicode="x" glyph-name="x" horiz-adv-x="421" d="M381 395T397 382T413 351Q413 338 405 330T385 322Q372 322 359 333Q348 342 339 342Q316 342 296 312L232 219L271 85Q281 53 292 43T318 33Q345 33 384 75Q385 76 387 76Q391 76 393 73T393 67Q358
28 332 10T284 -9Q262 -9 249 3T224 53L192 162L130 63Q102 18 87 5T49 -9Q29 -9 13 6T-1 40Q1 51 9 57T28 63Q37 63 42 61T53 53Q64 44 74 44Q96 44 117 73L187 178L153 292Q143 328 130 340T102 352Q76 352 36 311Q35 310 33 310Q30 310 28 313T28 319Q63 358
89 376T137 395Q158 395 174 380T201 325L227 237L282 323Q310 368 325 381T362 395Q381 395 397 382Z" />
<glyph unicode="y" glyph-name="y" horiz-adv-x="443" d="M406 396T406 341Q406 259 329 108T150 -162T-18 -281Q-38 -281 -49 -271T-58 -239Q-52 -212 -18 -212Q25 -212 51 -209T101 -188Q132 -167 182 -97L183 -46Q183 142 153 246T69 351Q38 351 19 314Q18
311 13 311Q6 311 7 317Q45 395 100 395Q142 395 172 347T218 216T234 30Q234 -5 233 -23Q276 44 309 109T351 211Q356 230 356 253Q356 287 340 333Q332 352 332 363Q332 377 342 386T368 396Q406 396 406 341Z" />
<glyph unicode="z" glyph-name="z" horiz-adv-x="344" d="M348 397Q351 397 353 393T354 387L73 67Q84 71 102 71Q127 71 198 58Q256 48 271 48Q287 48 296 58T316 94Q316 95 319 95Q322 95 325 94T327 90Q313 47 304 28T284 2T255 -5Q230 -5 196 1T155 8Q93 21
56 22Q40 22 28 16T1 -7H0Q-2 -7 -5 -3T-7 2L275 323Q266 318 246 318Q231 318 208 322T163 331Q117 342 100 342Q84 342 74 331T53 293Q52 290 49 290Q46 290 44 292T42 299Q58 346 68 365T90 389T125 394Q146 393 202 381Q261 369 291 367Q307 367 319 373T346
396L348 397Z" />
<glyph unicode="{" glyph-name="braceleft" horiz-adv-x="261" d="M114 -117T92 -101T69 -34Q69 0 82 80Q96 159 96 202Q96 244 84 268T43 298Q41 298 41 304T43 311Q92 317 117 373T161 529Q176 615 193 655T239 710T320 725Q323 725 323 719T320 713Q286 713
263 686T231 607Q207 487 193 436T153 357T76 305Q116 284 132 260T148 192Q148 163 141 113T124 1Q120 -25 120 -36Q120 -69 134 -87T174 -105Q177 -105 177 -111T174 -117Q114 -117 92 -101Z" />
<glyph unicode="|" glyph-name="bar" horiz-adv-x="152" d="M33 -160T19 -160Q11 -160 5 -158T-1 -151L153 731Q154 736 168 736Q176 736 183 734T189 727L34 -154Q33 -160 19 -160Z" />
<glyph unicode="}" glyph-name="braceright" horiz-adv-x="261" d="M186 725T208 709T231 642Q231 608 218 528Q204 449 204 406Q204 364 216 340T257 310Q259 310 259 304T257 297Q208 291 183 235T139 79Q124 -7 107 -47T61 -102T-20 -117Q-23 -117 -23 -111T-20
-105Q14 -105 37 -78T69 1Q93 121 107 172T147 251T224 303Q184 324 168 348T152 416Q152 445 159 495T176 607Q180 633 180 644Q180 677 166 695T126 713Q123 713 123 719T126 725Q186 725 208 709Z" />
<glyph unicode="~" glyph-name="asciitilde" horiz-adv-x="443" d="M52 152Q50 152 48 154T46 159Q72 192 99 212T158 232Q173 232 192 227T230 216Q281 197 314 197Q343 197 359 207T391 235H392Q395 235 397 233T398 228Q363 185 341 170T291 155Q273 155 252
160T212 172Q186 181 167 185T128 190Q109 190 97 186T75 172T53 152H52Z" />
<glyph unicode="&#xa0;" glyph-name="uni00A0" horiz-adv-x="234" />
<glyph unicode="&#xa1;" glyph-name="exclamdown" horiz-adv-x="220" d="M161 364T172 353T184 322Q184 303 173 292T141 281Q121 281 110 292T99 322Q99 342 110 353T141 364Q161 364 172 353ZM109 168T114 168T119 162L113 112Q98 -11 89 -100T77 -267Q77 -271
64 -275T35 -279Q19 -279 6 -275T-6 -267Q24 -180 49 -80T108 163Q109 168 114 168Z" />
<glyph unicode="&#xa2;" glyph-name="cent" horiz-adv-x="489" d="M467 446T468 443T469 432L459 331Q459 326 454 326T449 331Q446 395 412 429T318 465L237 2H250Q305 2 349 36T422 140Q424 143 427 143Q430 143 432 142T434 138L403 32Q401 23 400 21T389 14Q312
-12 241 -12H234L218 -103Q218 -109 210 -109Q205 -109 202 -107T199 -101L215 -11Q122 -3 80 54T37 189Q37 219 41 240Q51 303 88 355T181 440T301 479L316 563Q316 569 324 569Q329 569 332 567T335 560L321 480H329Q363 480 400 472T460 450Q467 446 468 443ZM101
215T101 189Q101 118 130 67T218 5L299 465Q230 460 177 399T106 248Q101 215 101 189Z" />
<glyph unicode="&#xa3;" glyph-name="sterling" horiz-adv-x="388" d="M367 456T366 444L354 342Q354 340 352 339T348 338Q346 338 344 339T342 344Q343 393 325 429T264 466Q218 466 192 435T157 359Q153 338 153 313Q153 294 155 272T158 241H258Q265 241 265
230Q265 219 259 219H160Q162 176 156 144Q149 107 133 84T93 42H204Q243 42 263 48T296 71T323 124Q325 127 327 127Q330 127 332 125T334 120Q311 43 306 11Q305 4 302 2T291 0H0Q-5 0 -5 6Q-5 11 0 13Q49 25 70 48T98 113Q103 141 103 171Q103 197 100 219H56Q53
219 52 222T50 230Q50 241 56 241H98Q94 271 94 288Q94 306 99 336Q111 408 161 444T275 480Q317 480 353 462Q367 456 366 444Z" />
<glyph unicode="&#xa4;" glyph-name="currency" horiz-adv-x="375" d="M300 292Q320 264 320 226Q320 159 270 111L305 63L275 36L242 90Q201 65 158 65Q120 65 94 86L45 36L28 59L76 106Q57 134 57 177Q57 249 109 294L74 343L104 368L139 314Q177 335 215 335Q255
335 283 312L338 365L354 343L300 292ZM208 83T231 109T264 184Q267 201 267 218Q267 260 249 288T195 317Q164 317 142 293T110 220Q107 201 107 181Q107 139 123 111T175 83Q208 83 231 109Z" />
<glyph unicode="&#xa5;" glyph-name="yen" horiz-adv-x="433" d="M479 468T479 462T475 456Q417 456 350 365L251 228L248 213H341Q347 213 347 203Q347 192 341 192H93Q87 192 87 203Q87 213 93 213H192L193 219L124 386Q108 425 92 440T48 456Q45 456 45 462T48
468Q60 468 80 466L106 465Q133 465 177 467L221 468Q224 468 224 462T221 456Q175 456 175 431Q175 424 180 412L249 248L332 368Q357 405 357 428Q357 456 326 456Q322 456 322 462T326 468L365 467Q395 465 418 465Q432 465 450 467L475 468Q479 468 479 462ZM336
151T336 141Q336 130 330 130H233L224 79Q220 53 220 48Q220 26 234 19T289 12Q293 12 293 6T289 0Q260 0 244 1L183 2L122 1Q105 0 78 0Q75 0 75 6T78 12Q112 12 129 17T155 37T169 82L178 130H83Q77 130 77 141Q77 151 83 151H330Q336 151 336 141Z" />
<glyph unicode="&#xa6;" glyph-name="brokenbar" horiz-adv-x="152" d="M124 351T110 351Q102 351 95 353T89 360L153 731Q154 736 167 736Q176 736 183 734T189 727L124 357Q124 351 110 351ZM32 -163T19 -163Q11 -163 4 -161T-2 -154L62 216Q62 222 76 222Q84
222 91 220T98 213L33 -158Q32 -163 19 -163Z" />
<glyph unicode="&#xa7;" glyph-name="section" horiz-adv-x="391" d="M371 548T370 538L358 438Q358 436 353 436T348 438Q348 462 336 487T300 530T248 548Q222 548 203 531T177 476Q175 462 175 455Q175 421 193 398T251 341Q296 305 319 274T343 193Q343 179
340 162Q334 126 315 95T257 30Q280 0 280 -36Q280 -51 278 -60Q267 -123 222 -155T121 -188Q73 -188 44 -171Q36 -164 37 -154L48 -55Q50 -52 55 -52T59 -55Q60 -78 72 -104T107 -147T159 -165Q185 -165 204 -148T231 -92Q233 -78 233 -72Q233 -37 215 -14T156
43Q126 67 108 85T78 130T65 191Q65 206 68 222Q73 258 92 288T150 353Q126 386 126 421Q126 428 128 444Q140 507 185 539T287 572Q334 572 363 554Q371 548 370 538ZM292 143T292 158Q292 206 270 237T204 303Q170 331 158 345Q128 311 118 257Q115 239 115 224Q115
177 137 147T203 81Q234 57 250 39Q278 71 289 126Q292 143 292 158Z" />
<glyph unicode="&#xa8;" glyph-name="dieresis" horiz-adv-x="275" d="M99 478T88 489T77 519Q77 538 88 549T119 560Q139 560 149 550T160 519Q160 500 150 489T119 478Q99 478 88 489ZM250 478T239 489T227 519Q227 538 238 549T270 560Q290 560 300 550T311
519Q311 500 301 489T270 478Q250 478 239 489Z" />
<glyph unicode="&#xa9;" glyph-name="copyright" horiz-adv-x="725" d="M299 -102T231 -69T119 31T75 190Q75 279 120 349T240 458T399 498Q474 498 531 467T618 384T649 270Q649 208 617 155T529 71T403 39Q343 39 303 61T244 119T225 195Q225 246 250 284T314
343T396 364Q433 364 462 350T493 314Q493 302 485 294T463 285Q444 285 427 311Q414 329 403 338T370 347Q326 347 307 315T288 221Q288 152 323 109T437 65Q483 65 522 84T586 143T611 241Q611 305 579 358T492 443T368 475Q290 475 235 440T150 346T121 213Q121
122 163 58T269 -39T398 -71Q457 -71 499 -62T595 -25H596Q598 -25 600 -27T601 -32Q547 -72 492 -87T370 -102Q299 -102 231 -69Z" />
<glyph unicode="&#xaa;" glyph-name="ordfeminine" horiz-adv-x="276" d="M307 424T309 424Q311 424 314 421T316 416Q272 364 241 364Q218 364 218 394Q218 409 222 428L232 488Q203 430 166 396T94 361Q54 361 54 410Q54 458 81 510T150 598T227 633Q254 633
270 616Q279 627 283 639Q283 640 286 640Q288 640 290 639T293 637L255 428Q253 414 253 410Q253 390 265 390Q277 390 307 423Q307 424 309 424ZM136 392T163 417T213 480T244 554Q245 559 245 568Q245 587 236 598T207 610Q184 610 160 590T117 535T92 461Q90
451 90 434Q90 392 116 392Q136 392 163 417ZM274 313T274 300Q274 295 273 291T269 287H44Q40 287 40 301Q40 313 43 313H269Q274 313 274 300Z" />
<glyph unicode="&#xab;" glyph-name="guillemotleft" horiz-adv-x="424" d="M243 364Q246 364 249 361T250 356L113 201L196 47V46Q196 43 193 40T188 40L53 189Q50 194 50 199Q50 206 56 212L242 364H243ZM391 364Q394 364 397 361T397 356L260 201L344 47V46Q344
43 341 40T335 40L200 189Q197 192 197 198Q197 206 204 212L389 364H391Z" />
<glyph unicode="&#xac;" glyph-name="logicalnot" horiz-adv-x="397" d="M365 78Q365 76 359 75T344 73Q337 73 331 74T325 77V228H35Q33 228 32 234T30 249Q30 256 31 262T34 268H365V78Z" />
<glyph unicode="&#xad;" glyph-name="uni00AD" horiz-adv-x="305" d="M30 166T29 174T27 192Q27 211 30 212L280 258Q284 259 284 235Q284 214 280 214L32 167Q30 166 29 174Z" />
<glyph unicode="&#xae;" glyph-name="registered" horiz-adv-x="762" d="M523 725T587 688T686 589T721 451Q721 365 679 293T566 180T411 138Q338 138 270 172T160 273T117 428Q117 513 162 581T281 687T439 725Q523 725 587 688ZM512 166T567 197T653 287T683
422Q683 501 647 565T548 665T406 702Q328 702 273 668T189 578T160 454Q160 365 201 300T306 200T438 166Q512 166 567 197ZM586 285T585 282T582 278H504Q494 278 477 318T431 440Q408 436 376 436L358 334Q356 316 356 313Q356 298 365 294T402 289Q403 289
403 287Q403 284 402 282T400 278L327 279L256 278Q255 278 255 280Q255 283 256 285T258 289Q281 289 291 292T306 304T315 334L354 549Q356 565 356 568Q356 583 347 588T311 593Q310 593 310 595Q310 598 311 601T313 605L384 604Q398 604 428 606L467 607Q548
607 548 556Q548 547 547 542Q536 482 476 454Q499 386 512 354T542 305T584 286Q586 285 585 282ZM398 452T416 452Q451 452 471 467T498 518Q500 536 500 542Q500 594 449 594Q429 594 420 592T405 580T395 547L379 455Q398 452 416 452Z" />
<glyph unicode="&#xaf;" glyph-name="overscore" horiz-adv-x="333" d="M94 479T94 493Q94 507 100 507H338Q344 507 344 493Q344 479 338 479H100Q94 479 94 493Z" />
<glyph unicode="&#xb0;" glyph-name="degree" horiz-adv-x="299" d="M127 373T98 407T68 487Q68 502 71 515Q81 562 124 596T226 630Q282 630 310 598T339 518Q339 477 318 444T262 392T184 373Q127 373 98 407ZM234 387T252 411T280 482Q285 508 285 538Q285
578 270 597T220 617Q178 617 158 591T127 518Q121 491 121 467Q121 387 194 387Q234 387 252 411Z" />
<glyph unicode="&#xb1;" glyph-name="plusminus" horiz-adv-x="398" d="M32 233T31 239T29 254Q29 261 30 266T33 272H179V418Q179 422 199 422Q219 422 219 418V272H364Q366 272 367 266T369 253Q369 246 368 240T364 233H219V88Q219 86 213 85T198 83Q191 83
185 84T179 87V233H34Q32 233 31 239ZM366 37T367 32T369 19Q369 12 368 7T364 1H34Q32 1 31 7T29 20Q29 26 30 31T33 37H364Q366 37 367 32Z" />
<glyph unicode="&#xb2;" glyph-name="uni00B2" horiz-adv-x="228" d="M239 729T255 713T271 670Q271 660 270 654Q265 626 242 597T176 523Q148 495 132 476T106 440H107Q167 440 189 443T220 456T242 496Q244 499 247 499Q250 499 252 498T254 493L237 406Q237
403 234 403H73Q70 403 70 405T71 412Q80 432 99 458T139 509Q179 557 200 589T227 653Q228 657 228 666Q228 685 218 696T191 707Q170 707 151 690T121 648Q119 646 116 646Q113 646 111 647T109 652Q144 729 209 729Q239 729 255 713Z" />
<glyph unicode="&#xb3;" glyph-name="uni00B3" horiz-adv-x="228" d="M267 638T246 612T193 573Q251 559 251 508Q251 483 237 457T198 414T140 397Q79 397 69 466Q68 470 74 471T81 468Q91 415 136 415Q162 415 180 433T204 488Q206 502 206 508Q206 537 191
551T151 565Q148 565 148 571T151 577Q171 577 187 591T213 627T223 666Q223 684 213 695T185 707Q165 707 147 691T118 651Q116 649 115 649Q112 649 109 651T107 655Q122 688 146 708T205 729Q234 729 250 713T267 670Q267 638 246 612Z" />
<glyph unicode="&#xb4;" glyph-name="acute" horiz-adv-x="212" d="M118 470T113 472T109 476L202 716Q204 721 224 726T257 731Q267 731 266 727L119 473Q118 470 113 472Z" />
<glyph unicode="&#xb6;" glyph-name="paragraph" horiz-adv-x="594" d="M226 -193T210 -181T197 -150Q199 -134 209 -126T232 -118Q246 -118 251 -124T261 -143Q266 -156 272 -162T294 -169Q314 -169 325 -156T346 -106T370 8L391 125Q355 122 312 122Q213 122
145 170T76 324Q76 353 82 386Q105 505 185 566T386 628Q414 628 445 625Q511 622 519 622Q538 622 572 624L619 625Q624 625 624 619T619 613Q580 613 555 592T522 532L439 55Q416 -74 372 -133T257 -193Q226 -193 210 -181Z" />
<glyph unicode="&#xb7;" glyph-name="middot" horiz-adv-x="200" d="M81 162T70 173T58 204Q58 223 69 234T101 245Q121 245 132 234T143 204Q143 184 132 173T101 162Q81 162 70 173Z" />
<glyph unicode="&#xb8;" glyph-name="cedilla" horiz-adv-x="196" d="M-23 -275T-39 -265T-55 -236Q-55 -231 -54 -228Q-53 -219 -45 -213T-25 -207Q-14 -207 -8 -213T5 -233Q10 -244 15 -250T29 -256Q57 -256 66 -218Q69 -188 28 -138Q12 -119 12 -97Q12 -82
22 -60L52 0H64Q50 -33 50 -51Q50 -74 73 -104Q89 -125 97 -141T105 -175Q105 -184 104 -188Q100 -219 72 -247T1 -275Q-23 -275 -39 -265Z" />
<glyph unicode="&#xb9;" glyph-name="uni00B9" horiz-adv-x="237" d="M78 403T78 408T82 414Q112 414 124 418T143 435T156 483L177 601Q186 655 186 663Q186 680 175 680Q168 680 154 674T121 660H119Q115 660 114 664T116 671L231 729H233Q236 729 237 727T238
722L197 483Q191 447 191 441Q191 424 201 419T242 414Q246 414 246 409T242 403Q222 403 210 404L165 405L117 404Q104 403 82 403Q78 403 78 408Z" />
<glyph unicode="&#xba;" glyph-name="ordmasculine" horiz-adv-x="269" d="M111 359T88 388T65 464Q65 480 68 498Q75 539 97 569T150 614T209 630Q251 630 273 600T296 524Q296 479 275 441T220 381T151 359Q111 359 88 388ZM200 377T222 402T253 475Q256 496
256 514Q256 559 238 586T188 613Q158 613 137 589T108 518Q104 499 104 477Q104 433 122 405T171 377Q200 377 222 402ZM47 287T46 291T44 301Q44 305 45 309T48 313H269Q274 313 274 300Q274 295 273 291T269 287H49Q47 287 46 291Z" />
<glyph unicode="&#xbb;" glyph-name="guillemotright" horiz-adv-x="423" d="M35 37Q32 37 29 40T28 46L166 200L82 354V355Q82 358 85 361T90 361L226 212Q229 208 229 202Q229 195 223 189L36 37H35ZM182 37Q179 37 176 40T175 46L313 200L229 354V355Q229 358
232 361T237 361L373 212Q376 208 376 202Q376 195 370 189L184 37H182Z" />
<glyph unicode="&#xbc;" glyph-name="onequarter" horiz-adv-x="548" d="M60 309T60 314T64 320Q94 320 106 324T125 341T138 389L159 507Q168 561 168 569Q168 586 157 586Q150 586 136 580T103 566H101Q97 566 96 570T98 577L213 635H215Q218 635 219 633T220
628L179 389Q173 353 173 347Q173 330 183 325T224 320Q228 320 228 315T224 309Q204 309 192 310L147 311L99 310Q86 309 64 309Q60 309 60 314ZM151 -4T149 -4Q144 -4 136 0T128 7L466 625Q467 626 469 626Q475 626 483 622T489 613L151 -3Q151 -4 149 -4ZM511
116T511 112Q511 105 509 96T505 87L466 90L458 41L456 25Q456 16 463 13T491 10Q496 10 496 4T491 -2Q477 -2 469 -1L436 0L394 -1Q384 -2 365 -2Q361 -2 361 4T365 10Q397 10 406 15T420 41L429 91Q367 93 317 93Q316 93 315 95T316 99L497 325L499 326Q502 326
504 325T506 320L471 114L510 116Q511 116 511 112ZM390 110T432 112L457 255L355 114Q351 110 357 110Q390 110 432 112Z" />
<glyph unicode="&#xbd;" glyph-name="onehalf" horiz-adv-x="562" d="M60 309T60 314T64 320Q94 320 106 324T125 341T138 389L159 507Q168 561 168 569Q168 586 157 586Q150 586 136 580T103 566H101Q97 566 96 570T98 577L213 635H215Q218 635 219 633T220 628L179
389Q173 353 173 347Q173 330 183 325T224 320Q228 320 228 315T224 309Q204 309 192 310L147 311L99 310Q86 309 64 309Q60 309 60 314ZM151 -4T149 -4Q144 -4 136 0T128 7L466 625Q467 626 469 626Q475 626 483 622T489 613L151 -3Q151 -4 149 -4ZM503 326T519
310T535 267Q535 257 534 251Q529 223 506 194T440 120Q412 92 396 73T370 37H371Q431 37 453 40T484 53T506 93Q508 96 511 96Q514 96 516 95T518 90L501 3Q501 0 498 0H337Q335 0 334 2T335 9Q344 29 363 55T403 106Q443 154 464 186T491 250Q492 254 492 263Q492
282 482 293T455 304Q434 304 415 287T385 245Q383 243 380 243Q377 243 375 244T373 249Q408 326 473 326Q503 326 519 310Z" />
<glyph unicode="&#xbe;" glyph-name="threequarters" horiz-adv-x="539" d="M249 544T228 518T175 479Q233 465 233 414Q233 389 219 363T180 320T122 303Q61 303 51 372Q50 376 56 377T63 374Q73 321 118 321Q144 321 162 339T186 394Q188 408 188 414Q188 443
173 457T133 471Q130 471 130 477T133 483Q153 483 169 497T195 533T205 572Q205 590 195 601T167 613Q147 613 129 597T100 557Q98 555 97 555Q94 555 91 557T89 561Q104 594 128 614T187 635Q216 635 232 619T249 576Q249 544 228 518ZM142 -4T140 -4Q135 -4
127 0T119 7L457 625Q458 626 460 626Q466 626 474 622T480 613L142 -3Q142 -4 140 -4ZM502 116T502 112Q502 105 500 96T496 87L457 90L449 41L447 25Q447 16 454 13T482 10Q487 10 487 4T482 -2Q468 -2 460 -1L427 0L385 -1Q375 -2 356 -2Q352 -2 352 4T356 10Q388
10 397 15T411 41L420 91Q358 93 308 93Q307 93 306 95T307 99L488 325L490 326Q493 326 495 325T497 320L462 114L501 116Q502 116 502 112ZM381 110T423 112L448 255L346 114Q342 110 348 110Q381 110 423 112Z" />
<glyph unicode="&#xbf;" glyph-name="questiondown" horiz-adv-x="304" d="M226 360T237 349T249 318Q249 299 238 288T206 277Q186 277 175 288T164 318Q164 338 175 349T206 360Q226 360 237 349ZM193 123T193 76Q193 55 190 41Q185 10 169 -10T121 -57Q88 -84
70 -107T44 -167Q42 -176 42 -192Q42 -224 58 -242T104 -261Q130 -261 141 -249T159 -215Q166 -195 174 -184T199 -172Q213 -172 220 -180T227 -200Q227 -205 226 -208Q222 -236 184 -255T97 -275Q45 -275 14 -251T-17 -182Q-17 -169 -14 -155Q-6 -115 16 -88T59
-44T86 -22Q126 12 143 39T167 102Q172 121 170 159Q170 163 175 163T181 160Q193 123 193 76Z" />
<glyph unicode="&#xc0;" glyph-name="Agrave" horiz-adv-x="600" d="M567 12T567 6T563 0Q548 0 518 2Q482 4 462 4Q441 4 409 2Q379 0 365 0Q362 0 362 6T365 12Q402 12 416 21T431 56Q431 73 429 84L389 330H238L129 132Q98 74 98 48Q98 27 114 20T163 12Q167
12 167 6T162 0Q151 0 117 2Q79 4 58 4Q37 4 9 2Q-19 0 -34 0Q-38 0 -38 6T-34 12Q-5 12 28 37T96 123L382 635Q384 638 389 638Q398 638 400 633L488 84Q493 53 499 39T519 19T563 12Q567 12 567 6ZM249 351H386L355 544L249 351ZM431 706T389 723T293 756Q284
758 301 766T341 780T368 784Q440 723 487 691Q488 691 488 689Q488 686 486 684T480 682Q431 706 389 723Z" />
<glyph unicode="&#xc1;" glyph-name="Aacute" horiz-adv-x="600" d="M567 12T567 6T563 0Q548 0 518 2Q482 4 462 4Q441 4 409 2Q379 0 365 0Q362 0 362 6T365 12Q402 12 416 21T431 56Q431 73 429 84L389 330H238L129 132Q98 74 98 48Q98 27 114 20T163 12Q167
12 167 6T162 0Q151 0 117 2Q79 4 58 4Q37 4 9 2Q-19 0 -34 0Q-38 0 -38 6T-34 12Q-5 12 28 37T96 123L382 635Q384 638 389 638Q398 638 400 633L488 84Q493 53 499 39T519 19T563 12Q567 12 567 6ZM249 351H386L355 544L249 351ZM336 678Q332 678 331 682T333
689Q370 708 446 754L495 784Q499 786 518 780T552 765T560 756Q498 741 447 723T338 679L336 678Z" />
<glyph unicode="&#xc2;" glyph-name="Acircumflex" horiz-adv-x="600" d="M567 12T567 6T563 0Q548 0 518 2Q482 4 462 4Q441 4 409 2Q379 0 365 0Q362 0 362 6T365 12Q402 12 416 21T431 56Q431 73 429 84L389 330H238L129 132Q98 74 98 48Q98 27 114 20T163
12Q167 12 167 6T162 0Q151 0 117 2Q79 4 58 4Q37 4 9 2Q-19 0 -34 0Q-38 0 -38 6T-34 12Q-5 12 28 37T96 123L382 635Q384 638 389 638Q398 638 400 633L488 84Q493 53 499 39T519 19T563 12Q567 12 567 6ZM249 351H386L355 544L249 351ZM302 660Q299 660 297
662T297 667L404 764Q407 769 413 769Q419 769 422 764L497 667V666Q497 663 495 661T490 660L404 717L303 660H302Z" />
<glyph unicode="&#xc3;" glyph-name="Atilde" horiz-adv-x="600" d="M567 12T567 6T563 0Q548 0 518 2Q482 4 462 4Q441 4 409 2Q379 0 365 0Q362 0 362 6T365 12Q402 12 416 21T431 56Q431 73 429 84L389 330H238L129 132Q98 74 98 48Q98 27 114 20T163 12Q167
12 167 6T162 0Q151 0 117 2Q79 4 58 4Q37 4 9 2Q-19 0 -34 0Q-38 0 -38 6T-34 12Q-5 12 28 37T96 123L382 635Q384 638 389 638Q398 638 400 633L488 84Q493 53 499 39T519 19T563 12Q567 12 567 6ZM249 351H386L355 544L249 351ZM282 695Q279 695 277 697T276
702Q294 726 316 745T363 764Q380 764 415 753Q459 739 488 739Q506 739 516 745T540 766H542Q545 766 547 764T547 759Q520 723 503 711T466 698Q448 698 429 703T405 709Q364 722 335 722Q318 722 309 717T293 705T283 695H282Z" />
<glyph unicode="&#xc4;" glyph-name="Adieresis" horiz-adv-x="600" d="M567 12T567 6T563 0Q548 0 518 2Q482 4 462 4Q441 4 409 2Q379 0 365 0Q362 0 362 6T365 12Q402 12 416 21T431 56Q431 73 429 84L389 330H238L129 132Q98 74 98 48Q98 27 114 20T163 12Q167
12 167 6T162 0Q151 0 117 2Q79 4 58 4Q37 4 9 2Q-19 0 -34 0Q-38 0 -38 6T-34 12Q-5 12 28 37T96 123L382 635Q384 638 389 638Q398 638 400 633L488 84Q493 53 499 39T519 19T563 12Q567 12 567 6ZM249 351H386L355 544L249 351ZM316 717T305 728T294 758Q294
777 305 788T336 799Q356 799 366 789T377 758Q377 739 367 728T336 717Q316 717 305 728ZM467 717T456 728T444 758Q444 777 455 788T487 799Q507 799 517 789T528 758Q528 739 518 728T487 717Q467 717 456 728Z" />
<glyph unicode="&#xc5;" glyph-name="Aring" horiz-adv-x="600" d="M567 12T567 6T563 0Q548 0 518 2Q482 4 462 4Q441 4 409 2Q379 0 365 0Q362 0 362 6T365 12Q402 12 416 21T431 56Q431 73 429 84L389 330H238L129 132Q98 74 98 48Q98 27 114 20T163 12Q167
12 167 6T162 0Q151 0 117 2Q79 4 58 4Q37 4 9 2Q-19 0 -34 0Q-38 0 -38 6T-34 12Q-5 12 28 37T96 123L382 635Q384 638 389 638Q398 638 400 633L488 84Q493 53 499 39T519 19T563 12Q567 12 567 6ZM249 351H386L355 544L249 351ZM360 671T339 694T317 751Q317
787 344 807T405 828Q438 828 461 805T484 748Q484 713 457 692T396 671Q360 671 339 694ZM441 681T441 731Q441 766 424 791T385 817Q359 817 359 771Q359 737 373 709T411 681Q441 681 441 731Z" />
<glyph unicode="&#xc6;" glyph-name="AE" horiz-adv-x="769" d="M763 625T764 623T765 616L756 559Q752 523 746 492Q745 488 739 489T735 493Q736 499 736 512Q736 557 713 584T647 611H609Q569 611 549 606T521 586T508 543L482 336H597Q638 336 658 352T686
408Q686 411 690 411Q693 411 695 410T697 406Q694 388 692 376T688 354L682 325L667 232Q667 231 663 231Q656 231 656 234Q659 249 659 262Q659 291 643 303T590 315H480L451 85Q449 61 449 56Q449 33 461 26T513 18H582Q621 18 656 54T713 149Q714 152 719 151T724
147Q703 79 692 15Q690 6 687 3T676 0H303Q299 0 299 6T303 12Q336 12 353 17T379 37T391 81L421 315H270L127 123Q90 72 90 47Q90 12 155 12Q159 12 159 6T155 0Q138 0 104 2Q64 4 40 4Q17 4 -13 2Q-39 0 -56 0Q-61 0 -61 6T-56 12Q-17 12 17 37T105 133L433 575Q439
584 443 591T448 602Q448 610 435 611T380 613Q376 613 376 619T380 625H758Q763 625 764 623ZM286 336H424L453 559L286 336Z" />
<glyph unicode="&#xc7;" glyph-name="Ccedilla" horiz-adv-x="586" d="M585 596T586 592T587 577L577 466Q576 462 571 462T566 466Q559 542 515 578T396 614Q332 614 278 581T188 488T138 346Q131 305 131 262Q131 188 154 129T222 35T323 1Q381 1 435 38T532
151Q534 153 535 153Q538 153 540 151T542 147L512 40Q509 27 506 23T494 16Q407 -13 318 -13Q309 -36 309 -52Q309 -66 314 -78T332 -104Q348 -125 356 -141T364 -175Q364 -184 363 -188Q359 -219 331 -247T260 -275Q236 -275 220 -265T204 -236Q204 -231 205
-228Q206 -219 214 -213T234 -207Q245 -207 251 -213T264 -233Q269 -244 274 -250T288 -256Q316 -256 325 -218Q328 -188 287 -138Q271 -119 271 -97Q271 -82 281 -60L305 -13Q178 -9 119 64T59 244Q59 276 66 318Q83 411 139 483T273 596T434 636Q476 636 516
627T579 601Q585 596 586 592Z" />
<glyph unicode="&#xc8;" glyph-name="Egrave" horiz-adv-x="514" d="M514 625T512 616L503 559Q499 523 493 492Q492 488 486 489T481 493Q482 501 482 516Q482 559 462 584T405 610H323Q291 610 276 605T253 587T241 543L204 336H345Q384 336 402 351T428 406Q428
409 434 409Q436 409 438 408T440 404Q436 376 431 356L425 325L419 286Q419 283 411 232Q410 228 404 228T399 233Q402 250 402 263Q402 291 387 303T338 315H201L160 85Q157 67 157 55Q157 34 170 27T219 19H328Q366 19 402 55T458 149Q459 152 464 151T469 147Q454
100 438 15Q436 7 433 4T422 0H16Q14 0 14 6T16 12Q49 12 64 17T87 36T101 81L183 544Q186 564 186 576Q186 598 173 605T123 613Q120 613 120 619T123 625H506Q514 625 512 616ZM378 706T336 723T240 756Q231 758 248 766T288 780T315 784Q387 723 434 691Q435
691 435 689Q435 686 433 684T427 682Q378 706 336 723Z" />
<glyph unicode="&#xc9;" glyph-name="Eacute" horiz-adv-x="514" d="M514 625T512 616L503 559Q499 523 493 492Q492 488 486 489T481 493Q482 501 482 516Q482 559 462 584T405 610H323Q291 610 276 605T253 587T241 543L204 336H345Q384 336 402 351T428 406Q428
409 434 409Q436 409 438 408T440 404Q436 376 431 356L425 325L419 286Q419 283 411 232Q410 228 404 228T399 233Q402 250 402 263Q402 291 387 303T338 315H201L160 85Q157 67 157 55Q157 34 170 27T219 19H328Q366 19 402 55T458 149Q459 152 464 151T469 147Q454
100 438 15Q436 7 433 4T422 0H16Q14 0 14 6T16 12Q49 12 64 17T87 36T101 81L183 544Q186 564 186 576Q186 598 173 605T123 613Q120 613 120 619T123 625H506Q514 625 512 616ZM283 678Q279 678 278 682T280 689Q317 708 393 754L442 784Q446 786 465 780T499
765T507 756Q445 741 394 723T285 679L283 678Z" />
<glyph unicode="&#xca;" glyph-name="Ecircumflex" horiz-adv-x="514" d="M514 625T512 616L503 559Q499 523 493 492Q492 488 486 489T481 493Q482 501 482 516Q482 559 462 584T405 610H323Q291 610 276 605T253 587T241 543L204 336H345Q384 336 402 351T428
406Q428 409 434 409Q436 409 438 408T440 404Q436 376 431 356L425 325L419 286Q419 283 411 232Q410 228 404 228T399 233Q402 250 402 263Q402 291 387 303T338 315H201L160 85Q157 67 157 55Q157 34 170 27T219 19H328Q366 19 402 55T458 149Q459 152 464 151T469
147Q454 100 438 15Q436 7 433 4T422 0H16Q14 0 14 6T16 12Q49 12 64 17T87 36T101 81L183 544Q186 564 186 576Q186 598 173 605T123 613Q120 613 120 619T123 625H506Q514 625 512 616ZM249 660Q246 660 244 662T244 667L351 764Q354 769 360 769Q366 769 369
764L444 667V666Q444 663 442 661T437 660L351 717L250 660H249Z" />
<glyph unicode="&#xcb;" glyph-name="Edieresis" horiz-adv-x="514" d="M514 625T512 616L503 559Q499 523 493 492Q492 488 486 489T481 493Q482 501 482 516Q482 559 462 584T405 610H323Q291 610 276 605T253 587T241 543L204 336H345Q384 336 402 351T428
406Q428 409 434 409Q436 409 438 408T440 404Q436 376 431 356L425 325L419 286Q419 283 411 232Q410 228 404 228T399 233Q402 250 402 263Q402 291 387 303T338 315H201L160 85Q157 67 157 55Q157 34 170 27T219 19H328Q366 19 402 55T458 149Q459 152 464 151T469
147Q454 100 438 15Q436 7 433 4T422 0H16Q14 0 14 6T16 12Q49 12 64 17T87 36T101 81L183 544Q186 564 186 576Q186 598 173 605T123 613Q120 613 120 619T123 625H506Q514 625 512 616ZM263 717T252 728T241 758Q241 777 252 788T283 799Q303 799 313 789T324
758Q324 739 314 728T283 717Q263 717 252 728ZM414 717T403 728T391 758Q391 777 402 788T434 799Q454 799 464 789T475 758Q475 739 465 728T434 717Q414 717 403 728Z" />
<glyph unicode="&#xcc;" glyph-name="Igrave" horiz-adv-x="308" d="M17 0T17 6T20 12Q52 12 67 17T91 36T104 81L186 544Q190 570 190 575Q190 598 176 605T125 613Q122 613 122 619T125 625L168 624Q204 622 226 622Q252 622 290 624L330 625Q332 625 332 619T330
613Q298 613 283 607T259 587T245 542L163 81Q160 62 160 49Q160 27 173 20T225 12Q227 12 227 6T225 0Q199 0 184 1L122 2L63 1Q48 0 20 0Q17 0 17 6ZM270 706T228 723T132 756Q123 758 140 766T180 780T207 784Q279 723 326 691Q327 691 327 689Q327 686 325
684T319 682Q270 706 228 723Z" />
<glyph unicode="&#xcd;" glyph-name="Iacute" horiz-adv-x="308" d="M17 0T17 6T20 12Q52 12 67 17T91 36T104 81L186 544Q190 570 190 575Q190 598 176 605T125 613Q122 613 122 619T125 625L168 624Q204 622 226 622Q252 622 290 624L330 625Q332 625 332 619T330
613Q298 613 283 607T259 587T245 542L163 81Q160 62 160 49Q160 27 173 20T225 12Q227 12 227 6T225 0Q199 0 184 1L122 2L63 1Q48 0 20 0Q17 0 17 6ZM175 678Q171 678 170 682T172 689Q209 708 285 754L334 784Q338 786 357 780T391 765T399 756Q337 741 286
723T177 679L175 678Z" />
<glyph unicode="&#xce;" glyph-name="Icircumflex" horiz-adv-x="308" d="M17 0T17 6T20 12Q52 12 67 17T91 36T104 81L186 544Q190 570 190 575Q190 598 176 605T125 613Q122 613 122 619T125 625L168 624Q204 622 226 622Q252 622 290 624L330 625Q332 625 332
619T330 613Q298 613 283 607T259 587T245 542L163 81Q160 62 160 49Q160 27 173 20T225 12Q227 12 227 6T225 0Q199 0 184 1L122 2L63 1Q48 0 20 0Q17 0 17 6ZM141 660Q138 660 136 662T136 667L243 764Q246 769 252 769Q258 769 261 764L336 667V666Q336 663
334 661T329 660L243 717L142 660H141Z" />
<glyph unicode="&#xcf;" glyph-name="Idieresis" horiz-adv-x="308" d="M17 0T17 6T20 12Q52 12 67 17T91 36T104 81L186 544Q190 570 190 575Q190 598 176 605T125 613Q122 613 122 619T125 625L168 624Q204 622 226 622Q252 622 290 624L330 625Q332 625 332
619T330 613Q298 613 283 607T259 587T245 542L163 81Q160 62 160 49Q160 27 173 20T225 12Q227 12 227 6T225 0Q199 0 184 1L122 2L63 1Q48 0 20 0Q17 0 17 6ZM165 717T154 728T142 758Q142 777 153 788T185 799Q205 799 215 789T226 758Q226 739 216 728T185
717Q165 717 154 728ZM297 717T286 728T275 758Q275 777 286 788T317 799Q337 799 348 789T359 758Q359 738 348 728T317 717Q297 717 286 728Z" />
<glyph unicode="&#xd0;" glyph-name="Eth" horiz-adv-x="612" d="M415 627T474 596T565 509T597 381Q597 356 592 323Q575 226 521 152T392 37T236 -4Q212 -4 180 -1Q169 0 152 1T113 2L52 1Q37 0 11 0Q8 0 8 6T11 12Q43 12 59 17T84 36T97 81L136 301H56Q52 301
52 311Q52 321 56 321H140L179 544Q183 570 183 576Q183 598 169 605T118 613Q116 613 116 619T118 625L161 624Q199 622 222 622Q252 622 283 625Q321 627 335 627Q415 627 474 596ZM526 340T526 382Q526 484 478 548T338 613Q287 613 266 599T236 542L197 321H318Q322
321 322 311Q322 301 318 301H194L157 92Q153 70 153 61Q153 34 170 22T230 10Q300 10 359 44T461 143T519 301Q526 340 526 382Z" />
<glyph unicode="&#xd1;" glyph-name="Ntilde" horiz-adv-x="651" d="M689 625T689 619T687 613Q651 613 630 591T600 518L506 -10Q506 -12 504 -13T498 -15Q492 -15 491 -11L202 543L196 554L119 106Q115 86 115 67Q115 38 128 25T170 12Q172 12 172 6T170 0Q149
0 138 1L91 2L48 1Q35 0 12 0Q9 0 9 6T12 12Q48 12 69 34T98 106L182 577Q154 613 119 613Q116 613 116 619T119 625L154 624Q166 623 185 623Q201 623 212 624T229 625Q235 625 238 621T245 606Q246 603 249 593T258 573L505 96L579 518Q583 538 583 557Q583 586
570 599T529 613Q526 613 526 619T529 625L559 624Q587 622 607 622Q623 622 651 624L687 625Q689 625 689 619ZM285 695Q282 695 280 697T279 702Q297 726 319 745T366 764Q383 764 418 753Q462 739 491 739Q509 739 519 745T543 766H545Q548 766 550 764T550
759Q523 723 506 711T469 698Q451 698 432 703T408 709Q367 722 338 722Q321 722 312 717T296 705T286 695H285Z" />
<glyph unicode="&#xd2;" glyph-name="Ograve" horiz-adv-x="651" d="M215 -12T165 20T89 110T63 240Q63 276 69 313Q85 406 135 479T257 594T409 636Q480 636 531 604T608 515T635 387Q635 348 628 313Q611 219 560 145T435 30T284 -12Q215 -12 165 20ZM413 14T475
78T561 260Q571 309 571 359Q571 433 547 490T477 579T369 612Q280 612 218 546T135 366Q126 318 126 273Q126 200 149 141T218 48T326 14Q413 14 475 78ZM442 706T400 723T304 756Q295 758 312 766T352 780T379 784Q451 723 498 691Q499 691 499 689Q499 686 497
684T491 682Q442 706 400 723Z" />
<glyph unicode="&#xd3;" glyph-name="Oacute" horiz-adv-x="651" d="M215 -12T165 20T89 110T63 240Q63 276 69 313Q85 406 135 479T257 594T409 636Q480 636 531 604T608 515T635 387Q635 348 628 313Q611 219 560 145T435 30T284 -12Q215 -12 165 20ZM413 14T475
78T561 260Q571 309 571 359Q571 433 547 490T477 579T369 612Q280 612 218 546T135 366Q126 318 126 273Q126 200 149 141T218 48T326 14Q413 14 475 78ZM347 678Q343 678 342 682T344 689Q381 708 457 754L506 784Q510 786 529 780T563 765T571 756Q509 741 458
723T349 679L347 678Z" />
<glyph unicode="&#xd4;" glyph-name="Ocircumflex" horiz-adv-x="651" d="M215 -12T165 20T89 110T63 240Q63 276 69 313Q85 406 135 479T257 594T409 636Q480 636 531 604T608 515T635 387Q635 348 628 313Q611 219 560 145T435 30T284 -12Q215 -12 165 20ZM413
14T475 78T561 260Q571 309 571 359Q571 433 547 490T477 579T369 612Q280 612 218 546T135 366Q126 318 126 273Q126 200 149 141T218 48T326 14Q413 14 475 78ZM313 660Q310 660 308 662T308 667L415 764Q418 769 424 769Q430 769 433 764L508 667V666Q508 663
506 661T501 660L415 717L314 660H313Z" />
<glyph unicode="&#xd5;" glyph-name="Otilde" horiz-adv-x="651" d="M215 -12T165 20T89 110T63 240Q63 276 69 313Q85 406 135 479T257 594T409 636Q480 636 531 604T608 515T635 387Q635 348 628 313Q611 219 560 145T435 30T284 -12Q215 -12 165 20ZM413 14T475
78T561 260Q571 309 571 359Q571 433 547 490T477 579T369 612Q280 612 218 546T135 366Q126 318 126 273Q126 200 149 141T218 48T326 14Q413 14 475 78ZM293 695Q290 695 288 697T287 702Q305 726 327 745T374 764Q391 764 426 753Q470 739 499 739Q517 739 527
745T551 766H553Q556 766 558 764T558 759Q531 723 514 711T477 698Q459 698 440 703T416 709Q375 722 346 722Q329 722 320 717T304 705T294 695H293Z" />
<glyph unicode="&#xd6;" glyph-name="Odieresis" horiz-adv-x="651" d="M215 -12T165 20T89 110T63 240Q63 276 69 313Q85 406 135 479T257 594T409 636Q480 636 531 604T608 515T635 387Q635 348 628 313Q611 219 560 145T435 30T284 -12Q215 -12 165 20ZM413
14T475 78T561 260Q571 309 571 359Q571 433 547 490T477 579T369 612Q280 612 218 546T135 366Q126 318 126 273Q126 200 149 141T218 48T326 14Q413 14 475 78ZM327 717T316 728T305 758Q305 777 316 788T347 799Q367 799 377 789T388 758Q388 739 378 728T347
717Q327 717 316 728ZM478 717T467 728T455 758Q455 777 466 788T498 799Q518 799 528 789T539 758Q539 739 529 728T498 717Q478 717 467 728Z" />
<glyph unicode="&#xd7;" glyph-name="multiply" horiz-adv-x="398" d="M332 84T318 70T301 59L199 161L96 59Q93 55 79 69T67 86L171 190L68 293Q64 295 78 309T95 321L199 218L301 320Q304 323 318 309T329 291L227 190L330 88Q332 84 318 70Z" />
<glyph unicode="&#xd8;" glyph-name="Oslash" horiz-adv-x="651" d="M648 631T650 631Q654 631 660 626T663 618L591 545Q635 480 635 386Q635 357 628 313Q611 219 560 145T435 30T284 -12Q231 -12 189 7T118 63L48 -8L46 -9Q41 -9 36 -3T33 7L105 80Q62 148
62 240Q62 269 69 313Q85 406 135 479T257 594T409 636Q518 636 580 561L648 630Q648 631 650 631ZM126 318T126 273Q126 189 154 130L535 515Q509 561 467 586T369 612Q280 612 218 546T135 366Q126 318 126 273ZM572 315T572 359Q572 436 544 497L164 110Q190
64 231 39T326 14Q413 14 475 78T561 260Q572 315 572 359Z" />
<glyph unicode="&#xd9;" glyph-name="Ugrave" horiz-adv-x="618" d="M566 535T566 548Q566 613 502 613Q499 613 499 619T502 625L543 624Q573 622 592 622Q608 622 638 624L674 625Q678 625 678 619T674 613Q601 613 583 514L533 225Q513 113 444 50T275 -13Q189
-13 141 34T93 166Q93 189 98 221L156 545Q159 563 159 576Q159 599 145 606T92 613Q89 613 89 619T92 625L137 624Q175 622 197 622Q223 622 263 624L303 625Q307 625 307 619T303 613Q270 613 253 607T227 585T213 540L161 252Q154 207 154 181Q154 100 192 59T299
17Q381 17 437 73T511 227L563 518Q566 535 566 548ZM390 729T280 756Q273 757 287 765T321 779T345 784L374 766Q473 707 507 689Q509 688 509 685Q509 682 507 680T503 679Q390 729 280 756Z" />
<glyph unicode="&#xda;" glyph-name="Uacute" horiz-adv-x="618" d="M566 535T566 548Q566 613 502 613Q499 613 499 619T502 625L543 624Q573 622 592 622Q608 622 638 624L674 625Q678 625 678 619T674 613Q601 613 583 514L533 225Q513 113 444 50T275 -13Q189
-13 141 34T93 166Q93 189 98 221L156 545Q159 563 159 576Q159 599 145 606T92 613Q89 613 89 619T92 625L137 624Q175 622 197 622Q223 622 263 624L303 625Q307 625 307 619T303 613Q270 613 253 607T227 585T213 540L161 252Q154 207 154 181Q154 100 192 59T299
17Q381 17 437 73T511 227L563 518Q566 535 566 548ZM306 678Q302 678 301 682T302 689Q345 711 405 748Q445 772 465 783Q469 786 488 780T522 765T529 756Q411 726 307 678H306Z" />
<glyph unicode="&#xdb;" glyph-name="Ucircumflex" horiz-adv-x="618" d="M566 535T566 548Q566 613 502 613Q499 613 499 619T502 625L543 624Q573 622 592 622Q608 622 638 624L674 625Q678 625 678 619T674 613Q601 613 583 514L533 225Q513 113 444 50T275
-13Q189 -13 141 34T93 166Q93 189 98 221L156 545Q159 563 159 576Q159 599 145 606T92 613Q89 613 89 619T92 625L137 624Q175 622 197 622Q223 622 263 624L303 625Q307 625 307 619T303 613Q270 613 253 607T227 585T213 540L161 252Q154 207 154 181Q154 100
192 59T299 17Q381 17 437 73T511 227L563 518Q566 535 566 548ZM318 660Q315 660 313 662T313 667L420 764Q423 769 429 769Q435 769 438 764L513 667V666Q513 663 511 661T506 660L420 717L319 660H318Z" />
<glyph unicode="&#xdc;" glyph-name="Udieresis" horiz-adv-x="618" d="M566 535T566 548Q566 613 502 613Q499 613 499 619T502 625L543 624Q573 622 592 622Q608 622 638 624L674 625Q678 625 678 619T674 613Q601 613 583 514L533 225Q513 113 444 50T275 -13Q189
-13 141 34T93 166Q93 189 98 221L156 545Q159 563 159 576Q159 599 145 606T92 613Q89 613 89 619T92 625L137 624Q175 622 197 622Q223 622 263 624L303 625Q307 625 307 619T303 613Q270 613 253 607T227 585T213 540L161 252Q154 207 154 181Q154 100 192 59T299
17Q381 17 437 73T511 227L563 518Q566 535 566 548ZM322 717T311 728T299 758Q299 777 310 788T342 799Q361 799 372 789T383 758Q383 739 372 728T342 717Q322 717 311 728ZM497 717T486 728T474 758Q474 777 485 788T517 799Q537 799 547 789T558 758Q558 739
548 728T517 717Q497 717 486 728Z" />
<glyph unicode="&#xdd;" glyph-name="Yacute" horiz-adv-x="529" d="M604 625T604 619T600 613Q536 613 469 519L317 310L277 81Q273 62 273 47Q273 26 287 19T339 12Q343 12 343 6T339 0Q312 0 297 1L236 2L173 1Q158 0 131 0Q127 0 127 6T131 12Q164 12 181
17T206 37T219 81L257 301L155 542Q138 581 121 597T75 613Q71 613 71 619T75 625L109 624Q133 622 144 622Q169 622 213 624L259 625Q261 625 261 620Q261 613 257 613Q230 613 219 608T207 591Q207 585 212 573L313 331L449 524Q476 562 476 584Q476 613 434
613Q430 613 430 619T434 625L474 624Q508 622 533 622Q548 622 568 624L600 625Q604 625 604 619ZM292 678Q288 678 287 682T289 689Q326 708 402 754L451 784Q455 786 474 780T508 765T516 756Q454 741 403 723T294 679L292 678Z" />
<glyph unicode="&#xde;" glyph-name="Thorn" horiz-adv-x="534" d="M408 499T464 462T521 352Q521 331 517 312Q504 250 459 208T354 145T239 124Q215 124 198 128Q197 128 197 131Q197 135 199 139T203 143Q216 139 233 139Q279 139 323 155T401 206T446 292Q451
317 451 336Q451 404 407 444T294 485Q252 485 225 479L155 81Q152 63 152 50Q152 34 159 26T185 15T240 12Q242 12 242 6T240 0Q207 0 188 1L112 2L53 1Q38 0 13 0Q10 0 10 6T13 12Q45 12 61 17T85 36T99 81L180 544Q184 561 184 577Q184 598 171 605T120 613Q118
613 118 619T120 625L160 624Q196 622 219 622Q251 622 299 624L347 625Q350 625 350 619T347 613Q300 613 280 609T251 590T236 542L227 493Q271 499 319 499Q408 499 464 462Z" />
<glyph unicode="&#xdf;" glyph-name="germandbls" horiz-adv-x="448" d="M-82 -275T-98 -264T-114 -235Q-114 -221 -104 -211T-77 -201Q-62 -201 -56 -209T-44 -232Q-40 -245 -36 -251T-20 -257Q-9 -257 -1 -241T16 -181T40 -47L118 442Q140 575 199 650T344 726Q390
726 411 703T433 645Q433 634 432 628Q427 595 409 568T359 505Q332 475 318 455T299 411Q298 405 298 394Q298 366 310 341T346 277Q372 235 385 207T398 145Q398 138 396 122Q392 91 374 60T327 9T262 -11Q227 -11 209 5T190 42Q190 56 198 65T222 74Q235 74
241 67T255 45Q262 29 269 21T293 13Q317 13 331 31T351 82Q352 88 352 99Q352 129 340 155T303 221Q278 259 266 285T253 343Q253 350 255 366Q260 396 273 418T311 474Q338 508 353 535T373 600Q376 617 376 634Q376 710 319 710Q269 710 229 641T169 445L96
-21Q80 -119 62 -173T18 -251T-50 -275Q-82 -275 -98 -264Z" />
<glyph unicode="&#xe0;" glyph-name="agrave" horiz-adv-x="434" d="M410 78T412 78Q415 78 417 75T417 69Q383 30 357 11T305 -9Q288 -9 280 1T271 36Q271 56 277 89L295 193Q249 100 192 44T81 -13Q19 -13 19 61Q19 69 21 91Q31 162 74 234T175 352T284 399Q303
399 321 392T350 371Q368 386 374 407Q375 410 381 409T386 406L328 89Q325 74 325 62Q325 31 343 31Q365 31 409 77Q410 78 412 78ZM153 36T193 73T266 166T309 277Q312 290 311 300Q311 330 296 347T249 364Q214 363 178 333T114 251T78 136Q75 114 75 96Q75
36 117 36Q153 36 193 73ZM250 727Q249 731 259 731Q272 731 289 726T306 716L301 476Q301 474 297 473T292 475L250 727Z" />
<glyph unicode="&#xe1;" glyph-name="aacute" horiz-adv-x="434" d="M410 78T412 78Q415 78 417 75T417 69Q383 30 357 11T305 -9Q288 -9 280 1T271 36Q271 56 277 89L295 193Q249 100 192 44T81 -13Q19 -13 19 61Q19 69 21 91Q31 162 74 234T175 352T284 399Q303
399 321 392T350 371Q368 386 374 407Q375 410 381 409T386 406L328 89Q325 74 325 62Q325 31 343 31Q365 31 409 77Q410 78 412 78ZM153 36T193 73T266 166T309 277Q312 290 311 300Q311 330 296 347T249 364Q214 363 178 333T114 251T78 136Q75 114 75 96Q75
36 117 36Q153 36 193 73ZM280 470T275 472T271 476L364 716Q366 721 386 726T419 731Q429 731 428 727L281 473Q280 470 275 472Z" />
<glyph unicode="&#xe2;" glyph-name="acircumflex" horiz-adv-x="434" d="M410 78T412 78Q415 78 417 75T417 69Q383 30 357 11T305 -9Q288 -9 280 1T271 36Q271 56 277 89L295 193Q249 100 192 44T81 -13Q19 -13 19 61Q19 69 21 91Q31 162 74 234T175 352T284
399Q303 399 321 392T350 371Q368 386 374 407Q375 410 381 409T386 406L328 89Q325 74 325 62Q325 31 343 31Q365 31 409 77Q410 78 412 78ZM153 36T193 73T266 166T309 277Q312 290 311 300Q311 330 296 347T249 364Q214 363 178 333T114 251T78 136Q75 114 75
96Q75 36 117 36Q153 36 193 73ZM364 477Q364 475 359 475T352 476L320 630L233 474Q231 472 230 472Q227 472 224 474T222 477L328 726Q329 731 338 731Q346 731 346 726L364 477Z" />
<glyph unicode="&#xe3;" glyph-name="atilde" horiz-adv-x="434" d="M410 78T412 78Q415 78 417 75T417 69Q383 30 357 11T305 -9Q288 -9 280 1T271 36Q271 56 277 89L295 193Q249 100 192 44T81 -13Q19 -13 19 61Q19 69 21 91Q31 162 74 234T175 352T284 399Q303
399 321 392T350 371Q368 386 374 407Q375 410 381 409T386 406L328 89Q325 74 325 62Q325 31 343 31Q365 31 409 77Q410 78 412 78ZM153 36T193 73T266 166T309 277Q312 290 311 300Q311 330 296 347T249 364Q214 363 178 333T114 251T78 136Q75 114 75 96Q75
36 117 36Q153 36 193 73ZM166 480Q163 480 161 482T161 487Q178 510 201 529T248 548Q262 548 298 538Q344 524 373 524Q391 524 402 531T424 551H425Q428 551 430 549T431 544Q404 508 387 495T350 482Q329 482 289 494Q285 495 264 501T219 507Q202 507 193
502T177 489T168 480H166Z" />
<glyph unicode="&#xe4;" glyph-name="adieresis" horiz-adv-x="434" d="M410 78T412 78Q415 78 417 75T417 69Q383 30 357 11T305 -9Q288 -9 280 1T271 36Q271 56 277 89L295 193Q249 100 192 44T81 -13Q19 -13 19 61Q19 69 21 91Q31 162 74 234T175 352T284 399Q303
399 321 392T350 371Q368 386 374 407Q375 410 381 409T386 406L328 89Q325 74 325 62Q325 31 343 31Q365 31 409 77Q410 78 412 78ZM153 36T193 73T266 166T309 277Q312 290 311 300Q311 330 296 347T249 364Q214 363 178 333T114 251T78 136Q75 114 75 96Q75
36 117 36Q153 36 193 73ZM202 478T191 489T180 519Q180 538 191 549T222 560Q242 560 252 550T263 519Q263 500 253 489T222 478Q202 478 191 489ZM353 478T342 489T330 519Q330 538 341 549T373 560Q393 560 403 550T414 519Q414 500 404 489T373 478Q353 478
342 489Z" />
<glyph unicode="&#xe5;" glyph-name="aring" horiz-adv-x="434" d="M410 78T412 78Q415 78 417 75T417 69Q383 30 357 11T305 -9Q288 -9 280 1T271 36Q271 56 277 89L295 193Q249 100 192 44T81 -13Q19 -13 19 61Q19 69 21 91Q31 162 74 234T175 352T284 399Q303
399 321 392T350 371Q368 386 374 407Q375 410 381 409T386 406L328 89Q325 74 325 62Q325 31 343 31Q365 31 409 77Q410 78 412 78ZM153 36T193 73T266 166T309 277Q312 290 311 300Q311 330 296 347T249 364Q214 363 178 333T114 251T78 136Q75 114 75 96Q75
36 117 36Q153 36 193 73ZM255 468T234 491T213 547Q213 583 240 604T301 625Q334 625 356 602T379 545Q379 510 353 489T291 468Q255 468 234 491ZM336 478T336 527Q336 562 320 588T281 614Q255 614 255 567Q255 533 269 506T307 478Q336 478 336 527Z" />
<glyph unicode="&#xe6;" glyph-name="ae" horiz-adv-x="541" d="M509 399T524 385T540 347Q540 309 493 278T324 209Q320 180 320 148Q320 85 339 53T396 21Q421 21 441 29T480 55L482 56Q485 56 487 52T488 46Q454 15 424 2T360 -12Q312 -12 287 24T261 125Q261
149 266 184Q226 94 177 41T82 -13Q19 -13 19 62Q19 71 21 91Q31 161 70 233T162 352T266 399Q293 399 312 384T336 338Q366 368 401 383T473 399Q509 399 524 385ZM477 327T477 336Q477 353 468 366T437 379Q397 379 367 335T326 222Q388 243 429 266T476 323Q477
327 477 336ZM147 37T181 73T244 166T282 277Q285 291 285 303Q285 331 272 349T234 367Q203 367 171 337T113 253T79 136Q76 114 76 97Q76 37 118 37Q147 37 181 73Z" />
<glyph unicode="&#xe7;" glyph-name="ccedilla" horiz-adv-x="345" d="M286 399T312 382T335 340Q334 326 326 317T302 308Q276 308 266 340Q262 354 250 365T214 377Q167 377 138 337T96 233Q89 193 89 167Q89 103 117 63T199 22Q250 22 305 67L307 68Q310 68
312 64T313 58Q236 -10 164 -13Q155 -36 155 -51Q155 -65 160 -77T178 -104Q194 -125 202 -141T210 -175Q210 -184 209 -188Q205 -219 177 -247T106 -275Q82 -275 66 -265T50 -236Q50 -231 51 -228Q52 -219 60 -213T80 -207Q91 -207 97 -213T110 -233Q115 -244
120 -250T134 -256Q162 -256 171 -218Q174 -188 133 -138Q117 -119 117 -97Q117 -82 127 -60L151 -13Q89 -11 59 33T28 142Q28 167 35 202Q47 262 81 307T160 375T249 399Q286 399 312 382Z" />
<glyph unicode="&#xe8;" glyph-name="egrave" horiz-adv-x="343" d="M329 323T297 295T210 245T92 214Q87 182 87 159Q87 97 115 60T194 22Q250 22 294 55H296Q299 55 301 52T301 46Q231 -12 155 -12Q92 -12 60 28T27 133Q27 155 32 185Q41 236 74 285T156 367T260
399Q293 399 311 387T329 354Q329 323 297 295ZM170 372T139 332T95 228Q165 240 208 264T261 324Q263 334 263 338Q263 355 249 363T216 372Q170 372 139 332ZM204 727Q203 731 213 731Q226 731 243 726T260 716L255 476Q255 474 251 473T246 475L204 727Z" />
<glyph unicode="&#xe9;" glyph-name="eacute" horiz-adv-x="343" d="M329 323T297 295T210 245T92 214Q87 182 87 159Q87 97 115 60T194 22Q250 22 294 55H296Q299 55 301 52T301 46Q231 -12 155 -12Q92 -12 60 28T27 133Q27 155 32 185Q41 236 74 285T156 367T260
399Q293 399 311 387T329 354Q329 323 297 295ZM170 372T139 332T95 228Q165 240 208 264T261 324Q263 334 263 338Q263 355 249 363T216 372Q170 372 139 332ZM234 470T229 472T225 476L318 716Q320 721 340 726T373 731Q383 731 382 727L235 473Q234 470 229
472Z" />
<glyph unicode="&#xea;" glyph-name="ecircumflex" horiz-adv-x="343" d="M329 323T297 295T210 245T92 214Q87 182 87 159Q87 97 115 60T194 22Q250 22 294 55H296Q299 55 301 52T301 46Q231 -12 155 -12Q92 -12 60 28T27 133Q27 155 32 185Q41 236 74 285T156
367T260 399Q293 399 311 387T329 354Q329 323 297 295ZM170 372T139 332T95 228Q165 240 208 264T261 324Q263 334 263 338Q263 355 249 363T216 372Q170 372 139 332ZM308 478Q308 475 302 475T296 477L264 631L177 474Q176 473 174 473Q171 473 168 474T166
478L271 727Q274 732 282 732Q290 732 290 727L308 478Z" />
<glyph unicode="&#xeb;" glyph-name="edieresis" horiz-adv-x="343" d="M329 323T297 295T210 245T92 214Q87 182 87 159Q87 97 115 60T194 22Q250 22 294 55H296Q299 55 301 52T301 46Q231 -12 155 -12Q92 -12 60 28T27 133Q27 155 32 185Q41 236 74 285T156
367T260 399Q293 399 311 387T329 354Q329 323 297 295ZM170 372T139 332T95 228Q165 240 208 264T261 324Q263 334 263 338Q263 355 249 363T216 372Q170 372 139 332ZM156 478T145 489T134 519Q134 538 145 549T176 560Q196 560 206 550T217 519Q217 500 207
489T176 478Q156 478 145 489ZM307 478T296 489T284 519Q284 538 295 549T327 560Q347 560 357 550T368 519Q368 500 358 489T327 478Q307 478 296 489Z" />
<glyph unicode="&#xec;" glyph-name="igrave" horiz-adv-x="247" d="M91 -9T82 1T73 36Q73 51 80 89L121 297Q124 312 124 324Q124 356 104 356Q92 356 74 344T35 310Q34 309 32 309Q29 309 27 312T27 318Q62 358 90 376T143 395Q161 395 169 385T178 350Q178
331 172 299L131 89Q128 73 128 62Q128 31 147 31Q171 31 215 75Q217 77 219 77Q222 77 224 74T223 67Q189 28 162 10T109 -9Q91 -9 82 1ZM372 727Q371 731 381 731Q394 731 411 726T428 716L423 476Q423 474 419 473T414 475L372 727Z" />
<glyph unicode="&#xed;" glyph-name="iacute" horiz-adv-x="247" d="M91 -9T82 1T73 36Q73 51 80 89L121 297Q124 312 124 324Q124 356 104 356Q92 356 74 344T35 310Q34 309 32 309Q29 309 27 312T27 318Q62 358 90 376T143 395Q161 395 169 385T178 350Q178
331 172 299L131 89Q128 73 128 62Q128 31 147 31Q171 31 215 75Q217 77 219 77Q222 77 224 74T223 67Q189 28 162 10T109 -9Q91 -9 82 1ZM146 470T141 472T137 476L230 716Q232 721 252 726T285 731Q295 731 294 727L147 473Q146 470 141 472Z" />
<glyph unicode="&#xee;" glyph-name="icircumflex" horiz-adv-x="247" d="M91 -9T82 1T73 36Q73 51 80 89L121 297Q124 312 124 324Q124 356 104 356Q92 356 74 344T35 310Q34 309 32 309Q29 309 27 312T27 318Q62 358 90 376T143 395Q161 395 169 385T178 350Q178
331 172 299L131 89Q128 73 128 62Q128 31 147 31Q171 31 215 75Q217 77 219 77Q222 77 224 74T223 67Q189 28 162 10T109 -9Q91 -9 82 1ZM230 477Q230 475 225 475T218 476L186 630L99 474Q97 472 96 472Q93 472 90 474T88 477L194 726Q195 731 204 731Q212 731
212 726L230 477Z" />
<glyph unicode="&#xef;" glyph-name="idieresis" horiz-adv-x="247" d="M91 -9T82 1T73 36Q73 51 80 89L121 297Q124 312 124 324Q124 356 104 356Q92 356 74 344T35 310Q34 309 32 309Q29 309 27 312T27 318Q62 358 90 376T143 395Q161 395 169 385T178 350Q178
331 172 299L131 89Q128 73 128 62Q128 31 147 31Q171 31 215 75Q217 77 219 77Q222 77 224 74T223 67Q189 28 162 10T109 -9Q91 -9 82 1ZM334 478T323 489T311 519Q311 538 322 549T354 560Q374 560 384 550T395 519Q395 500 385 489T354 478Q334 478 323 489ZM466
478T455 489T444 519Q444 538 455 549T486 560Q506 560 517 550T528 519Q528 499 517 489T486 478Q466 478 455 489Z" />
<glyph unicode="&#xf0;" glyph-name="eth" horiz-adv-x="401" d="M409 646T413 637T414 626L317 580Q349 521 366 452T384 311Q384 263 375 216Q362 142 329 91T250 13T154 -13Q93 -13 59 29T25 137Q25 158 30 186Q42 255 77 303T156 375T242 399Q264 399 284
392T321 370Q310 471 272 559L140 496Q137 494 133 503T132 514L264 576Q219 668 154 712Q150 714 157 718T173 725T186 725Q256 683 307 597L406 644Q409 646 413 637ZM228 6T263 54T316 204Q322 242 322 272Q322 326 300 353T228 380Q182 380 143 336T91 215Q86
182 86 157Q86 91 111 49T181 6Q228 6 263 54Z" />
<glyph unicode="&#xf1;" glyph-name="ntilde" horiz-adv-x="465" d="M443 79T444 79Q447 79 449 76T449 69Q415 29 389 10T337 -9Q319 -9 311 1T302 36Q302 56 308 89L337 248Q343 280 343 302Q343 360 300 360Q267 360 232 318T165 196T115 7Q113 0 105 -4T82
-8Q68 -8 64 -7T59 -2L63 21Q69 45 74 74L115 297Q118 312 118 324Q118 356 98 356Q86 356 68 344T29 310Q28 309 26 309Q23 309 21 312T21 318Q55 357 83 376T138 395Q155 395 163 385T171 351Q171 325 166 299L145 178Q181 282 230 340T333 399Q366 399 382 381T398
324Q398 300 392 267L359 89Q356 74 356 62Q356 31 376 31Q397 31 441 77Q443 79 444 79ZM153 480Q150 480 148 482T148 487Q165 510 188 529T235 548Q249 548 285 538Q331 524 360 524Q378 524 389 531T411 551H412Q415 551 417 549T418 544Q391 508 374 495T337
482Q316 482 276 494Q272 495 251 501T206 507Q189 507 180 502T164 489T155 480H153Z" />
<glyph unicode="&#xf2;" glyph-name="ograve" horiz-adv-x="398" d="M95 -14T62 28T28 138Q28 169 33 193Q44 251 75 298T150 372T243 399Q305 399 339 358T373 250Q373 222 367 193Q355 132 322 85T245 12T154 -14Q95 -14 62 28ZM231 11T265 48T311 149Q316 181
316 207Q316 276 290 325T214 375Q171 375 137 338T90 236Q84 206 84 175Q84 108 112 60T189 11Q231 11 265 48ZM202 727Q201 731 211 731Q224 731 241 726T258 716L253 476Q253 474 249 473T244 475L202 727Z" />
<glyph unicode="&#xf3;" glyph-name="oacute" horiz-adv-x="398" d="M95 -14T62 28T28 138Q28 169 33 193Q44 251 75 298T150 372T243 399Q305 399 339 358T373 250Q373 222 367 193Q355 132 322 85T245 12T154 -14Q95 -14 62 28ZM231 11T265 48T311 149Q316 181
316 207Q316 276 290 325T214 375Q171 375 137 338T90 236Q84 206 84 175Q84 108 112 60T189 11Q231 11 265 48ZM232 470T227 472T223 476L316 716Q318 721 338 726T371 731Q381 731 380 727L233 473Q232 470 227 472Z" />
<glyph unicode="&#xf4;" glyph-name="ocircumflex" horiz-adv-x="398" d="M95 -14T62 28T28 138Q28 169 33 193Q44 251 75 298T150 372T243 399Q305 399 339 358T373 250Q373 222 367 193Q355 132 322 85T245 12T154 -14Q95 -14 62 28ZM231 11T265 48T311 149Q316
181 316 207Q316 276 290 325T214 375Q171 375 137 338T90 236Q84 206 84 175Q84 108 112 60T189 11Q231 11 265 48ZM306 478Q306 475 300 475T294 477L262 631L175 474Q174 473 172 473Q169 473 166 474T164 478L269 727Q272 732 280 732Q288 732 288 727L306
478Z" />
<glyph unicode="&#xf5;" glyph-name="otilde" horiz-adv-x="398" d="M95 -14T62 28T28 138Q28 169 33 193Q44 251 75 298T150 372T243 399Q305 399 339 358T373 250Q373 222 367 193Q355 132 322 85T245 12T154 -14Q95 -14 62 28ZM231 11T265 48T311 149Q316 181
316 207Q316 276 290 325T214 375Q171 375 137 338T90 236Q84 206 84 175Q84 108 112 60T189 11Q231 11 265 48ZM118 480Q115 480 113 482T113 487Q130 510 153 529T200 548Q214 548 250 538Q296 524 325 524Q343 524 354 531T376 551H377Q380 551 382 549T383
544Q356 508 339 495T302 482Q281 482 241 494Q237 495 216 501T171 507Q154 507 145 502T129 489T120 480H118Z" />
<glyph unicode="&#xf6;" glyph-name="odieresis" horiz-adv-x="398" d="M95 -14T62 28T28 138Q28 169 33 193Q44 251 75 298T150 372T243 399Q305 399 339 358T373 250Q373 222 367 193Q355 132 322 85T245 12T154 -14Q95 -14 62 28ZM231 11T265 48T311 149Q316
181 316 207Q316 276 290 325T214 375Q171 375 137 338T90 236Q84 206 84 175Q84 108 112 60T189 11Q231 11 265 48ZM154 478T143 489T132 519Q132 538 143 549T174 560Q194 560 204 550T215 519Q215 500 205 489T174 478Q154 478 143 489ZM305 478T294 489T282
519Q282 538 293 549T325 560Q345 560 355 550T366 519Q366 500 356 489T325 478Q305 478 294 489Z" />
<glyph unicode="&#xf7;" glyph-name="divide" horiz-adv-x="386" d="M177 318T166 329T154 360Q154 379 165 390T197 401Q217 401 228 390T239 360Q239 340 228 329T197 318Q177 318 166 329ZM32 172T31 178T29 193Q29 200 30 205T33 211H364Q366 211 367 205T369
192Q369 185 368 179T364 172H34Q32 172 31 178ZM178 -10T167 1T155 32Q155 51 166 62T198 73Q218 73 229 62T240 32Q240 12 229 1T198 -10Q178 -10 167 1Z" />
<glyph unicode="&#xf8;" glyph-name="oslash" horiz-adv-x="408" d="M388 400Q392 400 398 395T401 386L353 337Q373 300 373 250Q373 223 367 193Q355 132 322 85T245 12T154 -14Q93 -14 58 32L13 -15L11 -16Q7 -16 2 -10T-1 0L47 49Q28 86 28 138Q28 169 33
193Q44 251 75 298T150 372T243 399Q307 399 342 354L386 399L388 400ZM84 206T84 176Q84 137 95 99L298 308Q285 339 264 357T214 375Q171 375 137 338T90 236Q84 206 84 176ZM316 181T316 207Q316 253 305 287L102 77Q116 46 138 29T189 11Q231 11 265 48T311
149Q316 181 316 207Z" />
<glyph unicode="&#xf9;" glyph-name="ugrave" horiz-adv-x="465" d="M437 77T439 77Q442 77 444 74T444 68Q409 28 381 10T327 -9Q310 -9 302 1T294 35Q294 61 299 87L320 208Q284 104 235 46T132 -13Q66 -13 66 61Q66 88 73 119L109 297Q112 314 112 324Q112
355 93 355Q73 355 27 309Q25 307 23 307Q20 307 18 310T19 317Q54 357 80 376T132 395Q167 395 167 349Q167 334 160 297L128 138Q121 100 121 83Q121 26 164 26Q197 26 232 68T299 190T350 379Q353 394 382 394Q406 394 406 388L402 365Q396 341 391 312L350
89Q347 74 347 62Q347 30 367 30Q378 30 396 42T436 76Q437 77 439 77ZM226 727Q225 731 235 731Q248 731 265 726T282 716L277 476Q277 474 273 473T268 475L226 727Z" />
<glyph unicode="&#xfa;" glyph-name="uacute" horiz-adv-x="465" d="M437 77T439 77Q442 77 444 74T444 68Q409 28 381 10T327 -9Q310 -9 302 1T294 35Q294 61 299 87L320 208Q284 104 235 46T132 -13Q66 -13 66 61Q66 88 73 119L109 297Q112 314 112 324Q112
355 93 355Q73 355 27 309Q25 307 23 307Q20 307 18 310T19 317Q54 357 80 376T132 395Q167 395 167 349Q167 334 160 297L128 138Q121 100 121 83Q121 26 164 26Q197 26 232 68T299 190T350 379Q353 394 382 394Q406 394 406 388L402 365Q396 341 391 312L350
89Q347 74 347 62Q347 30 367 30Q378 30 396 42T436 76Q437 77 439 77ZM256 470T251 472T247 476L340 716Q342 721 362 726T395 731Q405 731 404 727L257 473Q256 470 251 472Z" />
<glyph unicode="&#xfb;" glyph-name="ucircumflex" horiz-adv-x="465" d="M437 77T439 77Q442 77 444 74T444 68Q409 28 381 10T327 -9Q310 -9 302 1T294 35Q294 61 299 87L320 208Q284 104 235 46T132 -13Q66 -13 66 61Q66 88 73 119L109 297Q112 314 112 324Q112
355 93 355Q73 355 27 309Q25 307 23 307Q20 307 18 310T19 317Q54 357 80 376T132 395Q167 395 167 349Q167 334 160 297L128 138Q121 100 121 83Q121 26 164 26Q197 26 232 68T299 190T350 379Q353 394 382 394Q406 394 406 388L402 365Q396 341 391 312L350
89Q347 74 347 62Q347 30 367 30Q378 30 396 42T436 76Q437 77 439 77ZM330 478Q330 475 324 475T318 477L286 631L199 474Q198 473 196 473Q193 473 190 474T188 478L293 727Q296 732 304 732Q312 732 312 727L330 478Z" />
<glyph unicode="&#xfc;" glyph-name="udieresis" horiz-adv-x="465" d="M437 77T439 77Q442 77 444 74T444 68Q409 28 381 10T327 -9Q310 -9 302 1T294 35Q294 61 299 87L320 208Q284 104 235 46T132 -13Q66 -13 66 61Q66 88 73 119L109 297Q112 314 112 324Q112
355 93 355Q73 355 27 309Q25 307 23 307Q20 307 18 310T19 317Q54 357 80 376T132 395Q167 395 167 349Q167 334 160 297L128 138Q121 100 121 83Q121 26 164 26Q197 26 232 68T299 190T350 379Q353 394 382 394Q406 394 406 388L402 365Q396 341 391 312L350
89Q347 74 347 62Q347 30 367 30Q378 30 396 42T436 76Q437 77 439 77ZM178 478T167 489T156 519Q156 538 167 549T198 560Q218 560 228 550T239 519Q239 500 229 489T198 478Q178 478 167 489ZM329 478T318 489T306 519Q306 538 317 549T349 560Q369 560 379 550T390
519Q390 500 380 489T349 478Q329 478 318 489Z" />
<glyph unicode="&#xfd;" glyph-name="yacute" horiz-adv-x="443" d="M406 396T406 341Q406 259 329 108T150 -162T-18 -281Q-38 -281 -49 -271T-58 -239Q-52 -212 -18 -212Q25 -212 51 -209T101 -188Q132 -167 182 -97L183 -46Q183 142 153 246T69 351Q38 351
19 314Q18 311 13 311Q6 311 7 317Q45 395 100 395Q142 395 172 347T218 216T234 30Q234 -5 233 -23Q276 44 309 109T351 211Q356 230 356 253Q356 287 340 333Q332 352 332 363Q332 377 342 386T368 396Q406 396 406 341ZM238 470T233 472T229 476L322 716Q324
721 344 726T377 731Q387 731 386 727L239 473Q238 470 233 472Z" />
<glyph unicode="&#xfe;" glyph-name="thorn" horiz-adv-x="409" d="M339 393T364 364T390 286Q390 269 387 251Q373 176 333 119T241 30T145 -1Q109 -1 88 2L56 -178Q53 -195 53 -206Q53 -224 61 -232T89 -240Q95 -240 113 -238H114Q117 -238 118 -243T115 -249L-57
-275Q-61 -276 -62 -270T-59 -263Q-37 -259 -27 -253T-10 -232T2 -185L88 290Q65 275 42 256L40 255Q37 255 35 259T35 264Q67 293 92 310L148 619Q150 627 150 640Q150 666 129 666Q113 666 80 651H78Q74 651 73 655T75 662L205 725H207Q211 725 214 722T216 717L150
348Q226 393 294 393Q339 393 364 364ZM327 240T327 257Q327 301 308 329T248 357Q203 357 146 327L96 44Q130 27 173 27Q237 27 272 76T324 220Q327 240 327 257Z" />
<glyph unicode="&#xff;" glyph-name="ydieresis" horiz-adv-x="443" d="M406 396T406 341Q406 259 329 108T150 -162T-18 -281Q-38 -281 -49 -271T-58 -239Q-52 -212 -18 -212Q25 -212 51 -209T101 -188Q132 -167 182 -97L183 -46Q183 142 153 246T69 351Q38 351
19 314Q18 311 13 311Q6 311 7 317Q45 395 100 395Q142 395 172 347T218 216T234 30Q234 -5 233 -23Q276 44 309 109T351 211Q356 230 356 253Q356 287 340 333Q332 352 332 363Q332 377 342 386T368 396Q406 396 406 341ZM160 478T149 489T138 519Q138 538 149
549T180 560Q200 560 210 550T221 519Q221 500 211 489T180 478Q160 478 149 489ZM311 478T300 489T288 519Q288 538 299 549T331 560Q351 560 361 550T372 519Q372 500 362 489T331 478Q311 478 300 489Z" />
<glyph unicode="&#x2013;" glyph-name="endash" horiz-adv-x="515" d="M32 170T31 176T29 191Q29 198 30 203T33 209H481Q483 209 484 203T486 190Q486 183 485 177T481 170H34Q32 170 31 176Z" />
<glyph unicode="&#x2014;" glyph-name="emdash" horiz-adv-x="830" d="M32 170T31 176T29 191Q29 198 30 203T33 209H796Q798 209 799 203T801 190Q801 183 800 177T796 170H34Q32 170 31 176Z" />
<glyph unicode="&#x2018;" glyph-name="quoteleft" horiz-adv-x="154" d="M177 636T179 636Q182 636 184 632T183 626Q146 598 126 570T100 508Q98 496 98 491Q98 482 101 474Q110 484 128 484Q146 484 156 473T167 445Q167 426 155 416T120 405Q95 405 80 421T65
468Q65 555 176 635Q177 636 179 636Z" />
<glyph unicode="&#x2019;" glyph-name="quoteright" horiz-adv-x="144" d="M159 634T174 618T189 571Q189 484 78 404Q77 403 75 403Q72 403 70 407T71 413Q108 441 128 469T154 531Q156 543 156 548Q156 558 153 565Q144 555 126 555Q108 555 98 566T87 594Q87
613 99 623T134 634Q159 634 174 618Z" />
<glyph unicode="&#x201a;" glyph-name="quotesinglbase" horiz-adv-x="143" d="M317 71T332 55T347 8Q347 -79 236 -159Q235 -160 233 -160Q230 -160 228 -156T229 -150Q266 -122 286 -94T312 -32Q314 -20 314 -15Q314 -6 311 2Q302 -8 284 -8Q266 -8 256 3T245
31Q245 50 257 60T292 71Q317 71 332 55Z" />
<glyph unicode="&#x201c;" glyph-name="quotedblleft" horiz-adv-x="288" d="M181 636T183 636Q186 636 188 632T187 626Q150 598 130 570T104 508Q102 496 102 491Q102 482 105 474Q114 484 132 484Q150 484 160 473T171 445Q171 426 159 416T124 405Q99 405
84 421T69 468Q69 555 180 635Q181 636 183 636ZM326 636T328 636Q331 636 333 632T332 626Q295 598 275 570T249 508Q247 496 247 491Q247 482 250 474Q259 484 277 484Q295 484 305 473T316 445Q316 426 304 416T269 405Q244 405 229 421T214 468Q214 555 325
635Q326 636 328 636Z" />
<glyph unicode="&#x201d;" glyph-name="quotedblright" horiz-adv-x="289" d="M305 634T320 618T335 571Q335 484 224 404Q223 403 221 403Q218 403 216 407T217 413Q254 441 274 469T300 531Q302 543 302 548Q302 557 299 565Q290 555 272 555Q254 555 244 566T233
594Q233 613 245 623T280 634Q305 634 320 618ZM160 634T175 618T190 571Q190 484 79 404Q78 403 76 403Q73 403 71 407T72 413Q109 441 129 469T155 531Q157 543 157 548Q157 557 154 565Q145 555 127 555Q109 555 99 566T88 594Q88 613 100 623T135 634Q160 634
175 618Z" />
<glyph unicode="&#x201e;" glyph-name="quotedblbase" horiz-adv-x="289" d="M206 71T221 55T236 8Q236 -79 125 -159Q124 -160 122 -160Q119 -160 117 -156T118 -150Q155 -122 175 -94T201 -32Q203 -20 203 -15Q203 -6 200 2Q191 -8 173 -8Q155 -8 145 3T134
31Q134 50 146 60T181 71Q206 71 221 55ZM317 71T332 55T347 8Q347 -79 236 -159Q235 -160 233 -160Q230 -160 228 -156T229 -150Q266 -122 286 -94T312 -32Q314 -20 314 -15Q314 -6 311 2Q302 -8 284 -8Q266 -8 256 3T245 31Q245 50 257 60T292 71Q317 71 332
55Z" />
<glyph unicode="&#x2022;" glyph-name="bullet" horiz-adv-x="303" d="M121 151T93 179T64 248Q64 288 92 316T161 344Q201 344 229 316T258 248Q258 207 230 179T161 151Q121 151 93 179Z" />
<glyph unicode="&#x2039;" glyph-name="guilsinglleft" horiz-adv-x="277" d="M243 364Q246 364 249 361T250 356L113 201L196 47V46Q196 43 193 40T188 40L53 189Q50 194 50 199Q50 206 56 212L242 364H243Z" />
<glyph unicode="&#x203a;" glyph-name="guilsinglright" horiz-adv-x="276" d="M36 37Q33 37 30 40T29 46L167 200L83 354V355Q83 358 86 361T91 361L227 212Q230 208 230 202Q230 195 224 189L37 37H36Z" />
</font>
</defs>
</svg>
